osu file format v14

[General]
AudioFilename: audio.mp3
AudioLeadIn: 0
PreviewTime: 70012
Countdown: 0
SampleSet: Soft
StackLeniency: 0.5
Mode: 0
LetterboxInBreaks: 0
WidescreenStoryboard: 1

[Editor]
DistanceSpacing: 1
BeatDivisor: 4
GridSize: 4
TimelineZoom: 2.6

[Metadata]
Title:Arbelge no Tatakai
TitleUnicode:アーベルジュの戦い
Artist:Sound Horizon
ArtistUnicode:Sound Horizon
Creator:P_O
Version:Normal
Source:
Tags:1st Story Renewal Page 324 Chronicle 2nd Instrumental Japanese Metal Opera Symphonic Rock Revo Other Linked Horizon
BeatmapID:2290697
BeatmapSetID:1075671

[Difficulty]
HPDrainRate:4
CircleSize:3.5
OverallDifficulty:4
ApproachRate:4
SliderMultiplier:1.4
SliderTickRate:1

[Events]
//Background and Video events
0,0,"Image0001.jpg",0,0
//Break Periods
//Storyboard Layer 0 (Background)
//Storyboard Layer 1 (Fail)
//Storyboard Layer 2 (Pass)
//Storyboard Layer 3 (Foreground)
//Storyboard Layer 4 (Overlay)
//Storyboard Sound Samples

[TimingPoints]
5537,447.761194029851,4,2,0,40,1,0
5537,-119.047619047619,4,2,0,40,0,0
19865,-119.047619047619,4,3,0,50,0,0
22551,-119.047619047619,4,3,0,50,0,0
27029,-119.047619047619,4,2,0,45,0,0
41357,-119.047619047619,4,2,0,50,0,1
55686,-119.047619047619,4,3,0,55,0,0
68223,-119.047619047619,4,2,0,45,0,0
70014,447.761194029851,7,3,0,40,1,0
70014,-119.047619047619,4,3,0,40,0,0
76283,-119.047619047619,4,3,0,60,0,0
82551,-119.047619047619,4,2,0,50,0,0
82999,447.761194029851,4,2,0,50,1,1
82999,-119.047619047619,4,2,0,50,0,1
97327,-119.047619047619,4,2,0,40,0,0
110760,-119.047619047619,4,3,0,50,0,0
111656,-119.047619047619,4,3,0,50,0,0
118820,-119.047619047619,4,3,0,75,0,0

[Colours]
Combo1 : 63,199,80
Combo2 : 255,32,255
Combo3 : 183,181,98
Combo4 : 242,26,58

[HitObjects]
385,311,5536,5,2,0:0:0:0:
476,236,5984,1,0,0:0:0:0:
476,118,6432,2,0,L|476:41,2,58.7999982055665,8|0|8,0:0|0:0|0:0,0:0:0:0:
394,203,7328,2,0,L|339:257,2,58.7999982055665,8|0|8,0:0|0:0|0:0,0:0:0:0:
394,85,8223,2,2,B|355:39|355:39|303:10,1,117.599996411133,2|0,0:0|0:0,0:0:0:0:
186,11,9119,5,2,0:0:0:0:
90,79,9566,1,0,0:0:0:0:
91,196,10014,2,0,L|91:273,2,58.7999982055665,8|0|8,0:0|0:0|0:0,0:0:0:0:
173,111,10910,2,0,L|227:56,2,58.7999982055665,8|0|8,0:0|0:0|0:0,0:0:0:0:
173,229,11805,2,2,B|211:274|211:274|263:303,1,117.599996411133,2|0,0:0|0:0,0:0:0:0:
380,302,12701,5,14,0:3:0:0:
497,302,13148,1,0,0:0:0:0:
497,184,13596,2,0,L|497:106,2,58.7999982055665,8|0|8,0:0|0:0|0:0,0:0:0:0:
415,268,14492,2,0,L|360:322,2,58.7999982055665,8|0|8,0:0|0:0|0:0,0:0:0:0:
415,150,15387,2,2,B|376:104|376:104|324:75,1,117.599996411133,2|0,0:0|0:0,0:0:0:0:
220,24,16283,5,2,0:0:0:0:
114,76,16731,1,0,0:0:0:0:
114,193,17178,2,0,L|114:270,1,58.7999982055665,8|0,0:0|0:0,0:0:0:0:
158,291,17626,1,8,0:0:0:0:
278,291,18074,5,8,0:0:0:0:
336,291,18298,1,4,0:0:0:0:
394,291,18522,1,8,0:0:0:0:
439,182,18969,5,8,0:0:0:0:
386,155,19193,1,8,0:0:0:0:
334,129,19417,1,14,0:0:0:0:
221,97,19865,5,8,0:0:0:0:
221,155,20089,1,8,0:0:0:0:
221,273,20537,1,6,0:3:0:0:
103,273,20984,6,0,L|45:225,1,58.7999982055665,8|6,0:0|0:3,0:0:0:0:
13,198,21432,1,2,0:0:0:0:
13,138,21656,2,0,L|13:58,1,58.7999982055665,8|8,0:3|0:0,0:0:0:0:
114,138,22328,1,8,0:0:0:0:
172,138,22551,5,6,3:1:0:0:
289,138,22999,1,6,3:1:0:0:
399,179,23447,1,6,3:1:0:0:
350,212,23671,2,0,L|223:212,1,117.599996411133,8|2,0:0|0:0,0:0:0:0:
173,314,24566,5,8,0:0:0:0:
232,314,24790,2,2,L|305:314,1,58.7999982055665
349,314,25238,2,0,P|404:286|440:222,1,117.599996411133,8|8,0:0|0:0,0:0:0:0:
435,122,26134,2,0,P|407:66|343:30,1,117.599996411133,8|8,0:0|0:0,0:0:0:0:
244,35,27029,5,10,0:0:0:0:
126,35,27477,2,0,B|61:69|61:69|25:118,2,117.599996411133,8|2|0,0:0|0:0|0:0,0:0:0:0:
185,35,28596,1,0,0:0:0:0:
243,35,28820,2,2,B|308:69|308:69|344:118,2,117.599996411133,2|8|2,0:0|0:0|0:0,0:0:0:0:
185,137,30163,1,12,3:0:0:0:
185,137,30611,5,12,3:0:0:0:
185,254,31059,2,0,P|120:221|82:172,2,117.599996411133,8|2|8,0:0|0:0|0:0,0:0:0:0:
243,258,32178,1,4,0:0:0:0:
301,258,32402,2,2,P|366:291|402:342,2,117.599996411133,2|2|4,0:0|0:0|0:0,0:0:0:0:
243,155,33745,1,14,3:0:0:0:
243,155,34193,5,14,3:0:0:0:
302,53,34641,2,0,L|403:137,2,117.599996411133,8|2|0,0:0|0:0|0:0,0:0:0:0:
243,53,35760,1,0,0:0:0:0:
184,53,35984,2,0,L|83:137,2,117.599996411133,0|8|2,0:0|0:0|0:0,0:0:0:0:
243,154,37328,1,12,3:0:0:0:
243,154,37775,5,12,3:0:0:0:
243,271,38223,2,0,P|203:315|148:337,2,117.599996411133,8|2|0,0:0|0:0|0:0,0:0:0:0:
301,271,39342,1,0,0:0:0:0:
359,271,39566,2,2,P|403:230|425:176,1,117.599996411133
306,178,40462,1,14,0:0:0:0:
392,68,41357,6,2,P|472:85|517:111,1,117.599996411133,12|10,0:3|0:0,0:0:0:0:
504,161,42029,1,4,0:0:0:0:
504,220,42253,1,8,0:0:0:0:
441,318,42701,1,10,0:0:0:0:
324,319,43148,2,2,L|187:319,1,117.599996411133,12|10,0:3|0:0,0:0:0:0:
146,319,43820,1,4,0:0:0:0:
146,378,44044,2,0,L|28:378,1,117.599996411133,8|10,0:0|0:0,0:0:0:0:
28,318,44716,5,8,0:0:0:0:
28,259,44939,2,2,L|28:131,1,117.599996411133,6|10,0:3|0:0,0:0:0:0:
28,23,45835,1,8,0:0:0:0:
145,23,46283,1,10,0:0:0:0:
262,23,46731,6,2,L|349:23,1,58.7999982055665,6|2,0:3|0:0,0:0:0:0:
379,23,47178,1,6,0:3:0:0:
467,100,47626,2,2,L|468:181,1,58.7999982055665,6|2,0:3|0:0,0:0:0:0:
466,217,48074,1,8,0:3:0:0:
422,326,48522,6,2,P|345:351|286:351,1,117.599996411133,12|10,0:3|0:0,0:0:0:0:
250,351,49193,1,4,0:0:0:0:
250,292,49417,1,8,0:0:0:0:
250,174,49865,1,10,0:0:0:0:
250,56,50313,6,2,L|174:56,1,58.7999982055665,6|2,0:3|0:0,0:0:0:0:
132,56,50760,1,6,0:3:0:0:
14,56,51208,2,2,L|14:124,1,58.7999982055665,6|2,0:3|0:0,0:0:0:0:
14,173,51656,1,6,0:3:0:0:
14,290,52104,6,0,L|147:290,1,117.599996411133,4|14,0:3|0:0,0:0:0:0:
190,290,52775,1,4,0:0:0:0:
248,290,52999,2,2,B|314:290|314:290|368:313,1,117.599996411133,6|0,0:3|0:0,0:0:0:0:
361,191,53895,2,0,L|243:191,1,117.599996411133,12|6,0:3|0:3,0:0:0:0:
125,189,54790,2,0,L|2:189,1,117.599996411133,8|8,2:3|0:0,0:0:0:0:
1,71,55686,6,0,B|48:50|48:50|114:50,1,117.599996411133,14|0,0:0|0:0,0:0:0:0:
209,119,56581,1,6,0:0:0:0:
209,233,57029,1,12,0:0:0:0:
268,233,57253,1,8,0:0:0:0:
327,233,57477,2,0,B|326:158|326:158|286:120,1,117.599996411133,8|0,0:0|0:0,0:0:0:0:
412,128,58372,1,4,0:0:0:0:
412,187,58596,1,0,0:0:0:0:
412,246,58820,1,6,0:0:0:0:
471,347,59268,6,0,B|510:307|510:307|510:239,1,117.599996411133,4|0,0:0|0:0,0:0:0:0:
392,246,60163,1,6,0:0:0:0:
332,347,60611,1,12,0:0:0:0:
272,347,60835,1,8,0:0:0:0:
212,347,61059,2,0,B|136:345|136:345|98:306,1,117.599996411133,8|0,0:0|0:0,0:0:0:0:
107,197,61954,1,12,0:0:0:0:
107,138,62178,1,8,0:0:0:0:
107,78,62402,2,0,L|107:10,1,58.7999982055665,12|8,0:0|0:0,0:0:0:0:
166,19,62850,6,0,B|240:18|240:18|281:60,1,117.599996411133,14|0,0:0|0:0,0:0:0:0:
271,166,63745,1,6,0:0:0:0:
153,166,64193,1,12,0:0:0:0:
113,208,64417,1,8,0:0:0:0:
72,250,64641,2,0,B|92:322|92:322|140:348,1,117.599996411133,8|0,0:0|0:0,0:0:0:0:
248,342,65537,1,6,0:0:0:0:
289,300,65761,1,0,0:0:0:0:
329,258,65985,1,6,0:0:0:0:
329,140,66432,6,0,B|282:87|282:87|215:87,1,117.599996411133,4|0,0:0|0:0,0:0:0:0:
117,87,67328,1,4,0:0:0:0:
31,167,67775,1,12,0:0:0:0:
89,167,67999,1,8,0:0:0:0:
147,167,68223,6,2,L|269:167,1,117.599996411133,12|0,0:0|0:0,0:0:0:0:
348,250,69119,2,2,L|230:250,1,117.599996411133,12|0,0:0|0:0,0:0:0:0:
145,329,70014,5,4,2:0:0:0:
262,329,70461,1,8,0:0:0:0:
379,329,70909,1,8,0:0:0:0:
496,329,71357,1,8,0:0:0:0:
496,211,71805,6,0,P|488:135|459:95,1,117.599996411133,8|8,0:0|0:0,0:0:0:0:
375,26,72700,2,0,P|299:33|259:63,1,117.599996411133,10|10,0:0|0:0,0:0:0:0:
242,111,73372,1,10,0:0:0:0:
242,169,73596,5,8,0:0:0:0:
242,286,74043,1,8,0:0:0:0:
124,286,74491,1,12,0:0:0:0:
29,216,74939,2,0,L|29:83,1,117.599996411133,8|8,0:0|0:0,0:0:0:0:
29,40,75611,1,8,0:0:0:0:
87,40,75835,1,8,0:0:0:0:
209,40,76283,5,12,0:3:0:0:
268,40,76507,1,2,0:0:0:0:
307,83,76730,1,8,0:3:0:0:
348,183,77178,1,8,0:3:0:0:
348,300,77625,1,4,0:0:0:0:
229,300,78074,6,0,L|102:300,1,117.599996411133,8|8,0:0|0:0,0:0:0:0:
52,300,78745,1,10,0:0:0:0:
52,241,78969,1,10,0:0:0:0:
52,123,79416,6,0,L|52:54,1,58.7999982055665,8|8,0:3|0:0,0:0:0:0:
94,23,79864,1,8,0:0:0:0:
211,23,80312,1,8,0:3:0:0:
328,23,80760,1,8,0:0:0:0:
369,64,80984,1,8,0:0:0:0:
370,123,81208,6,0,L|369:264,1,117.599996411133,8|8,0:3|0:3,0:0:0:0:
369,299,81880,1,8,0:0:0:0:
310,299,82104,2,0,L|171:299,1,117.599996411133,8|12,0:0|0:0,0:0:0:0:
152,190,82999,6,2,P|216:139|265:122,1,117.599996411133,12|10,0:3|0:0,0:0:0:0:
308,127,83671,1,4,0:0:0:0:
366,127,83895,1,8,0:0:0:0:
483,127,84342,1,10,0:0:0:0:
483,244,84790,2,2,L|378:305,1,117.599996411133,12|10,0:3|0:0,0:0:0:0:
331,335,85462,1,4,0:0:0:0:
295,287,85686,2,0,L|190:347,1,117.599996411133,8|10,0:0|0:0,0:0:0:0:
135,345,86357,5,8,0:0:0:0:
135,286,86581,2,2,L|135:158,1,117.599996411133,12|10,0:3|0:0,0:0:0:0:
135,50,87477,1,8,0:0:0:0:
17,50,87925,1,10,0:0:0:0:
17,167,88372,6,2,L|17:254,1,58.7999982055665,6|2,0:3|0:0,0:0:0:0:
17,284,88819,1,6,0:3:0:0:
96,371,89268,2,2,L|177:372,1,58.7999982055665,6|2,0:3|0:0,0:0:0:0:
213,372,89715,1,8,0:3:0:0:
320,327,90163,6,2,P|366:260|383:204,1,117.599996411133,12|10,0:3|0:0,0:0:0:0:
396,169,90835,1,4,0:0:0:0:
412,113,91059,1,8,0:0:0:0:
303,66,91507,1,10,0:0:0:0:
195,15,91954,6,2,L|119:15,1,58.7999982055665,6|2,0:3|0:0,0:0:0:0:
77,15,92401,1,6,0:3:0:0:
14,115,92850,2,2,L|14:183,1,58.7999982055665,6|2,0:3|0:0,0:0:0:0:
14,232,93297,1,6,0:3:0:0:
131,232,93745,6,0,L|264:232,1,117.599996411133,4|14,0:3|0:0,0:0:0:0:
307,232,94416,1,4,0:0:0:0:
365,232,94640,2,2,B|431:232|431:232|485:209,1,117.599996411133,6|0,0:3|0:0,0:0:0:0:
478,331,95536,2,0,L|360:331,1,117.599996411133,12|6,0:0|0:3,0:0:0:0:
242,331,96431,2,0,L|124:331,1,117.599996411133,8|8,0:3|0:3,0:0:0:0:
34,262,97328,6,2,P|34:185|72:132,1,117.599996411133,12|0,0:3|0:0,0:0:0:0:
137,69,98223,1,0,0:0:0:0:
254,69,98671,2,0,P|308:123|319:187,2,117.599996411133,0|2|0,0:0|0:0|0:0,0:0:0:0:
137,69,100014,2,2,P|82:123|71:187,1,117.599996411133,2|0,0:0|0:0,0:0:0:0:
69,277,100910,6,2,P|123:331|187:342,1,117.599996411133,2|0,0:0|0:0,0:0:0:0:
277,342,101805,2,0,P|331:287|342:223,1,117.599996411133
342,132,102701,2,2,P|396:77|460:66,1,117.599996411133,2|0,0:0|0:0,0:0:0:0:
479,174,103596,2,2,P|428:232|366:249,1,117.599996411133,2|0,0:0|0:0,0:0:0:0:
332,253,104268,1,2,0:0:0:0:
274,257,104492,6,2,P|214:207|197:144,1,117.599996411133,2|0,0:0|0:0,0:0:0:0:
155,62,105387,2,0,P|100:116|89:180,1,117.599996411133
89,270,106283,6,10,B|89:317|89:317|127:349,2,88.1999973083497,2|0|0,0:0|0:0|0:0,0:0:0:0:
89,212,107178,2,10,L|221:212,1,117.599996411133,2|0,0:0|0:0,0:0:0:0:
323,212,108074,6,2,P|343:137|321:76,1,117.599996411133,2|0,0:0|0:0,0:0:0:0:
226,52,108969,2,10,B|179:52|179:52|147:90,2,88.1999973083497,2|0|0,0:0|0:0|0:0,0:0:0:0:
285,52,109865,1,2,0:0:0:0:
256,192,111656,6,0,L|256:124,1,58.7999982055665,6|8,0:0|0:0,0:0:0:0:
256,74,112104,1,4,0:0:0:0:
256,15,112328,1,2,0:0:0:0:
138,15,112775,6,0,L|64:14,1,58.7999982055665,8|6,0:0|0:0,0:0:0:0:
20,15,113223,1,2,0:0:0:0:
20,73,113447,2,0,L|20:154,1,58.7999982055665,8|8,0:0|0:0,0:0:0:0:
20,249,114119,1,8,0:0:0:0:
78,249,114342,6,0,L|201:249,2,117.599996411133,6|6|6,0:1|0:1|0:1,0:0:0:0:
78,189,115462,1,8,0:0:0:0:
78,131,115686,2,0,L|78:61,1,58.7999982055665,4|6,0:0|0:0,0:0:0:0:
195,72,116357,5,8,0:0:0:0:
254,72,116581,2,0,L|327:72,1,58.7999982055665,4|8,0:0|0:0,0:0:0:0:
256,192,117029,12,12,118820,0:0:0:0:
