osu file format v14

[General]
AudioFilename: audio.mp3
AudioLeadIn: 0
PreviewTime: 70012
Countdown: 0
SampleSet: Drum
StackLeniency: 0.2
Mode: 0
LetterboxInBreaks: 0
WidescreenStoryboard: 1

[Editor]
DistanceSpacing: 0.5
BeatDivisor: 8
GridSize: 4
TimelineZoom: 1.9

[Metadata]
Title:Arbelge no Tatakai
TitleUnicode:アーベルジュの戦い
Artist:Sound Horizon
ArtistUnicode:Sound Horizon
Creator:P_O
Version:Insane
Source:
Tags:1st Story Renewal Page 324 Chronicle 2nd Instrumental Japanese Metal Opera Symphonic Rock Revo Other Linked Horizon
BeatmapID:2383173
BeatmapSetID:1075671

[Difficulty]
HPDrainRate:6
CircleSize:4
OverallDifficulty:7.5
ApproachRate:8.2
SliderMultiplier:1.6
SliderTickRate:1

[Events]
//Background and Video events
0,0,"Image0001.jpg",0,0
//Break Periods
//Storyboard Layer 0 (Background)
//Storyboard Layer 1 (Fail)
//Storyboard Layer 2 (Pass)
//Storyboard Layer 3 (Foreground)
//Storyboard Layer 4 (Overlay)
//Storyboard Sound Samples

[TimingPoints]
5537,447.761194029851,4,2,0,40,1,0
19865,-100,4,3,0,50,0,0
27029,-100,4,2,0,45,0,0
41357,-100,4,2,0,50,0,1
55686,-83.3333333333333,4,3,0,55,0,0
68223,-100,4,2,0,45,0,0
70014,447.761194029851,7,3,0,40,1,0
76282,-83.3333333333333,4,3,0,60,0,0
82551,-100,4,2,0,50,0,0
82999,447.761194029851,4,2,0,50,1,1
97327,-166.666666666667,4,2,0,40,0,0
110760,-100,4,3,0,50,0,0
118819,-100,4,3,0,75,0,0

[Colours]
Combo1 : 63,199,80
Combo2 : 255,32,255
Combo3 : 183,181,98
Combo4 : 242,26,58

[HitObjects]
131,205,5536,6,2,B|162:265|162:265|267:265,1,160,2|0,0:0|0:0,0:0:0:0:
255,41,6432,1,8,0:0:0:0:
255,153,6656,1,0,0:0:0:0:
255,265,6880,1,8,0:0:0:0:
448,377,7328,5,8,0:0:0:0:
448,265,7551,1,0,0:0:0:0:
448,153,7775,1,8,0:0:0:0:
255,41,8223,2,2,B|149:41|149:41|104:94,1,160,2|0,0:0|0:0,0:0:0:0:
114,306,9119,6,2,L|284:306,1,160,2|0,0:0|0:0,0:0:0:0:
386,112,10014,1,8,0:0:0:0:
274,112,10238,1,0,0:0:0:0:
162,112,10462,1,8,0:0:0:0:
50,306,10910,5,8,0:0:0:0:
162,306,11134,1,0,0:0:0:0:
274,306,11358,1,8,0:0:0:0:
497,306,11805,2,2,B|497:217|497:217|441:164,1,160,2|0,0:0|0:0,0:0:0:0:
231,168,12701,6,0,L|70:168,1,160,14|0,0:3|0:0,0:3:0:0:
231,11,13596,1,8,0:0:0:0:
310,90,13820,1,0,0:0:0:0:
389,169,14044,1,8,0:0:0:0:
310,379,14492,5,8,0:0:0:0:
389,300,14716,1,0,0:0:0:0:
468,221,14940,1,8,0:0:0:0:
244,221,15387,2,2,B|157:221|157:221|98:141,1,160,2|0,0:0|0:0,0:0:0:0:
30,351,16283,6,2,L|30:177,1,160,2|0,0:0|0:0,0:0:0:0:
246,134,17178,1,8,0:0:0:0:
138,105,17402,1,0,0:0:0:0:
30,76,17626,1,8,0:0:0:0:
138,271,18074,5,8,0:0:0:0:
246,242,18298,1,4,0:0:0:0:
354,225,18522,5,8,0:0:0:0:
354,204,18634,1,0,0:0:0:0:
354,184,18745,1,8,0:0:0:0:
354,163,18857,1,0,0:0:0:0:
354,142,18969,5,8,0:0:0:0:
368,127,19081,1,0,0:0:0:0:
382,113,19192,1,8,0:0:0:0:
397,98,19304,1,0,0:0:0:0:
412,83,19417,2,2,L|511:83,1,80,14|2,0:0|0:0,0:0:0:0:
291,83,19865,5,8,0:0:0:0:
146,83,20089,1,8,0:0:0:0:
117,111,20201,1,8,0:0:0:0:
146,139,20313,1,4,0:0:0:0:
146,283,20537,6,2,L|146:369,1,80,6|2,0:3|0:0,0:0:0:0:
290,364,20984,1,8,0:0:0:0:
330,364,21096,1,8,0:0:0:0:
330,324,21208,2,2,L|330:242,1,80,6|2,0:3|0:0,0:0:0:0:
450,364,21656,5,8,0:3:0:0:
450,204,21880,1,8,0:0:0:0:
450,164,21992,1,8,0:0:0:0:
410,164,22104,2,0,L|328:164,1,80,4|8,0:0|0:0,0:0:0:0:
290,164,22439,1,8,0:0:0:0:
250,164,22551,6,2,L|192:221,1,80,6|2,0:3|0:0,0:0:0:0:
193,75,22999,2,2,L|249:18,1,80,6|2,0:3|0:0,0:0:0:0:
430,18,23447,5,8,0:3:0:0:
430,162,23671,1,8,0:0:0:0:
459,190,23783,1,8,0:0:0:0:
430,217,23895,1,4,0:0:0:0:
430,377,24119,6,2,L|430:295,1,80
285,297,24566,1,8,0:0:0:0:
257,326,24678,1,8,0:0:0:0:
230,297,24790,2,2,L|146:297,1,80
5,297,25238,6,0,L|5:257,3,40,8|0|2|0,0:0|0:0|0:0|0:0,0:0:0:0:
5,181,25686,2,0,L|5:141,3,40,8|0|8|0,0:0|0:0|0:0|0:0,0:0:0:0:
5,68,26134,2,0,L|39:48,3,40,8|0|8|0,0:0|0:0|0:0|0:0,0:0:0:0:
113,48,26581,2,0,L|147:68,3,40,8|0|8|0,0:0|0:0|0:0|0:0,0:0:0:0:
148,162,27029,6,2,B|148:207|148:207|186:249,1,80,10|2,0:0|0:0,0:0:0:0:
318,233,27477,1,8,0:0:0:0:
358,233,27589,1,8,0:0:0:0:
398,233,27701,1,4,0:0:0:0:
398,89,27925,6,2,B|356:89|356:89|325:113,1,80
476,233,28372,2,0,B|505:260|505:260|505:305,1,80
352,372,28820,2,2,L|266:372,1,80
127,372,29268,5,8,0:0:0:0:
87,372,29380,1,8,0:0:0:0:
47,372,29492,1,4,0:0:0:0:
127,252,29716,1,2,0:0:0:0:
270,252,29939,1,2,0:0:0:0:
30,252,30163,2,0,L|30:167,1,80,12|0,3:0|3:0,3:0:0:0:
30,11,30611,2,0,L|30:91,1,80,12|0,3:0|3:0,3:0:0:0:
174,91,31059,5,8,0:0:0:0:
214,91,31171,1,8,0:0:0:0:
254,91,31283,1,4,0:0:0:0:
398,91,31507,2,2,B|438:91|438:91|471:115,1,80
306,187,31954,2,0,B|306:227|306:227|329:260,1,80,8|4,0:0|0:0,0:0:0:0:
471,202,32402,6,2,B|471:292|471:292|401:341,1,160
253,332,33074,1,8,0:0:0:0:
218,297,33186,1,8,0:0:0:0:
218,247,33298,1,4,0:0:0:0:
218,87,33522,1,0,0:0:0:0:
74,87,33745,2,0,L|74:174,1,80,14|0,3:0|0:0,0:0:0:0:
74,328,34193,2,0,L|74:241,1,80,14|0,3:0|0:0,0:0:0:0:
194,328,34641,5,8,0:0:0:0:
234,328,34753,1,8,0:0:0:0:
274,328,34865,1,4,0:0:0:0:
434,328,35089,2,2,B|451:291|451:291|451:250,1,80
352,101,35537,2,0,B|401:101|401:101|430:126,1,80
511,4,35984,2,0,L|416:4,1,80
286,4,36432,5,8,0:0:0:0:
246,4,36544,1,8,0:0:0:0:
206,4,36656,1,4,0:0:0:0:
61,4,36880,1,2,0:0:0:0:
206,89,37104,1,2,0:0:0:0:
61,89,37328,2,0,L|61:184,1,80,12|0,3:0|3:0,3:0:0:0:
61,329,37775,2,0,L|61:249,1,80,12|0,3:0|3:0,3:0:0:0:
206,169,38223,5,8,0:0:0:0:
206,209,38335,1,8,0:0:0:0:
206,249,38447,1,4,0:0:0:0:
328,145,38671,2,2,B|365:157|365:157|396:189,1,80
394,307,39119,2,0,B|394:348|394:348|369:379,1,80
263,379,39566,2,2,B|263:289|263:289|193:240,1,160
99,149,40238,5,8,0:0:0:0:
99,100,40350,1,8,0:0:0:0:
99,52,40462,1,14,0:0:0:0:
3,148,40686,1,2,0:0:0:0:
198,148,40910,5,8,0:0:0:0:
185,163,41022,1,0,0:0:0:0:
172,179,41134,1,8,0:0:0:0:
160,194,41245,1,0,0:0:0:0:
149,210,41357,6,2,B|172:241|172:241|166:286,1,80,12|10,0:3|0:0,0:0:0:0:
166,282,41693,1,8,0:0:0:0:
166,281,41805,1,10,0:0:0:0:
255,384,42029,1,4,0:0:0:0:
259,236,42253,5,8,0:0:0:0:
259,236,42365,1,10,0:0:0:0:
263,90,42589,1,8,0:0:0:0:
263,90,42701,1,10,0:0:0:0:
380,166,42925,1,8,0:0:0:0:
371,184,43037,1,8,0:0:0:0:
363,202,43148,6,2,B|344:237|344:237|359:279,1,80,12|8,0:3|0:0,0:0:0:0:
357,275,43484,1,8,0:0:0:0:
357,275,43596,1,10,0:0:0:0:
439,384,43820,1,4,0:0:0:0:
439,239,44044,5,8,0:0:0:0:
439,239,44156,1,10,0:0:0:0:
371,105,44380,1,8,0:0:0:0:
371,105,44492,1,10,0:0:0:0:
235,105,44716,1,8,0:0:0:0:
214,105,44828,1,8,0:0:0:0:
193,105,44939,6,2,B|154:105|154:105|120:134,1,80,6|8,0:3|0:0,0:0:0:0:
123,132,45275,1,8,0:0:0:0:
123,132,45387,1,10,0:0:0:0:
130,261,45611,1,4,0:0:0:0:
9,176,45835,5,8,0:0:0:0:
9,176,45947,1,10,0:0:0:0:
13,24,46171,1,8,0:0:0:0:
13,24,46283,1,10,0:0:0:0:
153,31,46507,1,8,0:0:0:0:
153,31,46619,1,8,0:0:0:0:
153,31,46731,6,2,B|201:31|201:31|245:71,1,80,6|2,0:3|0:0,0:0:0:0:
286,114,47066,1,8,0:0:0:0:
374,114,47178,2,2,B|422:114|422:114|466:154,1,80,6|2,0:3|0:0,0:0:0:0:
445,224,47514,1,8,0:0:0:0:
356,223,47626,2,2,B|315:223|315:223|284:248,1,80,6|2,0:3|0:0,0:0:0:0:
187,384,48074,5,8,0:3:0:0:
208,384,48186,1,0,0:0:0:0:
229,384,48298,1,8,0:0:0:0:
250,384,48410,1,0,0:0:0:0:
271,384,48522,2,2,B|327:384|327:384|382:349|382:349|382:288,1,160,12|10,0:3|0:0,0:0:0:0:
382,155,49193,1,4,0:0:0:0:
501,74,49417,5,8,0:0:0:0:
501,74,49529,1,10,0:0:0:0:
505,214,49753,1,8,0:0:0:0:
505,214,49865,1,10,0:0:0:0:
505,362,50089,1,8,0:0:0:0:
484,362,50201,1,8,0:0:0:0:
463,362,50313,6,2,B|421:362|421:362|390:332,1,80,6|2,0:3|0:0,0:0:0:0:
395,247,50648,1,8,0:0:0:0:
394,158,50760,2,2,B|364:128|364:128|322:128,1,80,6|2,0:3|0:0,0:0:0:0:
268,57,51096,1,8,0:0:0:0:
356,57,51208,2,2,B|397:57|397:57|428:27,1,80,6|2,0:3|0:0,0:0:0:0:
508,4,51544,1,8,0:0:0:0:
508,92,51656,2,2,L|509:183,1,80,6|2,0:3|0:0,0:0:0:0:
508,325,52104,6,0,B|478:354|478:354|436:355,1,80,4|8,0:3|0:0,0:0:0:0:
440,354,52439,1,8,0:0:0:0:
440,354,52551,1,14,0:0:0:0:
293,361,52775,1,4,0:0:0:0:
368,230,52999,6,2,B|382:192|382:192|382:148|382:148|365:114,2,120,6|2|10,0:3|0:0|0:0,0:0:0:0:
368,44,53895,1,12,0:3:0:0:
187,44,54119,5,8,0:0:0:0:
166,44,54231,1,8,0:0:0:0:
145,44,54342,1,6,0:3:0:0:
36,131,54566,1,8,2:0:0:0:
36,152,54678,1,10,2:0:0:0:
36,173,54790,1,8,2:3:0:0:
36,312,55014,5,0,0:0:0:0:
57,312,55126,1,0,2:0:0:0:
78,312,55238,1,8,0:0:0:0:
92,297,55350,1,8,0:0:0:0:
106,282,55462,1,10,0:0:0:0:
120,267,55574,1,8,0:0:0:0:
134,252,55686,6,0,L|134:156,1,95.9999970703126,14|10,0:0|0:0,0:0:0:0:
134,78,56022,1,0,0:0:0:0:
290,82,56245,1,8,0:0:0:0:
290,82,56357,1,0,0:0:0:0:
290,252,56581,1,6,0:0:0:0:
452,383,56917,5,2,0:0:0:0:
479,355,57029,1,12,0:0:0:0:
506,327,57141,1,0,0:0:0:0:
506,287,57253,1,8,0:0:0:0:
506,248,57365,1,0,0:0:0:0:
506,210,57477,6,0,L|506:109,1,95.9999970703126,8|8,0:0|0:0,0:0:0:0:
506,36,57813,1,0,0:0:0:0:
346,40,58037,1,8,0:0:0:0:
346,40,58148,1,0,0:0:0:0:
242,144,58372,1,4,0:0:0:0:
242,297,58596,1,0,0:0:0:0:
109,220,58820,2,0,L|109:184,6,23.9999992675781,6|0|0|0|2|0|0,0:0|0:0|0:0|0:0|0:0|0:0|0:0,0:0:0:0:
146,297,59268,6,0,L|242:297,1,95.9999970703126,4|8,0:0|0:0,0:0:0:0:
320,297,59604,1,0,0:0:0:0:
470,301,59828,1,8,0:0:0:0:
470,301,59939,1,0,0:0:0:0:
320,182,60163,1,6,0:0:0:0:
110,182,60499,5,2,0:0:0:0:
110,142,60611,1,12,0:0:0:0:
111,103,60723,1,0,0:0:0:0:
139,75,60835,1,8,0:0:0:0:
166,48,60947,1,0,0:0:0:0:
194,21,61059,6,0,L|292:21,1,95.9999970703126,8|8,0:0|0:0,0:0:0:0:
367,21,61395,1,0,0:0:0:0:
371,173,61618,1,8,0:0:0:0:
371,173,61731,1,0,0:0:0:0:
482,21,61954,1,12,0:0:0:0:
482,173,62178,1,8,0:0:0:0:
371,327,62402,1,12,0:0:0:0:
260,173,62626,1,8,0:0:0:0:
96,174,62850,6,0,L|-17:174,1,95.9999970703126,14|10,0:0|0:0,0:0:0:0:
0,96,63186,1,0,0:0:0:0:
154,100,63410,1,8,0:0:0:0:
154,100,63522,1,0,0:0:0:0:
38,252,63745,1,6,0:0:0:0:
247,252,64081,5,2,0:0:0:0:
286,252,64193,1,12,0:0:0:0:
314,224,64305,1,0,0:0:0:0:
313,185,64417,1,8,0:0:0:0:
314,146,64529,1,0,0:0:0:0:
314,107,64641,6,0,L|314:-5,1,95.9999970703126,8|8,0:0|0:0,0:0:0:0:
236,11,64977,1,0,0:0:0:0:
240,161,65201,1,8,0:0:0:0:
240,161,65313,1,0,0:0:0:0:
120,11,65537,5,6,0:0:0:0:
4,161,65760,1,0,0:0:0:0:
4,317,65984,2,0,L|4:350,6,23.9999992675781,6|0|0|0|2|0|0,0:0|0:0|0:0|0:0|0:0|0:0|0:0,0:0:0:0:
81,317,66432,6,0,L|185:317,1,95.9999970703126,4|8,0:0|0:0,0:0:0:0:
254,317,66768,1,0,0:0:0:0:
411,321,66992,1,8,0:0:0:0:
411,321,67104,1,0,0:0:0:0:
254,201,67328,1,4,0:0:0:0:
365,25,67663,5,0,0:0:0:0:
403,25,67775,1,12,0:0:0:0:
441,25,67887,1,0,0:0:0:0:
469,50,67999,1,8,0:0:0:0:
482,86,68111,1,0,0:0:0:0:
482,118,68223,6,2,B|465:178|465:178|482:254,1,133.333333333333,12|0,0:0|0:0,0:0:0:0:
351,248,68895,1,4,0:0:0:0:
481,341,69119,2,2,B|414:324|414:324|337:341,1,133.333333333333,12|0,0:0|0:0,0:0:0:0:
351,127,69790,1,4,0:0:0:0:
447,127,70014,6,0,B|463:168|463:168|453:228,1,80,4|0,2:0|0:0,0:0:0:0:
228,203,70461,1,8,0:0:0:0:
228,182,70573,1,8,0:0:0:0:
228,161,70685,1,4,0:0:0:0:
227,16,70909,5,8,0:0:0:0:
242,30,71021,1,8,0:0:0:0:
257,45,71133,1,4,0:0:0:0:
113,45,71357,2,0,B|72:62|72:62|37:112,1,80,8|8,0:0|0:0,0:0:0:0:
49,110,71693,5,8,0:0:0:0:
49,130,71805,2,0,L|49:169,3,26.6666666666667
49,228,72140,1,0,0:0:0:0:
49,248,72252,1,8,0:0:0:0:
49,268,72364,1,0,0:0:0:0:
49,288,72476,1,10,0:0:0:0:
162,228,72700,5,10,0:0:0:0:
182,228,72812,1,0,0:0:0:0:
203,228,72924,1,8,0:0:0:0:
217,212,73036,1,0,0:0:0:0:
231,197,73148,2,0,B|231:156|231:156|210:97,1,80,10|10,0:0|0:0,0:0:0:0:
363,17,73596,5,8,0:0:0:0:
384,17,73708,1,8,0:0:0:0:
404,17,73820,1,4,0:0:0:0:
492,133,74043,1,8,0:0:0:0:
492,112,74155,1,8,0:0:0:0:
492,91,74267,1,4,0:0:0:0:
363,133,74491,2,0,L|284:133,1,80,12|8,0:0|0:0,0:0:0:0:
262,133,74827,5,8,0:0:0:0:
241,133,74939,2,0,L|202:133,3,26.6666666666667,8|0|0|8,0:0|0:0|0:0|0:0,0:0:0:0:
133,133,75275,1,0,0:0:0:0:
112,133,75387,1,8,0:0:0:0:
91,133,75499,1,0,0:0:0:0:
70,133,75611,1,8,0:0:0:0:
50,133,75722,1,8,0:0:0:0:
29,133,75834,2,0,L|29:222,1,80,8|0,0:0|0:0,0:0:0:0:
205,382,76282,6,0,B|205:324|205:324|236:280,1,95.9999970703126,12|2,0:3|0:0,0:0:0:0:
410,292,76730,1,8,0:3:0:0:
458,292,76842,1,8,0:0:0:0:
506,292,76954,1,4,0:0:0:0:
506,131,77178,5,8,0:3:0:0:
472,97,77290,1,8,0:0:0:0:
438,63,77402,1,4,0:0:0:0:
244,63,77625,2,0,B|186:64|186:64|151:83,1,95.9999970703126,4|8,0:0|0:3,0:0:0:0:
116,115,77961,1,8,0:0:0:0:
116,163,78073,6,0,L|116:207,3,31.9999990234375,8|0|0|8,0:0|0:0|0:0|0:0,0:0:0:0:
116,243,78409,1,0,0:0:0:0:
116,291,78521,1,8,0:0:0:0:
83,324,78633,1,0,0:0:0:0:
34,324,78745,2,0,B|34:229,1,95.9999970703126,10|10,0:0|0:0,0:0:0:0:
34,179,79081,5,0,0:0:0:0:
34,131,79193,1,8,0:0:0:0:
34,82,79305,1,0,0:0:0:0:
34,33,79417,2,0,B|129:33,1,95.9999970703126,8|8,0:3|0:0,0:0:0:0:
350,33,79864,5,8,0:0:0:0:
398,33,79976,1,8,0:0:0:0:
446,33,80088,1,4,0:0:0:0:
254,145,80312,1,8,0:3:0:0:
302,145,80424,1,8,0:0:0:0:
350,145,80536,1,4,0:0:0:0:
131,145,80760,6,0,B|66:145|66:145|38:165,1,95.9999970703126,8|8,0:0|0:0,0:0:0:0:
39,213,81096,1,0,0:0:0:0:
39,261,81208,2,0,L|39:298,3,31.9999990234375,8|0|0|8,0:3|0:0|0:0|0:0,0:0:0:0:
87,293,81543,5,0,0:0:0:0:
135,293,81655,1,8,0:3:0:0:
183,293,81767,1,0,0:0:0:0:
216,259,81879,1,8,0:0:0:0:
216,210,81991,1,0,0:0:0:0:
216,161,82103,2,0,L|216:59,1,95.9999970703126,8|0,0:0|0:0,0:0:0:0:
216,380,82551,1,12,0:0:0:0:
1,379,82999,6,2,B|30:349|30:349|30:307,1,80,12|8,0:3|0:0,0:0:0:0:
30,311,83335,1,8,0:0:0:0:
30,311,83447,1,10,0:0:0:0:
36,168,83670,1,4,0:0:0:0:
40,21,83894,5,8,0:0:0:0:
40,21,84006,1,10,0:0:0:0:
139,122,84230,1,8,0:0:0:0:
139,122,84342,1,10,0:0:0:0:
235,17,84566,1,8,0:0:0:0:
253,17,84678,1,8,0:0:0:0:
272,16,84790,6,2,B|313:15|313:15|344:45,1,80,12|8,0:3|0:0,0:0:0:0:
340,42,85125,1,8,0:0:0:0:
340,42,85237,1,10,0:0:0:0:
445,141,85461,1,4,0:0:0:0:
445,286,85685,5,8,0:0:0:0:
445,286,85797,1,10,0:0:0:0:
340,187,86021,1,8,0:0:0:0:
340,187,86133,1,10,0:0:0:0:
188,187,86357,1,8,0:0:0:0:
168,193,86469,1,8,0:0:0:0:
148,199,86581,6,2,B|111:219|111:219|100:260,1,80,12|8,0:3|0:0,0:0:0:0:
101,255,86916,1,8,0:0:0:0:
101,255,87028,1,10,0:0:0:0:
108,373,87252,1,4,0:0:0:0:
245,377,87476,5,8,0:0:0:0:
245,377,87588,1,10,0:0:0:0:
249,226,87812,1,8,0:0:0:0:
249,226,87924,1,10,0:0:0:0:
249,81,88148,1,8,0:0:0:0:
233,66,88260,1,8,0:0:0:0:
216,52,88372,6,2,B|190:23|190:23|144:23,1,80,6|2,0:3|0:0,0:0:0:0:
55,24,88707,1,8,0:0:0:0:
55,112,88819,2,2,B|25:141|25:141|25:183,1,80,6|2,0:3|0:0,0:0:0:0:
25,269,89155,1,8,0:0:0:0:
114,269,89267,2,2,B|156:269|156:269|186:298,1,80,6|2,0:3|0:0,0:0:0:0:
301,369,89715,5,8,0:3:0:0:
322,369,89827,1,0,0:0:0:0:
343,369,89939,1,8,0:0:0:0:
362,354,90051,1,8,0:0:0:0:
376,339,90163,2,2,B|376:283|376:283|341:228|341:228|280:228,1,160,12|10,0:3|0:0,0:0:0:0:
147,228,90834,1,4,0:0:0:0:
4,232,91058,5,8,0:0:0:0:
4,232,91170,1,10,0:0:0:0:
74,103,91394,1,8,0:0:0:0:
74,103,91506,1,10,0:0:0:0:
218,103,91730,1,8,0:0:0:0:
238,103,91842,1,8,0:0:0:0:
259,103,91954,6,2,B|300:102|300:102|331:132,1,80,6|2,0:3|0:0,0:0:0:0:
386,196,92290,1,8,0:0:0:0:
386,283,92401,2,2,B|386:324|386:324|356:355,1,80,6|2,0:3|0:0,0:0:0:0:
270,351,92737,1,8,0:0:0:0:
181,351,92849,2,2,B|151:321|151:321|151:279,1,80,6|2,0:3|0:0,0:0:0:0:
151,194,93185,1,8,0:0:0:0:
151,105,93297,2,2,L|53:78,1,80,6|2,0:3|0:0,0:0:0:0:
25,219,93745,6,0,B|25:259|25:259|54:291,1,80,4|8,0:3|0:0,0:0:0:0:
51,288,94081,1,8,0:0:0:0:
51,288,94193,5,14,0:0:0:0:
198,295,94416,1,4,0:0:0:0:
339,295,94640,6,2,B|353:257|353:257|353:213|353:213|336:179,2,120,6|2|2,0:3|0:0|0:0,0:0:0:0:
339,108,95536,1,12,0:0:0:0:
459,2,95760,5,8,0:0:0:0:
480,2,95872,1,8,0:0:0:0:
501,2,95984,1,6,0:3:0:0:
501,169,96207,1,8,0:0:0:0:
486,183,96319,1,10,0:0:0:0:
471,198,96431,1,8,0:3:0:0:
320,269,96655,5,8,0:0:0:0:
299,269,96767,1,10,0:0:0:0:
278,269,96879,1,8,0:3:0:0:
257,269,96991,1,10,0:0:0:0:
242,254,97103,1,8,0:0:0:0:
227,239,97215,1,10,0:0:0:0:
227,217,97327,6,2,B|227:170|227:170|186:130,1,95.9999970703126,12|0,0:3|0:0,0:0:0:0:
118,136,97999,1,2,0:0:0:0:
46,136,98222,2,0,B|10:170|10:170,1,47.9999985351563
12,241,98670,2,0,L|12:296,1,47.9999985351563
12,361,99118,6,2,B|59:361|59:361|99:320,1,95.9999970703126,2|0,0:0|0:0,0:0:0:0:
165,326,99790,1,2,0:0:0:0:
236,326,100013,2,2,B|270:361|270:361|317:361,1,95.9999970703126,2|0,0:0|0:0,0:0:0:0:
389,361,100685,5,2,0:0:0:0:
461,361,100909,2,2,L|461:262,1,95.9999970703126,2|0,0:0|0:0,0:0:0:0:
461,192,101581,1,2,0:0:0:0:
461,120,101804,2,0,B|426:84|426:84,1,47.9999985351563
356,86,102252,2,0,L|301:86,1,47.9999985351563
235,86,102700,6,2,B|188:86|188:86|153:50,1,95.9999970703126,2|0,0:0|0:0,0:0:0:0:
81,51,103372,1,2,0:0:0:0:
81,123,103596,2,2,B|81:170|81:170|116:204,1,95.9999970703126,2|0,0:0|0:0,0:0:0:0:
140,204,104155,5,2,0:0:0:0:
164,204,104267,1,2,0:0:0:0:
188,204,104379,1,2,0:0:0:0:
212,204,104491,6,2,B|247:169|247:169|247:122,1,95.9999970703126,2|0,0:0|0:0,0:0:0:0:
247,50,105163,1,2,0:0:0:0:
319,50,105387,2,0,B|372:50|372:50,1,47.9999985351563
419,99,105835,2,0,L|457:137,1,47.9999985351563
452,204,106282,6,10,P|442:242|405:272,2,71.9999978027344,2|0|0,0:0|0:0|0:0,0:0:0:0:
379,204,107178,2,10,B|331:204|331:204|297:239,1,95.9999970703126,2|0,0:0|0:0,0:0:0:0:
225,238,107849,1,2,0:0:0:0:
153,238,108073,6,2,B|118:202|118:202|70:202,1,95.9999970703126,2|0,0:0|0:0,0:0:0:0:
0,202,108745,1,0,0:0:0:0:
0,130,108969,6,10,L|90:130,2,71.9999978027344,2|0|0,0:0|0:0|0:0,0:0:0:0:
87,47,109864,2,2,L|202:47,1,95.9999970703126,2|0,0:0|0:0,0:0:0:0:
487,47,110760,2,0,L|442:47,3,40,2|0|2|0,0:0|0:0|0:0|0:0,0:0:0:0:
375,46,111207,2,0,L|330:46,3,40,2|0|2|0,0:0|0:0|0:0|0:0,0:0:0:0:
230,47,111655,5,6,0:0:0:0:
85,47,111879,1,8,0:0:0:0:
56,75,111991,1,8,0:0:0:0:
85,103,112103,1,4,0:0:0:0:
85,247,112327,2,2,L|171:247,1,80
309,247,112775,5,8,0:0:0:0:
337,276,112887,1,8,0:0:0:0:
365,247,112999,2,2,L|453:247,1,80,6|2,0:0|0:0,0:0:0:0:
309,163,113446,1,8,0:0:0:0:
445,163,113670,5,8,0:0:0:0:
474,134,113782,1,8,0:0:0:0:
444,106,113894,2,0,L|444:18,1,80,2|8,0:0|0:0,0:0:0:0:
403,26,114230,1,8,0:0:0:0:
362,26,114342,2,2,L|257:26,1,80,4|0,0:0|0:0,0:0:0:0:
119,26,114790,2,2,L|224:26,1,80,6|2,0:0|0:0,0:0:0:0:
39,26,115237,5,8,0:0:0:0:
39,170,115461,1,8,0:0:0:0:
67,199,115573,1,8,0:0:0:0:
95,170,115685,1,4,0:0:0:0:
239,170,115909,6,2,L|344:170,1,80,6|2,0:0|0:0,0:0:0:0:
463,170,116357,1,8,0:0:0:0:
435,141,116469,1,8,0:0:0:0:
407,170,116581,1,4,0:0:0:0:
407,341,116804,5,8,0:0:0:0:
386,341,116916,1,0,0:0:0:0:
365,341,117028,2,0,L|321:341,3,40,8|0|8|0,0:0|0:0|0:0|0:0,0:0:0:0:
252,341,117476,2,0,L|230:302,3,40,8|0|8|0,0:0|0:0|0:0|0:0,0:0:0:0:
232,285,117924,5,8,0:0:0:0:
232,264,118036,1,0,0:0:0:0:
232,243,118148,1,8,0:0:0:0:
232,222,118260,1,0,0:0:0:0:
232,202,118372,5,8,0:0:0:0:
246,186,118484,1,0,0:0:0:0:
261,172,118595,1,8,0:0:0:0:
275,157,118707,1,0,0:0:0:0:
289,142,118819,1,14,0:0:0:0:
