osu file format v14

[General]
AudioFilename: audio.mp3
AudioLeadIn: 0
PreviewTime: 70012
Countdown: 0
SampleSet: Drum
StackLeniency: 0.3
Mode: 0
LetterboxInBreaks: 0
WidescreenStoryboard: 1

[Editor]
DistanceSpacing: 1.2
BeatDivisor: 4
GridSize: 4
TimelineZoom: 2.6

[Metadata]
Title:Arbelge no Tatakai
TitleUnicode:アーベルジュの戦い
Artist:Sound Horizon
ArtistUnicode:Sound Horizon
Creator:P_O
Version:Hard
Source:
Tags:1st Story Renewal Page 324 Chronicle 2nd Instrumental Japanese Metal Opera Symphonic Rock Revo Other Linked Horizon
BeatmapID:2284451
BeatmapSetID:1075671

[Difficulty]
HPDrainRate:5
CircleSize:3.8
OverallDifficulty:6
ApproachRate:7
SliderMultiplier:1.4
SliderTickRate:1

[Events]
//Background and Video events
0,0,"Image0001.jpg",0,0
//Break Periods
//Storyboard Layer 0 (Background)
//Storyboard Layer 1 (Fail)
//Storyboard Layer 2 (Pass)
//Storyboard Layer 3 (Foreground)
//Storyboard Layer 4 (Overlay)
//Storyboard Sound Samples

[TimingPoints]
5537,447.761194029851,4,2,0,40,1,0
19865,-100,4,3,0,50,0,0
27029,-100,4,2,0,45,0,0
41357,-100,4,2,0,50,0,1
55686,-100,4,3,0,55,0,0
68223,-100,4,2,0,45,0,0
70014,447.761194029851,7,3,0,40,1,0
70014,-100,4,3,0,40,0,0
76283,-100,4,3,0,60,0,0
82551,-100,4,2,0,50,0,0
82999,447.761194029851,4,2,0,50,1,1
97327,-133.333333333333,4,2,0,40,0,0
110760,-133.333333333333,4,3,0,50,0,0
111656,-100,4,3,0,50,0,0
118820,-100,4,3,0,75,0,0

[Colours]
Combo1 : 63,199,80
Combo2 : 255,32,255
Combo3 : 183,181,98
Combo4 : 242,26,58

[HitObjects]
151,104,5536,5,2,0:0:0:0:
186,268,5984,2,0,P|219:317|292:345,1,140,0|8,0:0|0:0,0:0:0:0:
376,345,6656,1,0,0:0:0:0:
441,292,6880,2,0,P|466:238|454:161,1,140,8|8,0:0|0:0,0:0:0:0:
414,87,7551,5,0,0:0:0:0:
348,34,7775,1,8,0:0:0:0:
179,34,8223,2,2,B|129:81|129:81|112:157,2,140,2|0|2,0:0|0:0|0:0,0:0:0:0:
348,34,9566,6,0,P|406:38|467:87,1,140,0|8,0:0|0:0,0:0:0:0:
468,172,10238,1,0,0:0:0:0:
468,256,10462,2,0,P|434:305|362:333,1,140,8|8,0:0|0:0,0:0:0:0:
276,333,11134,5,0,0:0:0:0:
216,273,11357,1,8,0:0:0:0:
216,102,11805,2,2,B|263:52|263:52|339:35,1,140,2|0,0:0|0:0,0:0:0:0:
36,36,12701,5,14,0:3:0:0:
36,203,13148,2,0,P|70:252|142:280,1,140,0|8,0:0|0:0,0:0:0:0:
227,280,13820,1,0,0:0:0:0:
312,280,14044,2,0,P|377:257|418:202,1,140,8|8,0:0|0:0,0:0:0:0:
418,118,14716,5,0,0:0:0:0:
418,34,14939,1,8,0:0:0:0:
254,34,15387,2,2,B|187:49|187:49|134:107,2,140,2|0|2,0:0|0:0|0:0,0:0:0:0:
421,68,16731,6,0,P|431:126|400:197,1,140,0|8,0:0|0:0,0:0:0:0:
343,258,17403,1,0,0:0:0:0:
280,317,17627,2,0,P|218:347|149:338,1,140,8|8,0:0|0:0,0:0:0:0:
76,296,18298,1,4,0:0:0:0:
256,192,18522,12,14,19417,0:0:0:0:
258,74,19865,5,8,0:0:0:0:
265,190,20089,1,8,0:0:0:0:
265,190,20201,1,8,0:0:0:0:
265,190,20313,1,4,0:0:0:0:
265,299,20537,1,6,0:3:0:0:
102,234,20984,5,8,0:0:0:0:
102,234,21096,1,8,0:0:0:0:
102,234,21208,2,2,L|102:146,1,70,6|2,0:3|0:0,0:0:0:0:
102,61,21656,5,8,0:3:0:0:
14,32,21880,1,8,0:0:0:0:
14,32,21992,1,8,0:0:0:0:
14,32,22104,1,4,0:0:0:0:
14,130,22328,5,8,0:0:0:0:
14,130,22439,1,8,0:0:0:0:
14,130,22551,2,2,L|14:218,1,70,6|2,0:3|0:0,0:0:0:0:
14,292,22999,2,2,L|76:354,1,70,6|2,0:3|0:0,0:0:0:0:
179,341,23447,5,8,0:3:0:0:
246,288,23671,1,8,0:0:0:0:
246,288,23783,1,8,0:0:0:0:
246,288,23895,1,4,0:0:0:0:
295,219,24119,1,2,0:0:0:0:
450,62,24566,5,8,0:0:0:0:
450,62,24678,1,8,0:0:0:0:
450,62,24790,2,2,L|450:138,1,70
450,245,25238,2,0,B|422:319|422:319|372:372,1,140,8|8,0:0|0:0,0:0:0:0:
211,363,26134,2,0,B|152:345|152:345|92:294,1,140,8|8,0:0|0:0,0:0:0:0:
282,147,27029,5,10,0:0:0:0:
450,147,27477,2,0,L|450:204,2,35,8|8|4,0:0|0:0|0:0,0:0:0:0:
450,62,27925,1,2,0:0:0:0:
375,24,28148,1,2,0:0:0:0:
375,136,28372,1,0,0:0:0:0:
296,215,28596,1,0,0:0:0:0:
184,215,28820,2,2,B|147:215|147:215|107:187,1,70
55,141,29268,6,0,L|21:111,2,35,8|8|4,0:0|0:0|0:0,0:0:0:0:
55,225,29716,1,2,0:0:0:0:
55,308,29939,1,2,0:0:0:0:
195,308,30163,1,12,3:0:0:0:
195,308,30611,1,12,3:0:0:0:
363,308,31059,6,0,L|405:308,2,35,8|8|4,0:0|0:0|0:0,0:0:0:0:
363,223,31507,1,2,0:0:0:0:
306,160,31731,1,2,0:0:0:0:
194,160,31954,1,8,0:0:0:0:
137,223,32178,1,4,0:0:0:0:
137,308,32402,2,2,P|206:325|283:307,1,140
442,311,33074,6,0,L|484:311,2,35,8|8|4,0:0|0:0|0:0,0:0:0:0:
442,226,33522,1,0,0:0:0:0:
442,119,33745,1,14,3:0:0:0:
442,119,34193,1,14,3:0:0:0:
273,119,34641,6,0,L|226:119,2,35,8|8|4,0:0|0:0|0:0,0:0:0:0:
326,184,35089,1,2,0:0:0:0:
326,268,35313,1,2,0:0:0:0:
273,367,35537,1,0,0:0:0:0:
161,367,35760,1,0,0:0:0:0:
109,268,35984,2,0,B|92:234|92:234|92:195,1,70
92,117,36432,6,0,L|92:78,2,35,8|8|4,0:0|0:0|0:0,0:0:0:0:
176,117,36880,2,2,B|210:134|210:134|249:134,1,70
383,134,37328,1,12,3:0:0:0:
383,134,37775,1,12,3:0:0:0:
383,302,38223,6,0,L|383:337,2,35,8|8|4,0:0|0:0|0:0,0:0:0:0:
447,247,38671,1,2,0:0:0:0:
511,192,38895,1,2,0:0:0:0:
511,80,39119,1,0,0:0:0:0:
399,80,39342,1,0,0:0:0:0:
287,80,39566,2,2,P|218:63|141:81,1,140
81,123,40238,5,8,0:0:0:0:
81,123,40350,1,8,0:0:0:0:
81,123,40462,2,2,L|81:198,1,70,14|2,0:0|0:0,0:0:0:0:
81,277,40910,5,8,0:0:0:0:
123,277,41022,1,0,0:0:0:0:
153,247,41134,1,8,0:0:0:0:
153,205,41245,1,0,0:0:0:0:
153,163,41357,6,2,P|240:136|309:135,1,140,12|10,0:3|0:0,0:0:0:0:
372,131,42029,1,4,0:0:0:0:
450,159,42253,2,0,B|477:190|477:190|490:232,1,70,8|0,0:0|0:0,0:0:0:0:
430,299,42701,2,0,B|403:268|403:268|390:226,1,70,10|8,0:0|0:0,0:0:0:0:
372,131,43148,6,2,B|372:55|372:55|291:55,1,140,12|10,0:3|0:0,0:0:0:0:
223,55,43820,1,4,0:0:0:0:
138,55,44044,2,0,B|74:55|74:55|74:131,1,140,8|10,0:0|0:0,0:0:0:0:
74,215,44716,1,8,0:0:0:0:
74,340,44939,6,2,L|227:339,1,140,6|10,0:3|0:0,0:0:0:0:
298,339,45611,1,4,0:0:0:0:
298,254,45835,1,8,0:0:0:0:
237,193,46059,1,0,0:0:0:0:
152,193,46283,2,0,B|120:161|120:161|121:125,1,70,10|8,0:0|0:0,0:0:0:0:
164,63,46731,6,2,L|246:63,1,70,6|2,0:3|0:0,0:0:0:0:
318,63,47178,2,2,L|400:63,1,70,6|2,0:3|0:0,0:0:0:0:
388,204,47626,2,2,L|306:204,1,70,6|2,0:3|0:0,0:0:0:0:
234,204,48074,2,0,L|152:204,1,70,8|8,0:3|0:0,0:0:0:0:
51,204,48522,6,2,P|114:272|173:307,1,140,12|10,0:3|0:0,0:0:0:0:
237,297,49193,1,4,0:0:0:0:
321,297,49417,2,0,B|348:266|348:266|361:224,1,70,8|0,0:0|0:0,0:0:0:0:
338,156,49865,2,0,B|297:148|297:148|254:157,1,70,10|8,0:0|0:0,0:0:0:0:
195,194,50313,6,2,L|128:237,1,70,6|2,0:3|0:0,0:0:0:0:
64,275,50760,2,2,L|-3:318,1,70,6|2,0:3|0:0,0:0:0:0:
5,161,51208,2,2,L|72:118,1,70,6|2,0:3|0:0,0:0:0:0:
136,80,51656,2,2,L|203:37,1,70,6|2,0:3|0:0,0:0:0:0:
321,43,52104,6,0,P|411:63|471:97,1,140,4|14,0:3|0:0,0:0:0:0:
503,151,52775,1,4,0:0:0:0:
503,234,52999,2,2,B|503:287|503:287|462:336,2,105,6|2|10,0:3|0:0|0:0,0:0:0:0:
362,234,53895,5,12,0:3:0:0:
281,241,54119,1,8,0:0:0:0:
281,241,54231,1,8,0:0:0:0:
281,241,54342,1,6,0:3:0:0:
192,234,54566,2,0,L|129:234,2,35,8|10|8,2:0|2:0|2:3,0:0:0:0:
199,145,55014,1,0,0:0:0:0:
199,145,55126,1,0,2:0:0:0:
199,145,55238,2,0,L|136:82,1,70,8|10,0:0|0:0,0:0:0:0:
150,15,55686,5,14,0:0:0:0:
234,15,55910,2,0,L|281:15,1,35,10|0,0:0|0:0,0:0:0:0:
346,73,56245,2,0,L|381:73,1,35,8|0,0:0|0:0,0:0:0:0:
477,110,56581,2,0,P|473:161|376:193,1,140,6|12,0:0|0:0,0:0:0:0:
316,201,57253,1,8,0:0:0:0:
231,201,57477,5,8,0:0:0:0:
146,201,57701,2,0,L|99:201,1,35,8|0,0:0|0:0,0:0:0:0:
78,278,58037,2,0,L|43:278,1,35,8|0,0:0|0:0,0:0:0:0:
8,201,58372,2,0,L|8:120,1,70,4|0,0:0|0:0,0:0:0:0:
8,46,58820,2,0,L|89:46,1,70,4|0,0:0|0:0,0:0:0:0:
162,46,59268,5,8,0:0:0:0:
246,46,59492,2,0,L|293:46,1,35,8|0,0:0|0:0,0:0:0:0:
315,122,59828,2,0,L|350:122,1,35,8|0,0:0|0:0,0:0:0:0:
351,206,60163,2,0,P|312:254|217:274,1,140,6|12,0:0|0:0,0:0:0:0:
189,209,60835,1,8,0:0:0:0:
189,124,61059,1,8,0:0:0:0:
189,39,61283,6,0,L|235:39,1,35,8|0,0:0|0:0,0:0:0:0:
293,109,61619,2,0,L|328:109,1,35,8|0,0:0|0:0,0:0:0:0:
413,109,61954,1,12,0:0:0:0:
483,154,62178,1,8,0:0:0:0:
428,218,62402,1,12,0:0:0:0:
329,218,62626,1,8,0:0:0:0:
230,218,62850,1,14,0:0:0:0:
171,157,63074,6,0,L|138:124,1,35,10|0,0:0|0:0,0:0:0:0:
51,158,63410,2,0,L|26:133,1,35,8|0,0:0|0:0,0:0:0:0:
26,49,63745,2,0,P|81:24|166:26,1,140,6|12,0:0|0:0,0:0:0:0:
246,24,64417,1,8,0:0:0:0:
330,24,64641,5,8,0:0:0:0:
414,24,64865,2,0,L|446:56,1,35,8|0,0:0|0:0,0:0:0:0:
413,144,65201,2,0,L|437:168,1,35,8|0,0:0|0:0,0:0:0:0:
437,253,65537,2,0,P|433:304|336:336,1,140,6|6,0:0|0:0,0:0:0:0:
276,344,66208,1,2,0:0:0:0:
191,344,66432,5,4,0:0:0:0:
106,344,66656,2,0,L|106:298,1,35,8|0,0:0|0:0,0:0:0:0:
20,259,66992,2,0,L|20:224,1,35,8|0,0:0|0:0,0:0:0:0:
20,139,67328,2,0,P|24:88|121:56,1,140,4|12,0:0|0:0,0:0:0:0:
180,48,67999,1,8,0:0:0:0:
180,160,68223,6,2,B|163:213|163:213|122:246,2,105,12|0|4,0:0|0:0|0:0,0:0:0:0:
206,280,69119,2,2,B|223:333|223:333|264:366,2,105,12|0|4,0:0|0:0|0:0,0:0:0:0:
228,198,70014,6,0,L|254:107,1,70,4|0,2:0|0:0,0:0:0:0:
269,49,70461,1,8,0:0:0:0:
269,49,70685,1,4,0:0:0:0:
353,49,70909,1,8,0:0:0:0:
353,49,71133,1,4,0:0:0:0:
373,130,71357,2,0,L|399:221,1,70,8|8,0:0|0:0,0:0:0:0:
421,276,71805,5,8,0:0:0:0:
421,276,71916,1,0,0:0:0:0:
421,276,72028,1,8,0:0:0:0:
505,276,72252,2,0,L|505:221,2,35,8|0|10,0:0|0:0|0:0,0:0:0:0:
505,360,72700,1,10,0:0:0:0:
505,360,72924,1,8,0:0:0:0:
421,360,73148,6,0,L|341:360,1,70,10|10,0:0|0:0,0:0:0:0:
266,360,73596,1,8,0:0:0:0:
266,360,73819,1,4,0:0:0:0:
206,300,74043,1,8,0:0:0:0:
206,300,74267,1,4,0:0:0:0:
146,240,74491,2,0,L|89:187,1,70,12|8,0:0|0:0,0:0:0:0:
36,132,74939,5,8,0:0:0:0:
36,132,75051,1,0,0:0:0:0:
36,132,75163,1,8,0:0:0:0:
95,72,75387,2,0,L|95:23,2,35,8|0|8,0:0|0:0|0:0,0:0:0:0:
179,72,75834,2,0,B|218:72|218:72|273:92,1,70,8|0,0:0|0:0,0:0:0:0:
297,183,76282,6,0,B|336:183|336:183|391:163,1,70,12|2,0:3|0:0,0:0:0:0:
442,138,76730,1,8,0:3:0:0:
442,138,76842,1,8,0:0:0:0:
442,138,76954,1,4,0:0:0:0:
442,26,77178,5,8,0:3:0:0:
442,26,77290,1,8,0:0:0:0:
442,26,77402,1,4,0:0:0:0:
357,26,77625,2,0,B|318:26|318:26|263:46,1,70,4|8,0:0|0:3,0:0:0:0:
188,86,78073,6,0,B|149:86|149:86|94:66,1,70,8|8,0:0|0:0,0:0:0:0:
47,32,78521,1,8,0:0:0:0:
47,32,78633,1,0,0:0:0:0:
47,32,78745,1,10,0:0:0:0:
47,144,78969,2,0,L|47:186,2,35,10|0|8,0:0|0:0|0:0,0:0:0:0:
123,179,79416,2,0,B|162:179|162:179|217:199,1,70,8|8,0:3|0:0,0:0:0:0:
268,223,79864,5,8,0:0:0:0:
268,223,79976,1,8,0:0:0:0:
268,223,80088,1,4,0:0:0:0:
268,335,80312,5,8,0:3:0:0:
268,335,80424,1,8,0:0:0:0:
268,335,80536,1,4,0:0:0:0:
184,335,80760,2,0,B|145:335|145:335|90:315,1,70,8|8,0:0|0:0,0:0:0:0:
18,269,81208,5,8,0:3:0:0:
18,269,81319,1,0,0:0:0:0:
18,269,81431,1,8,0:0:0:0:
18,157,81655,2,0,L|18:115,2,35,8|0|8,0:3|0:0|0:0,0:0:0:0:
18,45,82103,2,0,B|74:18|74:18|156:18,1,140,8|12,0:0|0:0,0:0:0:0:
180,241,82999,6,2,P|267:268|336:269,1,140,12|10,0:3|0:0,0:0:0:0:
399,273,83671,1,4,0:0:0:0:
477,245,83895,2,0,B|504:213|504:213|517:172,1,70,8|0,0:0|0:0,0:0:0:0:
457,105,84343,2,0,B|430:136|430:136|417:178,1,70,10|8,0:0|0:0,0:0:0:0:
399,273,84790,6,2,P|336:341|277:376,1,140,12|10,0:3|0:0,0:0:0:0:
212,367,85462,1,4,0:0:0:0:
127,367,85686,2,0,P|59:304|24:245,1,140,8|10,0:0|0:0,0:0:0:0:
33,180,86357,5,8,0:0:0:0:
127,262,86581,2,2,L|127:110,1,140,12|10,0:3|0:0,0:0:0:0:
127,37,87252,1,4,0:0:0:0:
212,37,87476,1,8,0:0:0:0:
252,112,87700,1,0,0:0:0:0:
252,196,87924,2,0,B|252:240|252:240|280:264,1,70,10|8,0:0|0:0,0:0:0:0:
385,256,88372,6,2,L|376:174,1,70,6|2,0:3|0:0,0:0:0:0:
368,101,88819,2,2,L|359:19,1,70,6|2,0:3|0:0,0:0:0:0:
501,31,89267,2,2,L|492:111,1,70,6|2,0:3|0:0,0:0:0:0:
485,184,89715,2,0,L|476:264,1,70,8|8,0:3|0:0,0:0:0:0:
415,354,90163,6,2,P|326:381|257:382,1,140,12|10,0:3|0:0,0:0:0:0:
195,384,90834,1,4,0:0:0:0:
110,384,91058,2,0,B|83:353|83:353|70:311,1,70,8|0,0:0|0:0,0:0:0:0:
75,240,91506,2,0,B|116:232|116:232|159:241,1,70,10|8,0:0|0:0,0:0:0:0:
226,255,91954,6,2,L|259:179,1,70,6|2,0:3|0:0,0:0:0:0:
287,112,92401,2,2,L|320:36,1,70,6|2,0:3|0:0,0:0:0:0:
444,108,92849,2,2,L|409:181,1,70,6|2,0:3|0:0,0:0:0:0:
381,248,93297,2,2,L|346:321,1,70,6|2,0:3|0:0,0:0:0:0:
238,367,93745,6,0,P|170:304|135:245,1,140,4|14,0:3|0:0,0:0:0:0:
124,182,94416,1,4,0:0:0:0:
214,182,94640,2,2,B|274:182|274:182|329:143,2,105,6|2|2,0:3|0:0|0:0,0:0:0:0:
214,91,95536,5,12,0:0:0:0:
126,98,95760,1,8,0:0:0:0:
126,98,95872,1,8,0:0:0:0:
126,98,95984,1,6,0:3:0:0:
32,91,96207,6,0,L|32:40,2,35,8|10|8,0:0|0:0|0:3,0:0:0:0:
39,182,96655,1,8,0:0:0:0:
39,182,96767,1,10,2:0:0:0:
39,182,96879,2,0,L|39:255,1,70,8|8,0:3|0:0,0:0:0:0:
39,331,97327,6,2,B|99:349|157:326,1,105.000004005432,12|0,0:3|0:0,0:0:0:0:
206,278,97999,1,2,0:0:0:0:
231,198,98222,2,0,L|247:143,1,52.5000020027161
334,128,98670,2,0,L|317:182,1,52.5000020027161
294,258,99118,6,2,P|301:322|335:354,1,105.000004005432,2|0,0:0|0:0,0:0:0:0:
408,375,99790,1,2,0:0:0:0:
432,294,100013,2,2,P|425:230|391:198,1,105.000004005432,2|0,0:0|0:0,0:0:0:0:
322,165,100685,5,2,0:0:0:0:
237,153,100909,2,2,P|172:160|140:194,1,105.000004005432,2|0,0:0|0:0,0:0:0:0:
120,267,101581,1,2,0:0:0:0:
42,299,101804,6,0,L|17:247,1,52.5000020027161
43,170,102252,2,0,L|59:115,1,52.5000020027161
83,40,102700,2,2,P|136:2|182:8,1,105.000004005432,2|0,0:0|0:0,0:0:0:0:
253,29,103372,1,2,0:0:0:0:
229,110,103596,2,2,P|186:159|140:166,1,105.000004005432,2|0,0:0|0:0,0:0:0:0:
69,142,104267,5,2,0:0:0:0:
44,225,104491,2,2,P|50:289|84:321,1,105.000004005432,2|0,0:0|0:0,0:0:0:0:
157,341,105163,1,2,0:0:0:0:
235,310,105387,2,0,L|286:289,1,52.5000020027161
264,209,105834,2,0,L|311:189,1,52.5000020027161
393,164,106282,6,10,B|435:145|435:145|457:101,2,78.7500030040742,2|0|0,0:0|0:0|0:0,0:0:0:0:
368,245,107178,2,10,P|325:294|279:301,1,105.000004005432,2|0,0:0|0:0,0:0:0:0:
203,292,107849,5,2,0:0:0:0:
126,253,108073,2,2,P|93:212|92:161,1,105.000004005432,2|0,0:0|0:0,0:0:0:0:
117,80,108745,1,0,0:0:0:0:
141,2,108969,2,10,B|103:2|103:2|62:22,2,78.7500030040742,2|0|0,0:0|0:0|0:0,0:0:0:0:
225,2,109864,2,0,B|448:2,2,210.000008010865,2|0|4,0:0|0:0|0:0,0:0:0:0:
148,84,111879,5,8,0:0:0:0:
148,84,111991,1,8,0:0:0:0:
148,84,112103,1,4,0:0:0:0:
148,196,112327,1,2,0:0:0:0:
359,268,112775,5,8,0:0:0:0:
359,268,112887,1,8,0:0:0:0:
359,268,112999,2,2,L|359:356,1,70,6|2,0:0|0:0,0:0:0:0:
470,337,113446,5,8,0:0:0:0:
477,253,113670,1,8,0:0:0:0:
477,253,113782,1,8,0:0:0:0:
477,253,113894,1,2,0:0:0:0:
477,168,114118,5,8,0:0:0:0:
477,168,114230,1,8,0:0:0:0:
477,168,114342,2,2,L|389:168,1,70,4|0,0:0|0:0,0:0:0:0:
287,168,114790,2,2,L|225:230,1,70,6|2,0:0|0:0,0:0:0:0:
158,297,115237,5,8,0:0:0:0:
106,237,115461,1,8,0:0:0:0:
106,237,115573,1,8,0:0:0:0:
106,237,115685,1,4,0:0:0:0:
42,175,115909,1,6,0:0:0:0:
49,15,116357,5,8,0:0:0:0:
49,15,116469,1,8,0:0:0:0:
49,15,116581,2,0,L|125:15,1,70,4|8,0:0|0:0,0:0:0:0:
256,192,117028,12,12,118819,0:0:0:0:
