osu file format v14

[General]
AudioFilename: audio.mp3
AudioLeadIn: 0
PreviewTime: 70012
Countdown: 0
SampleSet: Drum
StackLeniency: 0.3
Mode: 0
LetterboxInBreaks: 0
WidescreenStoryboard: 0

[Editor]
DistanceSpacing: 0.8
BeatDivisor: 8
GridSize: 4
TimelineZoom: 3.599999

[Metadata]
Title:Arbelge no Tatakai
TitleUnicode:アーベルジュの戦い
Artist:Sound Horizon
ArtistUnicode:Sound Horizon
Creator:P_O
Version:Final Battle
Source:
Tags:1st Story Renewal Page 324 Chronicle 2nd Instrumental Japanese Metal Opera Symphonic Rock Revo Other Linked Horizon
BeatmapID:2250774
BeatmapSetID:1075671

[Difficulty]
HPDrainRate:6
CircleSize:4.2
OverallDifficulty:8
ApproachRate:8.5
SliderMultiplier:1.6
SliderTickRate:1

[Events]
//Background and Video events
0,0,"Image0001.jpg",0,0
//Break Periods
//Storyboard Layer 0 (Background)
//Storyboard Layer 1 (Fail)
//Storyboard Layer 2 (Pass)
//Storyboard Layer 3 (Foreground)
//Storyboard Layer 4 (Overlay)
//Storyboard Sound Samples

[TimingPoints]
5537,447.761194029851,4,2,0,40,1,0
19865,-100,4,3,0,50,0,0
27029,-100,4,2,0,45,0,0
41357,-100,4,2,0,50,0,1
55686,-100,4,3,0,55,0,0
68223,-100,4,2,0,45,0,0
70014,447.761194029851,7,3,0,40,1,0
76283,-100,4,3,0,60,0,0
82551,-100,4,2,0,50,0,0
82999,447.761194029851,4,2,0,50,1,1
97327,-133.333333333333,4,2,0,40,0,0
110760,-100,4,3,0,50,0,0
118819,-100,4,3,0,75,0,0

[Colours]
Combo1 : 63,199,80
Combo2 : 255,32,255
Combo3 : 183,181,98
Combo4 : 242,26,58

[HitObjects]
48,295,5536,6,2,L|218:295,1,160,2|0,0:0|0:0,0:0:0:0:
433,295,6432,1,8,0:0:0:0:
466,187,6656,1,0,0:0:0:0:
433,79,6880,1,8,0:0:0:0:
208,79,7328,5,8,0:0:0:0:
175,187,7551,1,0,0:0:0:0:
208,295,7775,1,8,0:0:0:0:
324,79,8223,2,2,L|323:247,1,160,2|0,0:0|0:0,0:0:0:0:
208,79,9119,6,2,L|48:79,1,160,2|0,0:0|0:0,0:0:0:0:
48,303,10014,1,8,0:0:0:0:
156,336,10238,1,0,0:0:0:0:
264,303,10462,1,8,0:0:0:0:
480,165,10910,5,8,0:0:0:0:
372,132,11134,1,0,0:0:0:0:
264,165,11357,1,8,0:0:0:0:
480,28,11805,2,2,L|320:28,1,160,2|0,0:0|0:0,0:0:0:0:
8,28,12701,6,0,L|168:28,1,160,14|0,0:3|0:0,0:3:0:0:
244,254,13596,1,8,0:0:0:0:
244,141,13820,1,0,0:0:0:0:
244,28,14044,1,8,0:0:0:0:
50,141,14492,5,8,0:0:0:0:
50,254,14716,1,0,0:0:0:0:
50,367,14939,1,8,0:0:0:0:
273,367,15387,2,2,L|433:367,1,160,2|0,0:0|0:0,0:0:0:0:
273,220,16283,6,2,L|113:220,1,160,2|0,0:0|0:0,0:0:0:0:
382,99,17178,1,8,0:0:0:0:
274,132,17402,1,0,0:0:0:0:
166,99,17626,1,8,0:0:0:0:
381,318,18074,5,8,0:0:0:0:
348,210,18298,1,4,0:0:0:0:
382,99,18522,5,8,0:0:0:0:
404,76,18634,1,0,0:0:0:0:
426,53,18745,1,8,0:0:0:0:
448,30,18857,1,0,0:0:0:0:
470,7,18969,5,8,0:0:0:0:
470,39,19081,1,0,0:0:0:0:
470,71,19193,1,8,0:0:0:0:
470,103,19305,1,0,0:0:0:0:
470,135,19417,2,2,P|432:173|392:189,1,80,14|2,0:0|0:0,0:0:0:0:
58,184,19865,5,8,0:0:0:0:
159,65,20089,1,8,0:0:0:0:
127,68,20201,1,8,0:0:0:0:
95,71,20313,1,4,0:0:0:0:
333,52,20537,6,2,L|423:40,1,80,6|2,0:3|0:0,0:0:0:0:
240,221,20984,1,8,0:0:0:0:
240,221,21096,1,8,0:0:0:0:
320,212,21208,2,2,L|400:202,1,80,6|2,0:3|0:0,0:0:0:0:
105,237,21656,5,8,0:3:0:0:
352,341,21880,1,8,0:0:0:0:
365,311,21992,1,8,0:0:0:0:
378,282,22104,1,4,0:0:0:0:
454,44,22328,5,8,0:0:0:0:
454,44,22439,1,8,0:0:0:0:
468,211,22551,2,2,L|461:131,1,80,6|2,0:3|0:0,0:0:0:0:
461,378,22999,2,2,L|468:298,1,80,6|2,0:3|0:0,0:0:0:0:
113,240,23447,5,8,0:3:0:0:
216,23,23671,1,8,0:0:0:0:
203,53,23783,1,8,0:0:0:0:
190,82,23895,1,4,0:0:0:0:
77,311,24119,6,2,L|115:235,1,80
313,239,24566,1,8,0:0:0:0:
313,239,24678,1,8,0:0:0:0:
349,165,24790,2,2,L|384:93,1,80
313,330,25238,6,0,L|408:330,1,80,8|2,0:0|0:0,0:0:0:0:
505,149,25686,5,8,0:0:0:0:
482,125,25798,1,0,0:0:0:0:
459,101,25910,1,8,0:0:0:0:
437,77,26022,1,0,0:0:0:0:
415,53,26134,5,8,0:0:0:0:
404,83,26245,1,0,0:0:0:0:
392,113,26357,1,8,0:0:0:0:
380,143,26469,1,0,0:0:0:0:
368,173,26581,5,8,0:0:0:0:
355,143,26693,1,0,0:0:0:0:
343,113,26805,1,8,0:0:0:0:
331,83,26917,1,0,0:0:0:0:
319,53,27029,6,2,L|222:53,1,80,10|2,0:0|0:0,0:0:0:0:
239,213,27477,1,8,0:0:0:0:
206,213,27589,1,8,0:0:0:0:
173,213,27701,1,4,0:0:0:0:
60,349,27925,6,2,P|24:323|3:289,1,80
4,129,28372,1,0,0:0:0:0:
4,8,28596,1,0,0:0:0:0:
4,213,28820,2,2,L|4:302,1,80
173,213,29268,5,8,0:0:0:0:
206,213,29380,1,8,0:0:0:0:
239,213,29492,1,4,0:0:0:0:
393,115,29716,2,2,L|393:33,1,80
193,35,30163,2,0,P|150:49|122:77,1,80,12|0,3:0|3:0,3:0:0:0:
125,269,30611,2,0,P|154:295|192:306,1,80,12|0,3:0|3:0,3:0:0:0:
357,333,31059,5,8,0:0:0:0:
325,322,31171,1,8,0:0:0:0:
294,311,31283,1,4,0:0:0:0:
407,192,31507,2,2,L|496:192,1,80
487,28,31954,1,8,0:0:0:0:
323,28,32178,1,4,0:0:0:0:
159,28,32402,2,2,B|80:47|80:47|21:102,1,160
159,296,33074,5,8,0:0:0:0:
159,262,33186,1,8,0:0:0:0:
159,228,33298,1,4,0:0:0:0:
159,28,33522,1,0,0:0:0:0:
159,228,33745,1,14,3:0:0:0:
159,228,34193,1,14,3:0:0:0:
460,379,34641,5,8,0:0:0:0:
470,348,34753,1,8,0:0:0:0:
480,317,34865,1,4,0:0:0:0:
480,69,35089,2,2,L|392:95,1,80
322,326,35537,1,0,0:0:0:0:
374,171,35760,1,0,0:0:0:0:
322,16,35984,2,0,L|223:16,1,80
54,80,36432,5,8,0:0:0:0:
60,111,36544,1,8,0:0:0:0:
66,142,36656,1,4,0:0:0:0:
66,342,36880,2,2,L|96:249,1,80
277,342,37328,2,0,P|322:339|356:319,1,80,12|0,3:0|3:0,3:0:0:0:
484,173,37775,2,0,P|438:175|404:195,1,80,12|0,3:0|3:0,3:0:0:0:
230,193,38223,5,8,0:0:0:0:
263,192,38335,1,8,0:0:0:0:
296,192,38447,1,4,0:0:0:0:
352,338,38671,2,2,L|352:239,1,80
84,338,39119,1,0,0:0:0:0:
247,338,39342,1,0,0:0:0:0:
451,338,39566,2,2,B|451:257|451:257|406:188,1,160
318,53,40238,5,8,0:0:0:0:
318,53,40350,1,8,0:0:0:0:
407,190,40462,2,2,L|362:121,1,80,14|2,0:0|0:0,0:0:0:0:
153,124,40910,1,8,0:0:0:0:
124,107,41022,1,0,0:0:0:0:
95,91,41134,1,8,0:0:0:0:
68,75,41245,1,0,0:0:0:0:
68,108,41357,6,2,L|68:196,1,80,12|10,0:3|0:0,0:0:0:0:
72,285,41693,1,8,0:0:0:0:
72,285,41805,1,10,0:0:0:0:
268,285,42029,1,4,0:0:0:0:
72,380,42253,5,8,0:0:0:0:
72,380,42365,1,10,0:0:0:0:
272,188,42589,1,8,0:0:0:0:
272,188,42701,1,10,0:0:0:0:
68,188,42925,5,8,0:0:0:0:
68,188,43037,1,8,0:0:0:0:
182,74,43148,2,2,P|143:83|111:107,1,80,12|8,0:3|0:0,0:0:0:0:
166,188,43484,1,8,0:0:0:0:
166,188,43596,1,10,0:0:0:0:
369,188,43820,1,4,0:0:0:0:
468,356,44044,5,8,0:0:0:0:
468,356,44156,1,10,0:0:0:0:
472,192,44380,1,8,0:0:0:0:
472,192,44492,1,10,0:0:0:0:
369,12,44716,5,8,0:0:0:0:
369,12,44828,1,8,0:0:0:0:
203,12,44939,2,2,L|288:12,1,80,6|8,0:3|0:0,0:0:0:0:
207,97,45275,1,8,0:0:0:0:
207,97,45387,1,10,0:0:0:0:
207,289,45611,1,4,0:0:0:0:
48,176,45835,5,8,0:0:0:0:
48,176,45947,1,10,0:0:0:0:
262,180,46171,1,8,0:0:0:0:
262,180,46283,1,10,0:0:0:0:
476,184,46507,1,8,0:0:0:0:
476,184,46619,1,8,0:0:0:0:
418,55,46731,6,2,P|457:65|488:89,1,80,6|2,0:3|0:0,0:0:0:0:
368,184,47066,1,8,0:0:0:0:
318,55,47178,2,2,P|279:65|248:89,1,80,6|2,0:3|0:0,0:0:0:0:
368,184,47514,1,8,0:0:0:0:
368,293,47626,2,2,L|368:387,1,80,6|2,0:3|0:0,0:0:0:0:
260,260,48074,5,8,0:3:0:0:
260,293,48186,1,0,0:0:0:0:
260,326,48298,1,8,0:0:0:0:
231,310,48410,1,0,0:0:0:0:
202,294,48522,6,2,L|110:294,1,80,12|8,0:3|0:0,0:0:0:0:
21,298,48857,1,8,0:0:0:0:
21,298,48969,1,10,0:0:0:0:
21,93,49193,1,4,0:0:0:0:
219,97,49417,5,8,0:0:0:0:
219,97,49529,1,10,0:0:0:0:
416,101,49753,1,8,0:0:0:0:
416,101,49865,1,10,0:0:0:0:
219,223,50089,1,8,0:0:0:0:
219,223,50201,1,8,0:0:0:0:
298,339,50313,6,2,P|258:343|216:338,1,80,6|2,0:3|0:0,0:0:0:0:
219,223,50648,1,8,0:0:0:0:
139,338,50760,2,2,P|178:343|221:337,1,80,6|2,0:3|0:0,0:0:0:0:
219,223,51096,1,8,0:0:0:0:
298,107,51208,6,2,P|258:103|216:108,1,80,6|2,0:3|0:0,0:0:0:0:
219,223,51544,1,8,0:0:0:0:
139,108,51656,2,2,P|178:103|221:109,1,80,6|2,0:3|0:0,0:0:0:0:
419,223,52104,1,4,0:3:0:0:
419,3,52328,5,8,0:0:0:0:
419,36,52439,1,8,0:0:0:0:
419,69,52551,1,14,0:0:0:0:
419,223,52775,1,4,0:0:0:0:
302,370,52999,2,2,B|360:350|360:350|430:350,2,120,6|2|10,0:3|0:0|0:0,0:0:0:0:
164,223,53895,5,12,0:3:0:0:
164,27,54119,1,8,0:0:0:0:
164,60,54231,1,8,0:0:0:0:
164,93,54342,1,6,0:3:0:0:
71,322,54566,5,8,2:0:0:0:
71,289,54678,1,10,2:0:0:0:
71,256,54790,1,8,2:3:0:0:
71,223,54902,2,0,L|71:126,1,80,0|0,2:0|2:0,2:0:0:0:
170,308,55238,1,8,0:0:0:0:
203,308,55350,1,8,0:0:0:0:
236,308,55462,1,10,0:0:0:0:
269,308,55574,1,8,0:0:0:0:
302,308,55686,6,0,L|302:228,1,80,14|10,0:0|0:0,0:0:0:0:
221,228,56022,1,0,0:0:0:0:
302,107,56245,1,8,0:0:0:0:
302,27,56357,1,0,0:0:0:0:
487,27,56581,2,0,L|487:148,1,120,6|2,0:0|0:0,0:0:0:0:
487,252,57029,5,12,0:0:0:0:
426,199,57141,1,0,0:0:0:0:
365,252,57253,1,8,0:0:0:0:
304,305,57365,1,0,0:0:0:0:
243,252,57477,1,8,0:0:0:0:
243,82,57701,5,8,0:0:0:0:
243,1,57813,1,0,0:0:0:0:
147,171,58037,1,8,0:0:0:0:
147,252,58148,1,0,0:0:0:0:
147,45,58372,2,0,L|45:45,1,80,4|0,0:0|0:0,0:0:0:0:
67,286,58820,2,0,L|67:388,1,80,6|2,0:0|0:0,0:0:0:0:
251,165,59268,5,4,0:0:0:0:
393,1,59492,1,8,0:0:0:0:
450,57,59604,1,0,0:0:0:0:
450,321,59828,1,8,0:0:0:0:
393,265,59939,1,0,0:0:0:0:
393,1,60163,2,0,L|267:1,1,120,6|2,0:0|0:0,0:0:0:0:
160,0,60611,5,12,0:0:0:0:
107,62,60723,1,0,0:0:0:0:
160,123,60835,1,8,0:0:0:0:
213,184,60947,1,0,0:0:0:0:
160,245,61059,1,8,0:0:0:0:
313,265,61283,5,8,0:0:0:0:
393,265,61395,1,0,0:0:0:0:
160,367,61619,1,8,0:0:0:0:
240,367,61731,1,0,0:0:0:0:
489,366,61954,6,0,L|489:299,1,40,12|0,0:0|0:0,0:0:0:0:
393,145,62178,2,0,L|393:212,1,40,8|0,0:0|0:0,0:0:0:0:
393,265,62402,1,12,0:0:0:0:
312,265,62514,1,0,0:0:0:0:
312,184,62626,1,8,0:0:0:0:
312,103,62738,1,0,0:0:0:0:
231,103,62850,6,0,L|137:103,1,80,14|10,0:0|0:0,0:0:0:0:
70,103,63186,1,0,0:0:0:0:
70,286,63410,1,8,0:0:0:0:
70,367,63522,1,0,0:0:0:0:
293,367,63745,2,0,L|166:367,1,120,6|2,0:0|0:0,0:0:0:0:
167,208,64193,5,12,0:0:0:0:
228,261,64305,1,0,0:0:0:0:
289,208,64417,1,8,0:0:0:0:
350,155,64529,1,0,0:0:0:0:
411,207,64641,1,8,0:0:0:0:
411,381,64865,5,8,0:0:0:0:
472,329,64977,1,0,0:0:0:0:
472,86,65201,1,8,0:0:0:0:
413,35,65313,1,0,0:0:0:0:
212,35,65537,1,6,0:0:0:0:
70,178,65760,1,0,0:0:0:0:
70,377,65984,2,0,L|172:377,1,80,6|2,0:0|0:0,0:0:0:0:
411,381,66432,5,4,0:0:0:0:
247,178,66656,1,8,0:0:0:0:
189,122,66768,1,0,0:0:0:0:
309,310,66992,1,8,0:0:0:0:
309,230,67104,1,0,0:0:0:0:
368,17,67328,2,0,L|491:18,1,120,4|0,0:0|0:0,0:0:0:0:
429,99,67775,5,12,0:0:0:0:
368,152,67887,1,0,0:0:0:0:
306,99,67999,1,8,0:0:0:0:
246,46,68111,1,0,0:0:0:0:
186,99,68223,6,2,B|149:152|149:152|75:152,1,133.333333333333,12|0,0:0|0:0,0:0:0:0:
246,152,68895,1,4,0:0:0:0:
140,311,69119,6,2,B|177:258|177:258|251:258,1,133.333333333333,12|0,0:0|0:0,0:0:0:0:
81,258,69790,1,4,0:0:0:0:
18,110,70014,6,0,P|24:153|46:191,1,80,4|0,2:0|0:0,0:0:0:0:
209,239,70461,5,8,0:0:0:0:
192,210,70573,1,8,0:0:0:0:
176,181,70685,1,4,0:0:0:0:
368,239,70909,5,8,0:0:0:0:
385,268,71021,1,8,0:0:0:0:
401,297,71133,1,4,0:0:0:0:
322,153,71357,1,8,0:0:0:0:
209,365,71581,5,8,0:0:0:0:
175,365,71693,1,8,0:0:0:0:
142,364,71805,2,0,L|142:328,3,26.6666666666667,8|0|0|8,0:0|0:0|0:0|0:0,0:0:0:0:
142,265,72140,5,0,0:0:0:0:
162,240,72252,1,8,0:0:0:0:
142,214,72364,1,0,0:0:0:0:
162,189,72476,2,0,P|205:177|241:176,1,80,10|10,0:0|0:0,0:0:0:0:
312,176,72812,5,0,0:0:0:0:
323,146,72924,1,8,0:0:0:0:
356,150,73036,1,0,0:0:0:0:
367,120,73148,2,0,P|355:76|338:45,1,80,10|10,0:0|0:0,0:0:0:0:
139,62,73596,5,8,0:0:0:0:
107,73,73708,1,8,0:0:0:0:
76,84,73819,1,4,0:0:0:0:
13,235,74043,5,8,0:0:0:0:
44,224,74155,1,8,0:0:0:0:
76,213,74267,1,4,0:0:0:0:
13,364,74491,1,12,0:0:0:0:
205,364,74715,5,8,0:0:0:0:
238,364,74827,1,8,0:0:0:0:
271,364,74939,2,0,L|271:327,3,26.6666666666667,8|0|0|8,0:0|0:0|0:0|0:0,0:0:0:0:
272,261,75275,5,0,0:0:0:0:
239,261,75387,1,8,0:0:0:0:
217,236,75499,1,0,0:0:0:0:
199,208,75611,1,8,0:0:0:0:
199,176,75722,1,0,0:0:0:0:
199,143,75834,2,0,B|199:62,1,80,8|0,0:0|0:0,0:0:0:0:
403,283,76282,6,0,B|403:203,1,80,12|2,0:3|0:0,0:0:0:0:
476,42,76730,5,8,0:3:0:0:
403,96,76842,1,8,0:0:0:0:
330,43,76954,1,4,0:0:0:0:
330,337,77178,5,8,0:3:0:0:
403,283,77290,1,8,0:0:0:0:
476,336,77402,1,4,0:0:0:0:
403,96,77625,1,4,0:0:0:0:
184,148,77849,5,8,0:3:0:0:
257,202,77961,1,8,0:0:0:0:
330,149,78073,2,0,L|330:107,3,26.6666666666667,8|0|0|8,0:0|0:0|0:0|0:0,0:0:0:0:
403,203,78409,5,0,0:0:0:0:
330,257,78521,1,8,0:0:0:0:
257,311,78633,1,0,0:0:0:0:
184,365,78745,2,0,P|140:368|99:363,1,80,10|10,0:0|0:0,0:0:0:0:
20,325,79081,5,0,0:0:0:0:
99,278,79193,1,8,0:0:0:0:
20,231,79305,1,0,0:0:0:0:
99,184,79416,2,0,P|142:180|183:185,1,80,8|8,0:3|0:0,0:0:0:0:
500,184,79864,5,8,0:0:0:0:
407,184,79976,1,8,0:0:0:0:
314,184,80088,1,4,0:0:0:0:
116,381,80312,5,8,0:3:0:0:
182,315,80424,1,8,0:0:0:0:
248,249,80536,1,4,0:0:0:0:
500,381,80760,1,8,0:0:0:0:
500,184,80984,5,8,0:0:0:0:
434,118,81096,1,0,0:0:0:0:
368,52,81208,2,0,L|329:52,3,26.6666666666667,8|0|0|8,0:3|0:0|0:0|0:0,0:0:0:0:
348,144,81543,5,0,0:0:0:0:
348,235,81655,1,8,0:3:0:0:
283,299,81767,1,0,0:0:0:0:
218,235,81879,1,8,0:0:0:0:
218,144,81991,1,0,0:0:0:0:
217,52,82103,2,0,L|134:52,1,80,8|0,0:0|0:0,0:0:0:0:
498,52,82551,1,12,0:0:0:0:
70,172,82999,6,2,P|84:204|115:235,1,80,12|8,0:3|0:0,0:0:0:0:
204,239,83334,1,8,0:0:0:0:
204,239,83446,1,10,0:0:0:0:
38,344,83670,1,4,0:0:0:0:
253,348,83894,5,8,0:0:0:0:
253,348,84006,1,10,0:0:0:0:
419,239,84230,1,8,0:0:0:0:
419,239,84342,1,10,0:0:0:0:
423,42,84566,5,8,0:0:0:0:
423,42,84678,1,8,0:0:0:0:
268,15,84790,2,2,P|308:22|342:42,1,80,12|8,0:3|0:0,0:0:0:0:
342,142,85125,1,8,0:0:0:0:
342,142,85237,1,10,0:0:0:0:
140,142,85461,1,4,0:0:0:0:
144,342,85685,5,8,0:0:0:0:
144,342,85797,1,10,0:0:0:0:
342,346,86021,1,8,0:0:0:0:
342,346,86133,1,10,0:0:0:0:
144,232,86357,5,8,0:0:0:0:
144,232,86469,1,8,0:0:0:0:
294,260,86581,2,2,P|254:253|220:233,1,80,12|8,0:3|0:0,0:0:0:0:
298,164,86916,1,8,0:0:0:0:
298,164,87028,1,10,0:0:0:0:
494,164,87252,1,4,0:0:0:0:
494,364,87476,5,8,0:0:0:0:
494,364,87588,1,10,0:0:0:0:
392,168,87812,1,8,0:0:0:0:
392,168,87924,1,10,0:0:0:0:
294,368,88148,5,8,0:0:0:0:
294,368,88260,1,8,0:0:0:0:
145,329,88372,2,2,P|184:339|215:363,1,80,6|2,0:3|0:0,0:0:0:0:
294,368,88707,1,8,0:0:0:0:
443,329,88819,2,2,P|404:339|373:363,1,80,6|2,0:3|0:0,0:0:0:0:
294,368,89155,1,8,0:0:0:0:
294,244,89267,2,2,L|294:133,1,80,6|2,0:3|0:0,0:0:0:0:
294,3,89715,5,8,0:3:0:0:
261,3,89827,1,0,0:0:0:0:
229,3,89939,1,8,0:0:0:0:
206,25,90051,1,8,0:0:0:0:
183,47,90163,6,2,L|126:103,1,80,12|8,0:3|0:0,0:0:0:0:
25,107,90499,1,8,0:0:0:0:
25,107,90610,1,10,0:0:0:0:
25,303,90834,1,4,0:0:0:0:
225,307,91058,5,8,0:0:0:0:
225,307,91170,1,10,0:0:0:0:
422,311,91394,1,8,0:0:0:0:
422,311,91506,1,10,0:0:0:0:
325,130,91730,1,8,0:0:0:0:
325,130,91842,1,8,0:0:0:0:
404,14,91954,6,2,P|364:10|322:15,1,80,6|2,0:3|0:0,0:0:0:0:
325,130,92290,1,8,0:0:0:0:
245,15,92401,2,2,P|284:10|327:16,1,80,6|2,0:3|0:0,0:0:0:0:
325,130,92737,1,8,0:0:0:0:
404,246,92849,6,2,P|364:250|322:245,1,80,6|2,0:3|0:0,0:0:0:0:
325,130,93185,1,8,0:0:0:0:
245,245,93297,2,2,P|284:250|327:244,1,80,6|2,0:3|0:0,0:0:0:0:
323,377,93745,1,4,0:3:0:0:
123,377,93969,5,8,0:0:0:0:
89,377,94081,1,8,0:0:0:0:
57,377,94193,1,14,0:0:0:0:
57,176,94416,1,4,0:0:0:0:
173,4,94640,2,2,B|115:24|115:24|45:24,2,120,6|2|10,0:3|0:0|0:0,0:0:0:0:
360,4,95536,5,12,0:0:0:0:
360,180,95760,1,8,0:0:0:0:
360,213,95872,1,8,0:0:0:0:
360,246,95984,1,6,0:3:0:0:
456,90,96207,5,8,0:0:0:0:
424,90,96319,1,10,0:0:0:0:
392,90,96431,1,8,0:3:0:0:
359,90,96543,2,0,L|279:90,1,80,0|0,0:0|2:0,2:0:0:0:
100,90,96879,5,8,0:3:0:0:
132,90,96991,1,10,0:0:0:0:
164,90,97103,1,8,0:0:0:0:
164,122,97215,1,10,0:0:0:0:
164,154,97327,6,2,L|164:302,1,120.000004577637,12|0,0:3|0:0,0:0:0:0:
164,369,97999,1,2,0:0:0:0:
270,345,98222,1,0,0:0:0:0:
326,251,98446,1,0,0:0:0:0:
299,147,98670,1,0,0:0:0:0:
206,92,98894,1,0,0:0:0:0:
101,118,99118,6,2,P|57:155|34:224,1,120.000004577637,2|0,0:0|0:0,0:0:0:0:
36,320,99790,1,2,0:0:0:0:
143,320,100013,2,2,P|199:309|254:261,1,120.000004577637,2|0,0:0|0:0,0:0:0:0:
272,159,100685,1,2,0:0:0:0:
272,50,100909,6,2,P|328:61|383:109,1,120.000004577637,2|0,0:0|0:0,0:0:0:0:
376,207,101581,1,2,0:0:0:0:
376,315,101804,1,0,0:0:0:0:
273,282,102028,1,0,0:0:0:0:
223,185,102252,1,0,0:0:0:0:
256,81,102476,1,0,0:0:0:0:
352,30,102700,6,2,P|409:30|471:68,1,120.000004577637,2|0,0:0|0:0,0:0:0:0:
463,168,103372,1,2,0:0:0:0:
383,240,103596,2,2,P|338:276|266:285,1,120.000004577637,2|0,0:0|0:0,0:0:0:0:
255,287,104155,5,2,0:0:0:0:
232,287,104267,1,2,0:0:0:0:
209,287,104379,1,2,0:0:0:0:
186,287,104491,2,2,P|127:277|80:240,1,120.000004577637,2|0,0:0|0:0,0:0:0:0:
81,107,105163,1,2,0:0:0:0:
166,29,105387,5,0,0:0:0:0:
176,136,105610,1,0,0:0:0:0:
185,243,105834,1,0,0:0:0:0:
268,312,106058,1,0,0:0:0:0:
376,312,106282,2,10,B|422:312|422:312|473:269,2,90.0000034332277,2|0|0,0:0|0:0|0:0,0:0:0:0:
504,214,107178,2,10,P|483:160|425:116,1,120.000004577637,2|0,0:0|0:0,0:0:0:0:
327,121,107849,5,2,0:0:0:0:
218,121,108073,2,2,P|172:83|150:28,1,120.000004577637,2|0,0:0|0:0,0:0:0:0:
258,28,108745,1,0,0:0:0:0:
366,28,108969,2,10,B|417:28|417:28|463:65,2,90.0000034332277,2|0|0,0:0|0:0|0:0,0:0:0:0:
502,133,109864,2,2,P|467:180|400:208,1,120.000004577637,2|0,0:0|0:0,0:0:0:0:
94,206,110760,6,0,L|94:227,7,20,2|0|0|0|2|0|0|0,0:0|0:0|0:0|0:0|0:0|0:0|0:0|0:0,0:0:0:0:
94,175,111207,6,0,L|94:154,7,20,2|0|0|0|2|0|0|0,0:0|0:0|0:0|0:0|0:0|0:0|0:0|0:0,0:0:0:0:
95,63,111655,5,6,0:0:0:0:
251,197,111879,1,8,0:0:0:0:
226,176,111991,1,8,0:0:0:0:
201,155,112103,1,4,0:0:0:0:
390,317,112327,6,2,L|462:372,1,80
321,262,112775,1,8,0:0:0:0:
321,262,112887,1,8,0:0:0:0:
390,212,112999,2,2,L|454:164,1,80,6|2,0:0|0:0,0:0:0:0:
68,262,113446,5,8,0:0:0:0:
148,79,113670,1,8,0:0:0:0:
161,49,113782,1,8,0:0:0:0:
174,20,113894,1,2,0:0:0:0:
366,20,114118,5,8,0:0:0:0:
366,20,114230,1,8,0:0:0:0:
382,186,114342,2,2,L|375:106,1,80,4|0,0:0|0:0,0:0:0:0:
400,356,114790,2,2,P|356:363|311:348,1,80,6|2,0:0|0:0,0:0:0:0:
35,226,115237,5,8,0:0:0:0:
247,317,115461,1,8,0:0:0:0:
217,305,115573,1,8,0:0:0:0:
188,292,115685,1,4,0:0:0:0:
35,127,115909,6,2,L|-3:51,1,80,6|2,0:0|0:0,0:0:0:0:
220,127,116357,1,8,0:0:0:0:
232,154,116469,1,8,0:0:0:0:
247,183,116581,1,4,0:0:0:0:
422,368,116804,5,8,0:0:0:0:
453,317,116916,1,0,0:0:0:0:
484,266,117028,5,8,0:0:0:0:
438,281,117140,1,0,0:0:0:0:
393,296,117252,1,8,0:0:0:0:
348,311,117364,1,0,0:0:0:0:
304,326,117476,5,8,0:0:0:0:
335,275,117588,1,0,0:0:0:0:
366,224,117700,1,8,0:0:0:0:
397,173,117812,1,0,0:0:0:0:
428,123,117924,5,8,0:0:0:0:
382,138,118036,1,0,0:0:0:0:
337,153,118148,1,8,0:0:0:0:
292,168,118260,1,0,0:0:0:0:
247,183,118372,5,8,0:0:0:0:
216,132,118484,1,0,0:0:0:0:
185,81,118596,1,8,0:0:0:0:
154,132,118707,1,0,0:0:0:0:
123,183,118819,1,14,0:0:0:0:
