osu file format v14

[General]
AudioFilename: audio.mp3
AudioLeadIn: 0
PreviewTime: 70012
Countdown: 0
SampleSet: Soft
StackLeniency: 0.3
Mode: 0
LetterboxInBreaks: 0
WidescreenStoryboard: 1

[Editor]
DistanceSpacing: 0.8
BeatDivisor: 4
GridSize: 4
TimelineZoom: 2.899999

[Metadata]
Title:Arbelge no Tatakai
TitleUnicode:アーベルジュの戦い
Artist:Sound Horizon
ArtistUnicode:Sound Horizon
Creator:P_O
Version:Easy
Source:
Tags:1st Story Renewal Page 324 Chronicle 2nd Instrumental Japanese Metal Opera Symphonic Rock Revo Other Linked Horizon
BeatmapID:2336208
BeatmapSetID:1075671

[Difficulty]
HPDrainRate:2
CircleSize:3
OverallDifficulty:2
ApproachRate:3
SliderMultiplier:1
SliderTickRate:2

[Events]
//Background and Video events
0,0,"Image0001.jpg",0,0
//Break Periods
//Storyboard Layer 0 (Background)
//Storyboard Layer 1 (Fail)
//Storyboard Layer 2 (Pass)
//Storyboard Layer 3 (Foreground)
//Storyboard Layer 4 (Overlay)
//Storyboard Sound Samples

[TimingPoints]
5537,447.761194029851,4,2,0,40,1,0
5537,-100,4,2,0,40,0,0
19865,-100,4,3,0,50,0,0
27029,-100,4,2,0,45,0,0
41357,-100,4,2,0,50,0,1
55686,-100,4,3,0,55,0,0
68223,-100,4,2,0,45,0,0
70014,447.761194029851,7,3,0,40,1,0
70014,-100,4,3,0,40,0,0
76283,-100,4,3,0,60,0,0
82551,-100,4,2,0,50,0,0
82999,447.761194029851,4,2,0,50,1,1
82999,-100,4,2,0,50,0,1
97327,-100,4,2,0,40,0,0
110760,-100,4,3,0,50,0,0
111656,-100,4,3,0,50,0,0
118820,-100,4,3,0,75,0,0

[Colours]
Combo1 : 63,199,80
Combo2 : 255,32,255
Combo3 : 183,181,98
Combo4 : 242,26,58

[HitObjects]
150,302,5536,6,2,B|98:290|98:290|62:242,1,100,2|0,0:0|0:0,0:0:0:0:
50,174,6432,2,0,P|101:92|193:46,1,200,8|8,0:0|0:0,0:0:0:0:
269,30,7775,1,8,0:0:0:0:
348,20,8223,2,2,L|467:5,2,100,2|0|2,0:0|0:0|0:0,0:0:0:0:
287,72,9566,5,0,0:0:0:0:
240,137,10014,2,0,P|194:222|200:324,1,200,8|8,0:0|0:0,0:0:0:0:
258,378,11357,1,8,0:0:0:0:
337,375,11805,2,2,L|447:364,2,100,2|0|14,0:0|0:0|0:3,0:0:0:0:
277,321,13148,5,0,0:0:0:0:
273,241,13596,2,0,P|324:159|416:113,1,200,8|8,0:0|0:0,0:0:0:0:
492,128,14939,1,8,0:0:0:0:
505,206,15387,2,2,L|505:313,2,100,2|0|2,0:0|0:0|0:0,0:0:0:0:
505,125,16731,5,0,0:0:0:0:
450,66,17178,2,0,P|358:35|258:59,1,200,8|8,0:0|0:0,0:0:0:0:
202,115,18522,2,0,L|130:198,2,100,8|8|14,0:0|0:0|0:0,0:0:0:0:
278,137,19865,6,0,B|340:190|340:190|370:269,1,150,8|6,0:0|0:3,0:0:0:0:
364,374,21208,1,6,0:3:0:0:
283,374,21656,5,8,0:3:0:0:
123,374,22551,2,2,L|12:374,1,100,6|6,0:3|0:3,0:0:0:0:
23,293,23447,6,0,B|37:212|37:212|91:147,1,150,8|2,0:3|0:0,0:0:0:0:
159,69,24790,1,2,0:0:0:0:
240,69,25238,1,8,0:0:0:0:
320,69,25686,2,0,L|438:69,2,100,8|8|8,0:0|0:0|0:0,0:0:0:0:
267,129,27029,6,2,P|238:183|231:241,1,100,10|8,0:0|0:0,0:0:0:0:
225,300,27925,1,2,0:0:0:0:
300,326,28372,1,0,0:0:0:0:
376,352,28820,2,2,P|451:307|482:199,1,200
486,123,30163,5,12,3:0:0:0:
485,43,30611,1,12,3:0:0:0:
404,43,31059,6,0,L|291:43,1,100,8|2,0:0|0:0,0:0:0:0:
223,43,31954,1,8,0:0:0:0:
142,43,32402,2,2,P|67:88|36:196,1,200,2|4,0:0|0:0,0:0:0:0:
35,271,33745,5,14,3:0:0:0:
35,351,34193,1,14,3:0:0:0:
115,351,34641,6,0,L|228:351,1,100,8|2,0:0|0:0,0:0:0:0:
295,351,35537,1,0,0:0:0:0:
376,351,35984,2,0,P|451:306|482:198,1,200,0|2,0:0|0:0,0:0:0:0:
483,122,37328,5,12,3:0:0:0:
483,42,37775,1,12,3:0:0:0:
402,42,38223,6,0,L|322:121,1,100,8|2,0:0|0:0,0:0:0:0:
273,168,39119,1,0,0:0:0:0:
193,168,39566,2,2,P|118:123|87:15,1,200,2|14,0:0|0:0,0:0:0:0:
15,163,41357,6,2,L|15:362,1,200,12|8,0:3|0:0,0:0:0:0:
95,363,42701,1,10,0:0:0:0:
174,363,43148,6,2,L|262:312,1,100,12|10,0:3|0:0,0:0:0:0:
332,276,44044,1,8,0:0:0:0:
330,93,44939,6,2,L|122:93,1,200,6|8,0:3|0:0,0:0:0:0:
49,93,46283,1,10,0:0:0:0:
49,12,46731,6,2,L|164:12,1,100,6|6,0:3|0:3,0:0:0:0:
229,12,47626,2,2,L|344:12,1,100,6|8,0:3|0:3,0:0:0:0:
409,12,48522,6,2,L|409:229,1,200,12|8,0:3|0:0,0:0:0:0:
409,292,49865,1,10,0:0:0:0:
328,292,50313,6,2,L|328:177,1,100,6|6,0:3|0:3,0:0:0:0:
328,112,51208,2,2,L|328:-3,1,100,6|6,0:3|0:3,0:0:0:0:
247,12,52104,6,0,P|195:12|137:32,1,100,4|14,0:3|0:0,0:0:0:0:
80,65,52999,2,2,B|41:98|41:98|41:152,1,100,6|0,0:3|0:0,0:0:0:0:
90,210,53895,2,0,P|140:210|192:175,2,100,12|6|8,0:3|0:3|2:3,0:0:0:0:
90,130,55238,1,8,0:0:0:0:
90,49,55686,6,0,L|302:49,1,200,14|6,0:0|0:0,0:0:0:0:
370,47,57029,1,12,0:0:0:0:
450,49,57477,2,0,L|450:160,1,100,8|0,0:0|0:0,0:0:0:0:
450,229,58372,1,4,0:0:0:0:
450,309,58820,1,6,0:0:0:0:
369,309,59268,6,0,L|164:363,1,200,4|6,0:0|0:0,0:0:0:0:
95,359,60611,1,12,0:0:0:0:
14,359,61059,2,0,L|14:259,1,100,8|0,0:0|0:0,0:0:0:0:
14,178,61954,1,12,0:0:0:0:
14,97,62402,1,12,0:0:0:0:
14,16,62850,6,0,L|218:70,1,200,14|6,0:0|0:0,0:0:0:0:
287,67,64193,1,12,0:0:0:0:
367,67,64641,2,0,L|367:183,1,100,8|0,0:0|0:0,0:0:0:0:
367,247,65537,1,6,0:0:0:0:
367,326,65984,1,6,0:0:0:0:
447,326,66432,6,0,L|473:124,1,200,4|4,0:0|0:0,0:0:0:0:
473,47,67775,1,12,0:0:0:0:
392,47,68223,6,2,B|290:47|290:47|226:123,2,200,12|12|4,0:0|0:0|2:0,0:0:0:0:
392,211,70910,5,8,0:0:0:0:
392,51,71805,2,0,P|444:61|481:93,2,100,8|8|10,0:0|0:0|0:0,0:0:0:0:
311,51,73148,1,10,0:0:0:0:
311,214,74044,1,8,0:0:0:0:
311,373,74939,2,0,P|258:367|217:340,2,100,8|8|8,0:0|0:0|0:0,0:0:0:0:
391,373,76283,5,12,0:3:0:0:
330,222,77178,1,8,0:3:0:0:
169,222,78074,2,0,L|57:222,2,100,8|8|10,0:0|0:0|0:0,0:0:0:0:
249,222,79417,1,8,0:3:0:0:
249,61,80313,1,8,0:3:0:0:
408,61,81208,2,0,L|520:61,2,100,8|8|8,0:3|0:3|0:0,0:0:0:0:
327,61,82551,1,12,0:0:0:0:
246,61,82999,6,2,L|33:61,1,200,12|8,0:3|0:0,0:0:0:0:
46,141,84342,1,10,0:0:0:0:
46,221,84790,6,2,L|134:272,1,100,12|10,0:3|0:0,0:0:0:0:
212,271,85686,1,8,0:0:0:0:
371,271,86581,6,2,L|371:67,1,200,12|8,0:3|0:0,0:0:0:0:
290,71,87925,1,10,0:0:0:0:
210,71,88372,6,2,L|210:173,1,100,6|6,0:3|0:3,0:0:0:0:
210,252,89268,2,2,L|210:354,1,100,6|8,0:3|0:3,0:0:0:0:
129,352,90163,6,2,L|129:152,1,200,12|8,0:3|0:0,0:0:0:0:
129,71,91507,1,10,0:0:0:0:
208,71,91954,6,2,L|283:146,1,100,6|6,0:3|0:3,0:0:0:0:
336,199,92850,2,2,L|408:271,1,100,6|6,0:3|0:3,0:0:0:0:
486,269,93745,6,0,P|486:217|466:159,1,100,4|14,0:3|0:0,0:0:0:0:
433,102,94641,2,2,B|400:63|400:63|346:63,1,100,6|0,0:3|0:0,0:0:0:0:
270,63,95537,1,12,0:0:0:0:
190,63,95984,2,0,P|140:75|94:110,2,100,6|8|8,0:3|0:3|0:3,0:0:0:0:
227,134,97328,6,2,B|169:268|169:268|8:268,1,300,12|0,0:3|0:0,0:0:0:0:
15,187,99119,1,2,0:0:0:0:
15,27,100014,1,2,0:0:0:0:
175,27,100910,6,2,B|326:26|326:26|424:161,1,300,2|0,0:0|0:0,0:0:0:0:
413,227,102701,1,2,0:0:0:0:
328,362,103596,1,2,0:0:0:0:
168,362,104491,6,2,B|167:210|167:210|302:112,1,300,2|0,0:0|0:0,0:0:0:0:
368,123,106283,1,2,0:0:0:0:
506,203,107178,1,2,0:0:0:0:
506,362,108073,6,2,B|200:362,1,300,2|0,0:0|0:0,0:0:0:0:
125,362,109865,1,2,0:0:0:0:
241,94,111656,6,0,B|183:36|183:36|102:13,1,150,6|2,0:0|0:0,0:0:0:0:
118,140,112999,1,6,0:0:0:0:
118,221,113447,5,8,0:0:0:0:
118,378,114342,2,2,L|229:378,1,100,4|6,0:0|0:0,0:0:0:0:
299,378,115238,6,0,B|363:326|363:326|392:247,1,150,8|6,0:0|0:0,0:0:0:0:
256,192,116581,12,12,118820,0:0:0:0:
