osu file format v14

[General]
AudioFilename: audio.mp3
AudioLeadIn: 0
PreviewTime: 85191
Countdown: 0
SampleSet: None
StackLeniency: 0.7
Mode: 2
LetterboxInBreaks: 0
WidescreenStoryboard: 1

[Editor]
Bookmarks: 4464,13191,22055,30101,39464,48101,67737
DistanceSpacing: 0.8
BeatDivisor: 4
GridSize: 8
TimelineZoom: 3.899999

[Metadata]
Title:Unusual "G"
TitleUnicode:Unusual "G"
Artist:Sound Artz
ArtistUnicode:Sound Artz
Creator:Unlucky_w
Version:Overdose
Source:SDVX
Tags:
BeatmapID:3783647
BeatmapSetID:1025101

[Difficulty]
HPDrainRate:5
CircleSize:3.6
OverallDifficulty:9.4
ApproachRate:9.4
SliderMultiplier:1.6
SliderTickRate:2

[Events]
//Background and Video events
0,0,"stolen.jpg",0,0
//Break Periods
2,48301,58183
//Storyboard Layer 0 (Background)
//Storyboard Layer 1 (Fail)
//Storyboard Layer 2 (Pass)
//Storyboard Layer 3 (Foreground)
//Storyboard Layer 4 (Overlay)
//Storyboard Sound Samples

[TimingPoints]
101,272.727272727273,4,2,1,100,1,0
3510,-100,4,2,1,65,0,0
3782,-100,4,2,1,80,0,0
4055,-100,4,2,1,100,0,0
47555,-100,4,2,1,60,0,0
48101,-100,4,2,1,80,0,0
84646,-66.6666666666667,4,2,1,100,0,0
85191,-100,4,2,1,100,0,0
88601,-100,4,2,1,65,0,0
88873,-100,4,2,1,80,0,0
89146,-100,4,2,1,100,0,0
89555,-90.9090909090909,4,2,1,100,0,1
114646,-90.9090909090909,4,2,1,26,0,1
114919,-90.9090909090909,4,2,1,53,0,1
115191,-90.9090909090909,4,2,1,79,0,1
115464,-90.9090909090909,4,2,1,100,0,1
115737,-100,4,2,1,100,0,0

[HitObjects]
369,64,101,5,12,0:0:0:0:
445,123,237,1,0,0:0:0:0:
369,64,373,1,0,0:0:0:0:
138,66,510,2,0,B|56:71|56:71|142:78,1,160
266,191,919,5,8,0:0:0:0:
284,212,953,1,8,0:0:0:0:
266,236,987,1,8,0:0:0:0:
178,239,1055,1,8,0:0:0:0:
145,248,1089,1,8,0:0:0:0:
179,265,1123,1,8,0:0:0:0:
392,80,1191,5,12,0:0:0:0:
468,139,1327,1,0,0:0:0:0:
392,80,1463,1,0,0:0:0:0:
161,82,1600,2,0,B|79:87|79:87|165:94,1,160
289,207,2009,5,8,0:0:0:0:
307,228,2043,1,8,0:0:0:0:
289,252,2077,1,8,0:0:0:0:
201,255,2145,1,8,0:0:0:0:
168,264,2179,1,8,0:0:0:0:
202,281,2213,1,8,0:0:0:0:
369,64,2282,5,12,0:0:0:0:
445,123,2418,1,0,0:0:0:0:
447,212,2554,1,0,0:0:0:0:
354,212,2691,1,8,0:0:0:0:
143,64,2828,5,12,0:0:0:0:
67,123,2964,1,0,0:0:0:0:
65,212,3100,1,0,0:0:0:0:
158,212,3237,1,8,0:0:0:0:
369,64,3373,5,12,0:0:0:0:
445,123,3509,1,8,0:0:0:0:
352,161,3645,1,8,0:0:0:0:
260,202,3782,1,8,0:0:0:0:
359,239,3919,1,8,0:0:0:0:
465,281,4055,1,8,0:0:0:0:
206,337,4191,2,0,L|70:338,1,120,12|0,0:0|0:0,0:0:0:0:
280,240,4464,6,0,L|366:239,1,80,10|0,0:0|0:0,0:0:0:0:
236,220,4737,2,0,L|227:126,1,80,10|0,0:0|0:0,0:0:0:0:
354,126,5010,1,10,0:0:0:0:
386,98,5078,1,0,0:0:0:0:
354,63,5146,1,2,0:0:0:0:
119,142,5282,2,0,L|108:242,1,80,10|0,0:0|0:0,0:0:0:0:
227,287,5555,6,0,L|118:286,1,80,10|0,0:0|0:0,0:0:0:0:
271,261,5828,2,0,L|280:166,1,80,10|0,0:0|0:0,0:0:0:0:
155,66,6101,1,10,0:0:0:0:
121,89,6169,1,0,0:0:0:0:
154,113,6237,1,2,0:0:0:0:
366,113,6373,2,0,L|470:113,1,80,10|0,0:0|0:0,0:0:0:0:
319,328,6646,6,0,L|314:233,1,80,10|0,0:0|0:0,0:0:0:0:
193,226,6919,2,0,L|285:226,1,80,10|0,0:0|0:0,0:0:0:0:
398,192,7191,1,10,0:0:0:0:
433,167,7260,1,0,0:0:0:0:
400,142,7328,1,2,0:0:0:0:
189,95,7464,2,0,L|181:202,1,80,10|0,0:0|0:0,0:0:0:0:
306,196,7737,6,0,L|209:196,1,80,10|0,0:0|0:0,0:0:0:0:
352,220,8010,2,0,L|359:311,1,80,10|0,0:0|0:0,0:0:0:0:
234,324,8282,1,10,0:0:0:0:
282,321,8351,1,0,0:0:0:0:
333,318,8419,1,2,0:0:0:0:
92,298,8555,2,0,L|86:202,1,80,10|0,0:0|0:0,0:0:0:0:
214,49,8828,6,0,L|310:49,1,80,10|0,0:0|0:0,0:0:0:0:
171,79,9101,2,0,L|162:184,1,80,10|0,0:0|0:0,0:0:0:0:
288,191,9373,1,10,0:0:0:0:
330,190,9441,1,0,0:0:0:0:
373,189,9510,1,2,0:0:0:0:
171,329,9646,2,0,L|79:329,1,80,10|0,0:0|0:0,0:0:0:0:
215,302,9919,6,0,L|223:197,1,80,10|0,0:0|0:0,0:0:0:0:
343,202,10191,2,0,L|250:202,1,80,10|2,0:0|0:0,0:0:0:0:
391,176,10464,1,10,0:0:0:0:
437,157,10532,1,0,0:0:0:0:
391,176,10601,1,2,0:0:0:0:
154,180,10737,2,0,L|50:180,1,80,10|0,0:0|0:0,0:0:0:0:
200,72,11010,6,0,L|206:179,1,80,10|0,0:0|0:0,0:0:0:0:
80,238,11282,2,0,L|175:239,1,80,10|0,0:0|0:0,0:0:0:0:
286,331,11555,1,10,0:0:0:0:
240,331,11623,1,0,0:0:0:0:
195,331,11691,1,2,0:0:0:0:
418,302,11828,2,0,L|425:198,1,80,10|0,0:0|0:0,0:0:0:0:
296,149,12101,6,0,L|405:148,1,80,10|0,0:0|0:0,0:0:0:0:
254,51,12373,2,0,L|159:51,1,80,10|0,0:0|0:0,0:0:0:0:
381,102,12646,1,12,0:0:0:0:
154,207,12782,1,12,0:0:0:0:
392,329,12919,1,8,0:0:0:0:
421,306,12987,1,8,0:0:0:0:
392,329,13055,1,8,0:0:0:0:
421,306,13123,1,8,0:0:0:0:
195,332,13191,5,14,0:0:0:0:
288,244,13328,2,0,L|394:243,2,80,0|8|0,0:0|0:0|0:0,0:0:0:0:
73,76,13737,1,10,0:0:0:0:
182,118,13873,2,0,L|70:115,2,80,0|8|0,0:0|0:0|0:0,0:0:0:0:
445,75,14282,5,10,0:0:0:0:
338,75,14419,2,0,L|241:73,2,80,0|8|0,0:0|0:0|0:0,0:0:0:0:
108,239,14828,1,10,0:0:0:0:
213,240,14964,2,0,L|305:240,2,80,0|8|0,0:0|0:0|0:0,0:0:0:0:
417,320,15373,5,10,0:0:0:0:
437,288,15441,1,0,0:0:0:0:
414,251,15510,1,2,0:0:0:0:
351,236,15578,1,0,0:0:0:0:
164,238,15646,1,10,0:0:0:0:
286,54,15919,5,10,0:0:0:0:
217,97,16055,1,0,0:0:0:0:
280,112,16123,1,2,0:0:0:0:
460,129,16191,1,8,0:0:0:0:
464,249,16464,5,10,0:0:0:0:
349,315,16601,1,2,0:0:0:0:
339,206,16737,1,8,0:0:0:0:
274,197,16805,1,2,0:0:0:0:
261,83,16941,1,0,0:0:0:0:
425,66,17010,1,8,0:0:0:0:
485,86,17146,1,8,0:0:0:0:
425,66,17214,1,8,0:0:0:0:
192,66,17282,1,8,0:0:0:0:
108,95,17419,1,8,0:0:0:0:
103,139,17487,1,8,0:0:0:0:
317,332,17555,5,10,0:0:0:0:
224,244,17692,2,0,L|118:243,2,80,0|8|0,0:0|0:0|0:0,0:0:0:0:
439,76,18101,1,10,0:0:0:0:
330,118,18237,2,0,L|442:115,2,80,0|8|0,0:0|0:0|0:0,0:0:0:0:
67,75,18646,5,10,0:0:0:0:
174,75,18783,2,0,L|271:73,2,80,0|8|0,0:0|0:0|0:0,0:0:0:0:
404,239,19192,1,10,0:0:0:0:
299,240,19328,2,0,L|207:240,2,80,0|8|0,0:0|0:0|0:0,0:0:0:0:
95,320,19737,5,10,0:0:0:0:
75,288,19805,1,0,0:0:0:0:
98,251,19874,1,2,0:0:0:0:
161,236,19942,1,0,0:0:0:0:
348,238,20010,1,10,0:0:0:0:
226,54,20283,5,10,0:0:0:0:
295,97,20419,1,2,0:0:0:0:
232,112,20487,1,0,0:0:0:0:
52,129,20555,1,8,0:0:0:0:
43,212,20691,1,0,0:0:0:0:
247,311,20828,5,12,0:0:0:0:
142,305,20964,1,0,0:0:0:0:
135,258,21032,1,0,0:0:0:0:
339,219,21101,1,12,0:0:0:0:
399,203,21169,1,0,0:0:0:0:
336,130,21305,1,8,0:0:0:0:
201,114,21373,1,12,0:0:0:0:
309,60,21510,1,0,0:0:0:0:
102,115,21646,5,12,0:0:0:0:
75,145,21714,1,8,0:0:0:0:
101,189,21782,1,8,0:0:0:0:
77,224,21851,1,8,0:0:0:0:
315,334,21919,5,12,0:0:0:0:
156,332,22191,1,8,0:0:0:0:
316,321,22464,1,8,0:0:0:0:
321,277,22532,1,0,0:0:0:0:
245,273,22601,1,0,0:0:0:0:
235,228,22669,1,0,0:0:0:0:
395,195,22737,1,8,0:0:0:0:
221,52,23010,5,8,0:0:0:0:
380,54,23282,1,8,0:0:0:0:
220,65,23555,1,8,0:0:0:0:
235,110,23623,1,0,0:0:0:0:
280,144,23692,1,0,0:0:0:0:
351,150,23760,1,0,0:0:0:0:
190,305,23828,1,8,0:0:0:0:
72,271,23964,1,8,0:0:0:0:
134,253,24032,1,8,0:0:0:0:
322,306,24101,5,8,0:0:0:0:
153,307,24373,1,8,0:0:0:0:
327,282,24646,1,8,0:0:0:0:
393,267,24714,1,0,0:0:0:0:
420,218,24782,1,0,0:0:0:0:
391,162,24851,1,0,0:0:0:0:
180,77,24919,1,8,0:0:0:0:
334,124,25191,5,8,0:0:0:0:
171,158,25464,1,8,0:0:0:0:
340,181,25737,1,8,0:0:0:0:
286,206,25805,1,0,0:0:0:0:
338,235,25873,1,8,0:0:0:0:
404,265,25941,1,8,0:0:0:0:
157,308,26010,1,8,0:0:0:0:
94,296,26146,1,8,0:0:0:0:
157,308,26214,1,8,0:0:0:0:
352,340,26282,5,12,0:0:0:0:
181,257,26555,1,8,0:0:0:0:
366,68,26828,1,8,0:0:0:0:
306,82,26896,1,0,0:0:0:0:
244,97,26964,1,0,0:0:0:0:
183,111,27032,1,0,0:0:0:0:
377,187,27101,1,8,0:0:0:0:
441,206,27237,1,0,0:0:0:0:
445,257,27305,1,0,0:0:0:0:
242,329,27373,5,12,0:0:0:0:
408,309,27646,1,8,0:0:0:0:
237,257,27919,1,8,0:0:0:0:
232,207,27987,1,0,0:0:0:0:
301,197,28055,1,0,0:0:0:0:
307,149,28123,1,0,0:0:0:0:
103,83,28191,1,8,0:0:0:0:
41,105,28328,1,8,0:0:0:0:
103,83,28396,1,8,0:0:0:0:
307,149,28464,5,4,0:0:0:0:
145,174,28737,1,8,0:0:0:0:
367,335,29010,1,12,0:0:0:0:
388,301,29078,1,0,0:0:0:0:
369,262,29146,1,0,0:0:0:0:
89,176,29282,1,8,0:0:0:0:
74,256,29419,1,0,0:0:0:0:
321,75,29555,5,8,0:0:0:0:
434,101,29760,1,0,0:0:0:0:
185,180,29828,1,8,0:0:0:0:
62,212,30032,1,0,0:0:0:0:
305,320,30101,1,8,0:0:0:0:
208,285,30373,1,8,0:0:0:0:
245,248,30441,1,8,0:0:0:0:
304,225,30510,1,8,0:0:0:0:
373,218,30578,1,8,0:0:0:0:
141,39,30646,5,12,0:0:0:0:
74,121,30828,1,0,0:0:0:0:
143,142,30919,1,8,0:0:0:0:
212,161,31101,1,0,0:0:0:0:
375,193,31191,1,8,0:0:0:0:
447,270,31373,1,0,0:0:0:0:
377,292,31464,1,8,0:0:0:0:
307,278,31646,1,0,0:0:0:0:
134,247,31737,5,8,0:0:0:0:
127,190,31919,1,0,0:0:0:0:
316,145,32010,1,8,0:0:0:0:
386,75,32191,1,0,0:0:0:0:
201,97,32282,1,8,0:0:0:0:
127,190,32464,1,0,0:0:0:0:
201,97,32555,1,8,0:0:0:0:
271,291,32737,1,0,0:0:0:0:
446,317,32828,5,8,0:0:0:0:
450,208,33010,1,0,0:0:0:0:
378,193,33101,1,8,0:0:0:0:
311,180,33282,1,0,0:0:0:0:
152,151,33373,1,8,0:0:0:0:
85,170,33555,1,0,0:0:0:0:
152,151,33646,1,8,0:0:0:0:
217,334,33828,1,0,0:0:0:0:
382,306,33919,5,8,0:0:0:0:
388,239,34101,1,0,0:0:0:0:
214,226,34191,1,8,0:0:0:0:
147,193,34373,1,0,0:0:0:0:
330,158,34464,1,8,0:0:0:0:
259,109,34646,1,8,0:0:0:0:
326,82,34737,1,8,0:0:0:0:
397,106,34919,1,8,0:0:0:0:
201,75,35010,5,8,0:0:0:0:
259,109,35191,1,0,0:0:0:0:
195,124,35282,1,10,0:0:0:0:
125,235,35464,1,0,0:0:0:0:
276,265,35555,1,8,0:0:0:0:
212,306,35737,1,0,0:0:0:0:
276,265,35828,1,10,0:0:0:0:
341,228,36010,1,0,0:0:0:0:
168,193,36101,5,8,0:0:0:0:
110,232,36282,1,0,0:0:0:0:
288,265,36373,1,10,0:0:0:0:
223,307,36555,1,0,0:0:0:0:
420,333,36646,1,8,0:0:0:0:
423,209,36828,1,0,0:0:0:0:
352,197,36919,1,10,0:0:0:0:
284,104,37101,1,0,0:0:0:0:
111,118,37191,5,8,0:0:0:0:
174,151,37373,1,0,0:0:0:0:
111,118,37464,1,10,0:0:0:0:
46,150,37646,1,0,0:0:0:0:
232,202,37737,1,8,0:0:0:0:
166,220,37919,1,0,0:0:0:0:
232,202,38010,1,10,0:0:0:0:
304,284,38191,5,0,0:0:0:0:
113,322,38282,1,8,0:0:0:0:
180,285,38464,1,0,0:0:0:0:
113,322,38555,1,8,0:0:0:0:
47,204,38737,1,0,0:0:0:0:
337,55,38828,5,8,0:0:0:0:
397,77,38919,1,8,0:0:0:0:
336,97,39010,1,8,0:0:0:0:
177,134,39101,1,8,0:0:0:0:
247,149,39191,1,8,0:0:0:0:
316,165,39282,1,8,0:0:0:0:
110,313,39373,5,12,0:0:0:0:
175,266,39555,1,0,0:0:0:0:
340,249,39646,1,10,0:0:0:0:
270,225,39828,1,0,0:0:0:0:
340,249,39919,1,8,0:0:0:0:
412,218,40101,1,0,0:0:0:0:
248,198,40191,1,10,0:0:0:0:
313,157,40373,1,0,0:0:0:0:
248,198,40464,5,8,0:0:0:0:
313,157,40646,1,0,0:0:0:0:
142,139,40737,1,10,0:0:0:0:
211,152,40919,1,0,0:0:0:0:
142,139,41010,1,8,0:0:0:0:
78,155,41191,1,0,0:0:0:0:
256,333,41282,1,10,0:0:0:0:
319,309,41373,1,8,0:0:0:0:
256,333,41464,1,8,0:0:0:0:
78,155,41555,5,8,0:0:0:0:
142,139,41737,1,0,0:0:0:0:
305,115,41828,1,10,0:0:0:0:
241,98,42010,1,0,0:0:0:0:
305,115,42101,1,8,0:0:0:0:
372,97,42282,1,0,0:0:0:0:
185,191,42373,1,10,0:0:0:0:
110,217,42555,1,0,0:0:0:0:
306,284,42646,5,8,0:0:0:0:
390,253,42828,1,0,0:0:0:0:
185,191,42919,1,10,0:0:0:0:
110,217,43101,1,0,0:0:0:0:
185,191,43191,1,8,0:0:0:0:
246,157,43282,1,8,0:0:0:0:
185,191,43373,1,8,0:0:0:0:
390,253,43464,1,8,0:0:0:0:
432,244,43498,1,8,0:0:0:0:
458,225,43532,1,8,0:0:0:0:
473,195,43566,1,8,0:0:0:0:
461,168,43601,1,8,0:0:0:0:
417,150,43646,1,8,0:0:0:0:
245,109,43737,5,8,0:0:0:0:
310,129,43919,1,0,0:0:0:0:
118,142,44010,1,10,0:0:0:0:
185,165,44191,1,0,0:0:0:0:
118,142,44282,1,8,0:0:0:0:
55,166,44464,1,0,0:0:0:0:
225,253,44555,1,10,0:0:0:0:
161,269,44737,1,0,0:0:0:0:
334,320,44828,5,8,0:0:0:0:
398,290,45010,1,0,0:0:0:0:
225,253,45101,1,10,0:0:0:0:
161,269,45282,1,0,0:0:0:0:
334,320,45373,1,8,0:0:0:0:
398,290,45555,1,8,0:0:0:0:
225,253,45646,1,10,0:0:0:0:
314,208,45828,1,8,0:0:0:0:
117,153,45919,5,12,0:0:0:0:
185,66,46101,1,0,0:0:0:0:
372,40,46191,1,10,0:0:0:0:
301,131,46373,1,8,0:0:0:0:
117,153,46464,1,12,0:0:0:0:
180,182,46646,1,0,0:0:0:0:
117,153,46737,1,10,0:0:0:0:
183,66,46919,1,0,0:0:0:0:
368,312,47010,5,8,0:0:0:0:
438,283,47101,1,8,0:0:0:0:
368,257,47191,1,8,0:0:0:0:
183,305,47282,1,8,0:0:0:0:
113,278,47373,1,8,0:0:0:0:
181,254,47464,1,8,0:0:0:0:
361,173,47555,1,8,0:0:0:0:
299,162,47646,1,8,0:0:0:0:
239,153,47737,1,8,0:0:0:0:
309,139,47828,1,8,0:0:0:0:
382,127,47919,1,8,0:0:0:0:
455,113,48010,1,8,0:0:0:0:
180,28,48101,5,12,0:0:0:0:
341,72,58737,5,0,0:0:0:0:
255,89,58873,1,0,0:0:0:0:
167,108,59010,2,0,P|139:149|228:309,1,240
372,313,59828,1,0,0:0:0:0:
258,308,60101,2,0,P|318:295|239:126,1,320
151,128,60919,1,0,0:0:0:0:
338,316,61191,6,0,P|394:298|447:129,1,240
341,101,62010,1,0,0:0:0:0:
197,116,62282,2,0,P|196:182|404:336,1,320
166,333,63373,6,0,P|226:317|105:73,1,480
195,95,64328,1,0,0:0:0:0:
283,117,64464,2,0,P|336:165|194:297,1,320
256,192,65555,12,0,66919,0:0:0:0:
414,84,67191,5,0,0:0:0:0:
396,153,67328,1,0,0:0:0:0:
340,208,67464,1,0,0:0:0:0:
254,232,67601,1,0,0:0:0:0:
121,332,67737,2,0,L|112:157,1,160
337,331,68282,1,0,0:0:0:0:
192,313,68555,5,0,0:0:0:0:
157,231,68691,1,0,0:0:0:0:
212,164,68828,1,0,0:0:0:0:
312,145,68964,1,0,0:0:0:0:
212,164,69101,1,0,0:0:0:0:
418,324,69373,5,0,0:0:0:0:
254,260,69646,1,0,0:0:0:0:
434,195,69919,2,0,P|451:120|418:5,1,160
341,15,70328,1,0,0:0:0:0:
239,35,70464,1,0,0:0:0:0:
427,132,70737,1,0,0:0:0:0:
226,321,71010,2,0,P|163:305|255:138,1,320
362,122,71828,1,0,0:0:0:0:
141,333,72101,5,0,0:0:0:0:
310,269,72373,1,0,0:0:0:0:
90,258,72646,1,0,0:0:0:0:
262,186,72919,1,0,0:0:0:0:
430,119,73191,1,0,0:0:0:0:
331,55,73464,1,0,0:0:0:0:
106,170,73737,5,0,0:0:0:0:
212,209,74010,1,0,0:0:0:0:
418,300,74282,1,0,0:0:0:0:
430,208,74555,1,0,0:0:0:0:
213,326,74828,1,0,0:0:0:0:
123,292,75101,1,0,0:0:0:0:
116,214,75237,1,0,0:0:0:0:
264,184,75373,5,0,0:0:0:0:
314,116,75510,1,0,0:0:0:0:
261,47,75646,1,0,0:0:0:0:
162,28,75782,1,0,0:0:0:0:
261,47,75919,1,0,0:0:0:0:
428,280,76191,1,0,0:0:0:0:
330,297,76328,1,0,0:0:0:0:
223,288,76464,6,0,P|186:249|286:125,1,240
377,121,77010,1,0,0:0:0:0:
191,79,77282,1,0,0:0:0:0:
380,31,77555,1,0,0:0:0:0:
463,77,77691,1,0,0:0:0:0:
377,121,77828,1,0,0:0:0:0:
175,255,78101,1,0,0:0:0:0:
367,338,78373,1,0,0:0:0:0:
172,267,78646,6,0,P|111:253|180:135,1,240
287,131,79191,1,0,0:0:0:0:
99,196,79464,1,0,0:0:0:0:
282,334,79737,2,0,P|283:245|88:149,1,320
203,95,80555,1,0,0:0:0:0:
417,303,80828,5,0,0:0:0:0:
421,208,81101,1,0,0:0:0:0:
212,320,81373,1,0,0:0:0:0:
350,249,81646,1,0,0:0:0:0:
248,222,81782,1,0,0:0:0:0:
139,255,81919,6,0,P|112:192|304:81,1,320
115,65,82737,1,0,0:0:0:0:
454,317,83010,1,0,0:0:0:0:
444,214,83282,1,0,0:0:0:0:
240,64,83555,1,0,0:0:0:0:
405,75,83828,5,0,0:0:0:0:
303,117,83964,1,0,0:0:0:0:
229,198,84101,1,0,0:0:0:0:
300,287,84237,1,0,0:0:0:0:
412,323,84373,1,0,0:0:0:0:
198,87,84646,2,0,B|387:85|408:96|410:297,1,360.000013732911
143,64,85191,5,12,0:0:0:0:
67,123,85327,1,0,0:0:0:0:
143,64,85463,1,0,0:0:0:0:
374,66,85600,2,0,B|456:71|456:71|370:78,1,160
246,191,86009,5,8,0:0:0:0:
228,212,86043,1,8,0:0:0:0:
246,236,86077,1,8,0:0:0:0:
334,239,86145,1,8,0:0:0:0:
367,248,86179,1,8,0:0:0:0:
333,265,86213,1,8,0:0:0:0:
120,80,86281,5,12,0:0:0:0:
44,139,86417,1,0,0:0:0:0:
120,80,86553,1,0,0:0:0:0:
351,82,86690,2,0,B|433:87|433:87|347:94,1,160
223,207,87099,5,8,0:0:0:0:
205,228,87133,1,8,0:0:0:0:
223,252,87167,1,8,0:0:0:0:
311,255,87235,1,8,0:0:0:0:
344,264,87269,1,8,0:0:0:0:
310,281,87303,1,8,0:0:0:0:
143,64,87372,5,12,0:0:0:0:
67,123,87508,1,0,0:0:0:0:
65,212,87644,1,0,0:0:0:0:
158,212,87781,1,8,0:0:0:0:
369,64,87918,5,12,0:0:0:0:
445,123,88054,1,0,0:0:0:0:
447,212,88190,1,0,0:0:0:0:
354,212,88327,1,8,0:0:0:0:
143,64,88463,5,12,0:0:0:0:
67,123,88599,1,8,0:0:0:0:
160,161,88735,1,8,0:0:0:0:
252,202,88872,1,8,0:0:0:0:
153,239,89009,1,8,0:0:0:0:
47,281,89145,1,8,0:0:0:0:
306,337,89281,2,0,L|442:338,1,120,8|0,0:0|0:0,0:0:0:0:
168,186,89555,5,10,0:0:0:0:
267,168,89691,1,2,0:0:0:0:
126,141,89828,2,0,L|122:92,1,44.0000013427735,10|0,0:0|0:0,0:0:0:0:
352,89,89964,1,2,0:0:0:0:
416,108,90032,1,0,0:0:0:0:
443,152,90101,1,8,0:0:0:0:
423,197,90169,1,0,0:0:0:0:
250,343,90237,6,0,L|241:291,1,44.0000013427735,2|0,0:0|0:0,0:0:0:0:
317,279,90373,2,0,L|326:212,1,44.0000013427735,10|0,0:0|0:0,0:0:0:0:
158,239,90510,2,0,L|80:233,1,44.0000013427735,2|0,0:0|0:0,0:0:0:0:
344,186,90646,5,10,0:0:0:0:
245,168,90782,1,2,0:0:0:0:
386,141,90919,2,0,L|390:92,1,44.0000013427735,10|0,0:0|0:0,0:0:0:0:
160,89,91055,1,2,0:0:0:0:
96,108,91123,1,0,0:0:0:0:
69,152,91192,1,8,0:0:0:0:
89,197,91260,1,0,0:0:0:0:
262,343,91328,6,0,L|271:291,1,44.0000013427735,2|0,0:0|0:0,0:0:0:0:
195,279,91464,2,0,L|186:212,1,44.0000013427735,10|0,0:0|0:0,0:0:0:0:
348,226,91601,1,8,0:0:0:0:
377,219,91635,1,8,0:0:0:0:
409,213,91669,1,8,0:0:0:0:
186,88,91737,1,10,0:0:0:0:
369,102,92146,6,0,L|435:111,1,44.0000013427735,10|0,0:0|0:0,0:0:0:0:
186,88,92282,1,10,0:0:0:0:
369,102,92691,6,0,L|435:111,1,44.0000013427735,10|0,0:0|0:0,0:0:0:0:
186,88,92827,1,10,0:0:0:0:
281,112,92964,1,10,0:0:0:0:
68,165,93101,1,10,0:0:0:0:
287,314,93237,1,10,0:0:0:0:
324,306,93271,1,8,0:0:0:0:
363,299,93305,1,8,0:0:0:0:
458,140,93510,5,10,0:0:0:0:
428,147,93544,1,8,0:0:0:0:
386,158,93578,1,8,0:0:0:0:
223,200,93646,1,8,0:0:0:0:
324,229,93782,1,10,0:0:0:0:
61,289,93919,5,10,0:0:0:0:
160,271,94055,1,2,0:0:0:0:
267,255,94192,2,0,L|276:208,1,44.0000013427735,10|0,0:0|0:0,0:0:0:0:
127,72,94328,1,2,0:0:0:0:
63,91,94396,1,0,0:0:0:0:
36,135,94465,1,8,0:0:0:0:
56,180,94533,1,0,0:0:0:0:
229,326,94601,6,0,L|238:274,1,44.0000013427735,2|0,0:0|0:0,0:0:0:0:
162,262,94737,2,0,L|153:195,1,44.0000013427735,10|0,0:0|0:0,0:0:0:0:
321,222,94874,2,0,L|399:216,1,44.0000013427735,2|0,0:0|0:0,0:0:0:0:
206,85,95010,5,10,0:0:0:0:
305,67,95146,1,2,0:0:0:0:
199,168,95282,2,0,L|141:171,1,44.0000013427735,10|0,0:0|0:0,0:0:0:0:
372,304,95419,1,2,0:0:0:0:
437,290,95487,1,0,0:0:0:0:
457,249,95555,1,8,0:0:0:0:
431,202,95623,1,0,0:0:0:0:
264,65,95691,6,0,L|193:80,1,44.0000013427735,2|0,0:0|0:0,0:0:0:0:
300,97,95828,2,0,L|308:166,1,44.0000013427735,10|0,0:0|0:0,0:0:0:0:
224,161,95964,2,0,L|158:170,1,44.0000013427735,2|0,0:0|0:0,0:0:0:0:
394,345,96101,5,10,0:0:0:0:
425,307,96169,1,0,0:0:0:0:
395,260,96237,1,0,0:0:0:0:
331,241,96305,1,0,0:0:0:0:
153,322,96373,1,10,0:0:0:0:
120,289,96441,1,0,0:0:0:0:
148,248,96510,1,0,0:0:0:0:
203,233,96578,1,0,0:0:0:0:
401,195,96646,5,10,0:0:0:0:
419,155,96714,1,0,0:0:0:0:
400,119,96782,1,0,0:0:0:0:
341,102,96851,1,0,0:0:0:0:
151,106,96919,2,0,L|87:116,1,44.0000013427735,10|0,0:0|0:0,0:0:0:0:
308,204,97055,1,14,0:0:0:0:
151,106,97328,1,14,0:0:0:0:
334,11,97601,1,14,0:0:0:0:
179,50,97873,5,8,0:0:0:0:
244,66,97941,1,8,0:0:0:0:
184,81,98010,1,8,0:0:0:0:
121,104,98078,1,8,0:0:0:0:
79,148,98146,1,8,0:0:0:0:
122,191,98214,1,8,0:0:0:0:
373,191,98282,5,14,0:0:0:0:
274,173,98418,1,2,0:0:0:0:
386,243,98555,2,0,L|390:292,1,44.0000013427735,10|0,0:0|0:0,0:0:0:0:
160,295,98691,1,2,0:0:0:0:
96,276,98759,1,0,0:0:0:0:
69,232,98828,1,8,0:0:0:0:
89,187,98896,1,0,0:0:0:0:
262,41,98964,6,0,L|271:93,1,44.0000013427735,2|0,0:0|0:0,0:0:0:0:
195,105,99100,2,0,L|186:172,1,44.0000013427735,10|0,0:0|0:0,0:0:0:0:
354,145,99237,2,0,L|432:151,1,44.0000013427735,2|0,0:0|0:0,0:0:0:0:
131,205,99373,5,10,0:0:0:0:
230,187,99509,1,2,0:0:0:0:
126,243,99646,2,0,L|122:292,1,44.0000013427735,10|0,0:0|0:0,0:0:0:0:
352,295,99782,1,2,0:0:0:0:
416,276,99850,1,0,0:0:0:0:
443,232,99919,1,8,0:0:0:0:
423,187,99987,1,0,0:0:0:0:
250,41,100055,6,0,L|241:93,1,44.0000013427735,2|0,0:0|0:0,0:0:0:0:
317,105,100191,2,0,L|326:172,1,44.0000013427735,10|0,0:0|0:0,0:0:0:0:
164,158,100328,1,8,0:0:0:0:
135,165,100362,1,8,0:0:0:0:
103,171,100396,1,8,0:0:0:0:
326,296,100464,1,10,0:0:0:0:
143,282,100873,6,0,L|77:273,1,44.0000013427735,10|0,0:0|0:0,0:0:0:0:
326,296,101009,1,10,0:0:0:0:
143,282,101418,6,0,L|77:273,1,44.0000013427735,10|0,0:0|0:0,0:0:0:0:
326,296,101554,1,10,0:0:0:0:
230,269,101691,1,10,0:0:0:0:
444,219,101828,1,10,0:0:0:0:
225,70,101964,1,10,0:0:0:0:
188,78,101998,1,8,0:0:0:0:
149,85,102032,1,8,0:0:0:0:
54,244,102237,5,8,0:0:0:0:
84,237,102271,1,8,0:0:0:0:
126,226,102305,1,8,0:0:0:0:
289,184,102373,1,10,0:0:0:0:
188,155,102509,1,10,0:0:0:0:
452,125,102646,5,6,0:0:0:0:
353,107,102782,1,2,0:0:0:0:
245,129,102919,2,0,L|236:176,1,44.0000013427735,10|0,0:0|0:0,0:0:0:0:
385,312,103055,1,2,0:0:0:0:
449,293,103123,1,0,0:0:0:0:
476,249,103192,1,8,0:0:0:0:
456,204,103260,1,0,0:0:0:0:
283,58,103328,6,0,L|274:110,1,44.0000013427735,2|0,0:0|0:0,0:0:0:0:
350,122,103464,2,0,L|359:189,1,44.0000013427735,10|0,0:0|0:0,0:0:0:0:
191,162,103601,2,0,L|113:168,1,44.0000013427735,2|0,0:0|0:0,0:0:0:0:
317,308,103737,5,10,0:0:0:0:
211,276,103873,1,2,0:0:0:0:
310,216,104009,2,0,L|368:213,1,44.0000013427735,10|0,0:0|0:0,0:0:0:0:
140,80,104146,1,2,0:0:0:0:
75,94,104214,1,0,0:0:0:0:
55,135,104282,1,8,0:0:0:0:
81,182,104350,1,0,0:0:0:0:
248,319,104418,6,0,L|319:304,1,44.0000013427735,2|0,0:0|0:0,0:0:0:0:
212,287,104555,2,0,L|204:218,1,44.0000013427735,10|0,0:0|0:0,0:0:0:0:
288,223,104691,2,0,L|354:214,1,44.0000013427735,2|0,0:0|0:0,0:0:0:0:
144,39,104828,5,10,0:0:0:0:
113,77,104896,1,0,0:0:0:0:
143,124,104964,1,0,0:0:0:0:
207,143,105032,1,0,0:0:0:0:
385,62,105100,1,10,0:0:0:0:
418,95,105168,1,0,0:0:0:0:
390,136,105237,1,0,0:0:0:0:
335,151,105305,1,0,0:0:0:0:
154,185,105373,5,10,0:0:0:0:
86,197,105441,1,0,0:0:0:0:
59,238,105510,1,0,0:0:0:0:
87,278,105578,1,0,0:0:0:0:
240,334,105646,2,0,L|299:321,1,44.0000013427735,14|0,0:0|0:0,0:0:0:0:
61,278,105782,1,14,0:0:0:0:
204,168,106055,1,14,0:0:0:0:
439,134,106328,1,14,0:0:0:0:
371,70,106601,1,8,0:0:0:0:
433,54,106669,1,8,0:0:0:0:
276,192,106737,1,12,0:0:0:0:
102,355,107010,5,10,0:0:0:0:
181,292,107146,1,2,0:0:0:0:
88,246,107282,1,10,0:0:0:0:
332,129,107419,2,0,L|281:135,1,44.0000013427735,2|0,0:0|0:0,0:0:0:0:
98,151,107555,1,10,0:0:0:0:
186,193,107691,1,2,0:0:0:0:
432,329,107828,5,10,0:0:0:0:
335,305,107964,2,2,L|274:289,1,44.0000013427735
432,107,108101,1,10,0:0:0:0:
195,83,108237,1,2,0:0:0:0:
282,136,108373,1,10,0:0:0:0:
198,189,108510,2,0,L|125:196,1,44.0000013427735,2|2,0:0|0:0,0:0:0:0:
396,273,108646,5,10,0:0:0:0:
310,244,108782,1,2,0:0:0:0:
402,222,108919,1,10,0:0:0:0:
194,306,109055,2,0,L|145:311,1,44.0000013427735,2|2,0:0|0:0,0:0:0:0:
285,252,109191,1,14,0:0:0:0:
204,195,109328,1,2,0:0:0:0:
460,52,109464,5,10,0:0:0:0:
367,79,109601,1,2,0:0:0:0:
312,78,109669,1,2,0:0:0:0:
132,99,109737,1,14,0:0:0:0:
366,167,109873,1,2,0:0:0:0:
273,209,110010,1,10,0:0:0:0:
371,325,110146,2,0,L|375:267,1,44.0000013427735,2|0,0:0|0:0,0:0:0:0:
196,279,110282,1,12,0:0:0:0:
115,224,110419,6,0,L|122:148,1,44.0000013427735,2|0,0:0|0:0,0:0:0:0:
325,157,110555,1,8,0:0:0:0:
408,318,110691,2,0,L|415:258,1,44.0000013427735,2|0,0:0|0:0,0:0:0:0:
212,289,110828,1,8,0:0:0:0:
292,205,110964,2,0,L|362:197,1,44.0000013427735,2|0,0:0|0:0,0:0:0:0:
115,201,111101,1,8,0:0:0:0:
50,119,111237,2,0,L|113:124,1,44.0000013427735,2|0,0:0|0:0,0:0:0:0:
295,332,111373,5,14,0:0:0:0:
365,309,111441,1,0,0:0:0:0:
392,269,111510,1,0,0:0:0:0:
362,222,111578,1,0,0:0:0:0:
299,186,111646,1,8,0:0:0:0:
234,163,111714,1,0,0:0:0:0:
295,129,111782,1,0,0:0:0:0:
354,98,111851,1,0,0:0:0:0:
415,75,111919,5,8,0:0:0:0:
354,98,111987,1,0,0:0:0:0:
295,129,112055,1,0,0:0:0:0:
234,163,112123,1,0,0:0:0:0:
175,189,112191,1,8,0:0:0:0:
234,163,112260,1,0,0:0:0:0:
415,189,112328,1,2,0:0:0:0:
472,170,112396,1,2,0:0:0:0:
234,344,112464,5,14,0:0:0:0:
175,331,112532,1,0,0:0:0:0:
137,302,112601,1,0,0:0:0:0:
119,263,112669,1,0,0:0:0:0:
136,230,112737,1,8,0:0:0:0:
185,209,112805,1,0,0:0:0:0:
241,198,112873,1,0,0:0:0:0:
301,188,112941,1,0,0:0:0:0:
132,24,113010,5,10,0:0:0:0:
105,53,113078,1,0,0:0:0:0:
97,98,113146,1,0,0:0:0:0:
112,141,113214,1,0,0:0:0:0:
139,179,113282,1,8,0:0:0:0:
192,203,113351,1,0,0:0:0:0:
251,218,113419,1,0,0:0:0:0:
312,231,113487,1,0,0:0:0:0:
70,336,113555,5,14,0:0:0:0:
165,313,113691,1,8,0:0:0:0:
262,291,113828,1,8,0:0:0:0:
159,284,113964,1,8,0:0:0:0:
427,39,114101,1,12,0:0:0:0:
326,62,114237,1,8,0:0:0:0:
106,53,114373,1,10,0:0:0:0:
204,72,114510,1,8,0:0:0:0:
408,140,114646,5,10,0:0:0:0:
458,214,114782,1,8,0:0:0:0:
454,248,114851,1,8,0:0:0:0:
439,282,114919,1,8,0:0:0:0:
406,310,114987,1,8,0:0:0:0:
353,321,115055,1,8,0:0:0:0:
297,324,115123,1,8,0:0:0:0:
237,322,115191,5,8,0:0:0:0:
297,324,115260,1,8,0:0:0:0:
353,321,115328,1,8,0:0:0:0:
297,324,115396,1,8,0:0:0:0:
139,313,115464,1,8,0:0:0:0:
66,282,115532,1,8,0:0:0:0:
131,252,115601,1,8,0:0:0:0:
206,234,115669,1,8,0:0:0:0:
400,220,115737,1,12,0:0:0:0:
