osu file format v14

[General]
AudioFilename: audio.mp3
AudioLeadIn: 0
PreviewTime: -1
Countdown: 1
SampleSet: None
StackLeniency: 0.7
Mode: 0
LetterboxInBreaks: 0
WidescreenStoryboard: 0

[Editor]
DistanceSpacing: 3.5
BeatDivisor: 4
GridSize: 8
TimelineZoom: 1

[Metadata]
Title:Black Mask
TitleUnicode:Black Mask
Artist:Soulji
ArtistUnicode:Soulji
Creator:KyofuSinon
Version:Insane
Source:
Tags:
BeatmapID:1831007
BeatmapSetID:876074

[Difficulty]
HPDrainRate:5
CircleSize:3.8
OverallDifficulty:6
ApproachRate:9.3
SliderMultiplier:3.59999990463257
SliderTickRate:2

[Events]
//Background and Video events
0,0,"Speedhunters-Subaru-NFS-Tribute-.jpg",0,0
//Break Periods
//Storyboard Layer 0 (Background)
//Storyboard Layer 1 (Fail)
//Storyboard Layer 2 (Pass)
//Storyboard Layer 3 (Foreground)
//Storyboard Sound Samples

[TimingPoints]
16564,500,4,1,0,100,1,0
43170,-100,4,1,0,80,0,0
77939,-83.3333333333333,4,1,0,80,0,0
78314,-71.4285714285714,4,1,0,80,0,0
80314,-500,4,1,0,80,0,0
80814,-55.5555555555556,4,1,0,80,0,0
96314,-500,4,1,0,80,0,0

[HitObjects]
256,192,44564,12,0,47814,0:0:0:0:
256,192,48064,6,0,L|298:219,1,29.9999992052714
256,192,48564,1,0,0:0:0:0:
256,192,49064,5,0,0:0:0:0:
256,192,49189,1,0,0:0:0:0:
256,192,49314,1,0,0:0:0:0:
151,280,49564,1,0,0:0:0:0:
373,90,49939,1,0,0:0:0:0:
151,280,50314,1,0,0:0:0:0:
255,191,53064,5,0,0:0:0:0:
271,216,53189,1,0,0:0:0:0:
255,191,53314,1,0,0:0:0:0:
360,345,53564,1,0,0:0:0:0:
140,41,53939,1,0,0:0:0:0:
360,345,54314,1,0,0:0:0:0:
275,178,57064,5,0,0:0:0:0:
239,209,57189,1,0,0:0:0:0:
275,178,57314,1,0,0:0:0:0:
115,343,57564,1,0,0:0:0:0:
400,47,57939,1,0,0:0:0:0:
115,343,58314,1,0,0:0:0:0:
215,192,61064,5,0,0:0:0:0:
283,190,61189,1,0,0:0:0:0:
215,192,61314,1,0,0:0:0:0:
477,184,61564,1,0,0:0:0:0:
33,191,61939,1,0,0:0:0:0:
479,195,62314,1,0,0:0:0:0:
252,191,65064,5,8,0:0:0:0:
252,191,65189,1,8,0:0:0:0:
252,191,65314,1,8,0:0:0:0:
242,303,65564,2,8,L|127:283,1,89.9999976158143
89,134,65939,2,8,L|178:151,1,89.9999976158143
382,225,66314,2,8,L|293:276,1,89.9999976158143
151,197,66689,6,8,L|235:141,1,89.9999976158143
480,260,67064,2,8,L|401:329,1,89.9999976158143
42,105,67439,2,8,L|138:34,1,89.9999976158143
470,329,67814,2,8,L|330:362,1,89.9999976158143
35,43,68189,2,8,L|151:26,1,89.9999976158143
253,181,69064,5,8,3:3:0:0:
253,181,69189,1,8,3:3:0:0:
253,181,69314,1,8,3:3:0:0:
262,69,69564,2,8,L|377:89,1,89.9999976158143,8|8,3:3|3:3,3:3:0:0:
416,238,69939,2,8,L|327:221,1,89.9999976158143,8|8,3:3|3:3,3:3:0:0:
123,147,70314,2,8,L|211:96,1,89.9999976158143,8|8,3:3|3:3,3:3:0:0:
354,175,70689,6,8,L|269:230,1,89.9999976158143,8|8,3:3|3:3,3:3:0:0:
25,111,71064,2,8,L|104:42,1,89.9999976158143,8|8,3:3|3:3,3:3:0:0:
463,267,71439,2,8,L|367:337,1,89.9999976158143,8|8,3:3|3:3,3:3:0:0:
35,43,71814,2,8,L|175:10,1,89.9999976158143,8|8,3:3|3:3,3:3:0:0:
470,329,72189,2,8,L|353:345,1,89.9999976158143,8|8,3:3|3:3,3:3:0:0:
252,193,73064,5,8,0:0:0:0:
252,193,73189,1,8,0:0:0:0:
252,193,73314,1,8,0:0:0:0:
242,81,73564,2,8,L|127:101,1,89.9999976158143
89,250,73939,2,8,L|178:233,1,89.9999976158143
382,159,74314,2,8,L|293:108,1,89.9999976158143
151,187,74689,6,8,L|235:243,1,89.9999976158143
480,124,75064,2,8,L|401:55,1,89.9999976158143
42,279,75439,2,8,L|138:350,1,89.9999976158143
470,55,75814,2,8,L|330:22,1,89.9999976158143
35,341,76189,2,8,L|151:358,1,89.9999976158143
223,221,77064,5,0,0:0:0:0:
235,212,77189,1,0,0:0:0:0:
252,200,77314,1,0,0:0:0:0:
350,136,77564,2,0,L|367:237,1,89.9999976158143
222,299,77939,6,0,L|142:217,1,107.999993843079
316,75,78314,2,0,L|406:206,1,125.999992816925
256,192,78814,12,0,80064,0:0:0:0:
298,233,80314,6,0,L|259:245,1,35.9999990463257
200,195,81064,1,0,0:0:0:0:
256,147,81189,1,0,0:0:0:0:
200,195,81314,1,0,0:0:0:0:
88,310,81564,2,0,L|307:96,1,242.999986146927
373,35,81939,2,0,L|139:251,1,242.999986146927
82,309,82314,2,0,L|310:87,1,242.999986146927
322,68,82564,5,0,0:0:0:0:
354,33,82689,1,0,0:0:0:0:
381,3,82814,1,0,0:0:0:0:
461,122,83064,1,0,0:0:0:0:
439,152,83189,1,0,0:0:0:0:
417,182,83314,1,0,0:0:0:0:
355,243,83564,6,0,L|284:93,1,161.999990764618
277,274,83939,2,0,L|160:132,1,161.999990764618
191,288,84314,2,0,L|34:232,1,161.999990764618
256,189,84564,5,0,0:0:0:0:
224,175,85064,1,0,0:0:0:0:
293,173,85189,1,0,0:0:0:0:
257,233,85314,1,0,0:0:0:0:
128,348,85564,2,0,L|47:203,1,161.999990764618
168,41,85939,2,0,L|331:38,1,161.999990764618
465,206,86314,2,0,L|374:342,1,161.999990764618
284,358,86564,5,0,0:0:0:0:
236,352,86689,1,0,0:0:0:0:
199,321,86814,1,0,0:0:0:0:
320,211,87064,1,0,0:0:0:0:
367,193,87189,1,0,0:0:0:0:
398,157,87314,1,0,0:0:0:0:
351,294,87564,6,0,P|272:301|174:267,1,161.999990764618
162,123,87939,2,0,B|237:116|275:100|299:9,1,161.999990764618
120,225,88314,2,0,P|54:114|66:23,1,161.999990764618
254,191,88564,1,0,0:0:0:0:
49,42,89064,6,0,L|265:42,1,161.999990764618
475,117,89439,2,0,L|308:117,1,161.999990764618
41,179,89814,2,0,L|226:179,1,161.999990764618
478,249,90189,2,0,L|292:248,1,161.999990764618
28,318,90564,2,0,L|192:318,1,161.999990764618
484,358,90939,2,0,L|307:355,1,161.999990764618
25,242,91314,6,0,P|115:258|227:298,1,161.999990764618
475,279,91689,2,0,B|404:276|285:335,1,161.999990764618
34,267,92064,2,0,P|137:305|169:362,1,161.999990764618
386,280,92314,2,0,L|301:95,1,161.999990764618
125,50,93064,2,0,P|59:47|111:128,1,161.999990764618
374,341,93439,2,0,P|467:264|362:245,1,161.999990764618
125,50,93814,6,0,P|34:77|62:177,1,161.999990764618
384,358,94189,2,0,P|471:312|464:210,1,161.999990764618
174,39,94564,2,0,P|82:79|20:162,1,161.999990764618
307,329,94939,2,0,P|396:318|475:277,1,161.999990764618
212,282,95314,2,0,P|111:253|53:210,1,161.999990764618
311,239,95689,2,0,P|410:177|458:91,1,161.999990764618
316,61,96064,6,0,B|308:70|308:70|282:56|282:56|277:92|277:92|236:106|236:106|235:73|235:73|209:85,1,161.999990764618
67,187,96314,1,0,0:0:0:0:
366,150,96564,1,0,0:0:0:0:
