osu file format v14

[General]
AudioFilename: Soulja Baka.mp3
AudioLeadIn: 0
PreviewTime: 71983
Countdown: 0
SampleSet: Normal
StackLeniency: 0.5
Mode: 3
LetterboxInBreaks: 0
SpecialStyle: 0
WidescreenStoryboard: 1

[Editor]
Bookmarks: 12661,32889,44546,64270,98384,106098,112013,124098,125470
DistanceSpacing: 0.6
BeatDivisor: 4
GridSize: 8
TimelineZoom: 1.8

[Metadata]
Title:Soulja Baka
TitleUnicode:Soulja Baka
Artist:Soulja Baka
ArtistUnicode:Soulja Baka
Creator:jackylam5
Version:SMITH RMX
Source:
Tags:HighTec Pittigbaasje A Mystery taku Kyshiro HikaruR n0ah Damnjelly Bara- Pheon mijkolsmith Soulja Boy Cirno
BeatmapID:776884
BeatmapSetID:239801

[Difficulty]
HPDrainRate:8
CircleSize:4
OverallDifficulty:8
ApproachRate:9.4
SliderMultiplier:2.1
SliderTickRate:1

[Events]
//Background and Video events
0,0,"BG.jpg",0,0
//Break Periods
//Storyboard Layer 0 (Background)
//Storyboard Layer 1 (Fail)
//Storyboard Layer 2 (Pass)
//Storyboard Layer 3 (Foreground)
//Storyboard Sound Samples

[TimingPoints]
661,342.857142857143,4,1,1,60,1,0
11632,-111.111111111111,4,1,1,60,0,0
17118,-100,4,1,1,60,0,0
22603,-100,4,1,1,60,0,1
44203,-100,4,1,1,60,0,0
61013,342.857142857143,4,1,1,60,1,0
66498,-133.333333333333,4,1,1,60,0,0
71984,-100,4,1,1,60,0,0
99413,-100,4,1,1,60,0,1
121013,-100,4,1,1,60,0,0

[Colours]
Combo1 : 168,133,211
Combo2 : 121,146,185
Combo3 : 106,173,255
Combo4 : 152,216,192

[HitObjects]
64,192,661,5,0,0:0:0:0:
320,192,661,1,0,0:0:0:0:
192,192,832,1,0,0:0:0:0:
448,192,832,1,0,0:0:0:0:
320,192,1003,1,0,0:0:0:0:
448,192,1003,1,0,0:0:0:0:
64,192,1003,1,0,0:0:0:0:
192,192,1175,1,0,0:0:0:0:
64,192,1175,1,0,0:0:0:0:
448,192,1175,1,0,0:0:0:0:
448,192,1518,1,0,0:0:0:0:
320,192,1518,128,0,1689:0:0:0:0:
64,192,1518,1,0,0:0:0:0:
192,192,1689,1,0,0:0:0:0:
448,192,1689,1,0,0:0:0:0:
64,192,1861,1,0,0:0:0:0:
320,192,1861,1,0,0:0:0:0:
448,192,2032,1,0,0:0:0:0:
192,192,2032,1,0,0:0:0:0:
320,192,2203,1,0,0:0:0:0:
64,192,2203,1,0,0:0:0:0:
192,192,2375,1,0,0:0:0:0:
64,192,2375,1,0,0:0:0:0:
448,192,2375,1,0,0:0:0:0:
320,192,2546,1,0,0:0:0:0:
448,192,2546,1,0,0:0:0:0:
64,192,2546,1,0,0:0:0:0:
64,192,2889,1,0,0:0:0:0:
192,192,2889,128,0,3061:0:0:0:0:
448,192,2889,1,0,0:0:0:0:
320,192,3061,1,0,0:0:0:0:
64,192,3061,1,0,0:0:0:0:
192,192,3232,1,0,0:0:0:0:
448,192,3232,1,0,0:0:0:0:
448,192,3403,1,0,0:0:0:0:
64,192,3403,1,0,0:0:0:0:
192,192,3403,1,0,0:0:0:0:
320,192,3575,1,0,0:0:0:0:
448,192,3575,1,0,0:0:0:0:
192,192,3661,1,0,0:0:0:0:
64,192,3661,1,0,0:0:0:0:
320,192,3746,1,0,0:0:0:0:
448,192,3746,1,0,0:0:0:0:
192,192,3918,1,0,0:0:0:0:
320,192,3918,1,0,0:0:0:0:
448,192,4089,1,0,0:0:0:0:
64,192,4089,1,0,0:0:0:0:
320,192,4089,1,0,0:0:0:0:
192,192,4261,1,0,0:0:0:0:
64,192,4261,1,0,0:0:0:0:
320,192,4346,1,0,0:0:0:0:
448,192,4346,1,0,0:0:0:0:
192,192,4432,1,0,0:0:0:0:
64,192,4432,1,0,0:0:0:0:
192,192,4603,1,0,0:0:0:0:
64,192,4603,1,0,0:0:0:0:
320,192,4775,1,0,0:0:0:0:
448,192,4775,1,0,0:0:0:0:
64,192,4775,1,0,0:0:0:0:
320,192,4946,1,0,0:0:0:0:
192,192,4946,1,0,0:0:0:0:
448,192,4946,1,0,0:0:0:0:
192,192,5118,1,0,0:0:0:0:
64,192,5118,1,0,0:0:0:0:
320,192,5118,1,0,0:0:0:0:
192,192,5289,1,0,0:0:0:0:
320,192,5289,1,0,0:0:0:0:
448,192,5289,1,0,0:0:0:0:
448,192,5632,1,0,0:0:0:0:
320,192,5632,1,0,0:0:0:0:
192,192,5632,1,0,0:0:0:0:
64,192,5718,1,0,0:0:0:0:
448,192,5803,1,0,0:0:0:0:
320,192,5803,1,0,0:0:0:0:
192,192,5803,1,0,0:0:0:0:
448,192,6146,1,0,0:0:0:0:
320,192,6146,1,0,0:0:0:0:
64,192,6318,1,0,0:0:0:0:
192,192,6318,1,0,0:0:0:0:
192,192,6489,1,0,0:0:0:0:
320,192,6489,1,0,0:0:0:0:
448,192,6489,1,0,0:0:0:0:
64,192,6661,1,0,0:0:0:0:
448,192,6661,1,0,0:0:0:0:
192,192,6661,1,0,0:0:0:0:
64,192,7003,1,0,0:0:0:0:
448,192,7003,128,0,7175:0:0:0:0:
192,192,7003,1,0,0:0:0:0:
320,192,7175,1,0,0:0:0:0:
64,192,7175,1,0,0:0:0:0:
192,192,7346,1,0,0:0:0:0:
448,192,7346,1,0,0:0:0:0:
448,192,7518,1,0,0:0:0:0:
64,192,7518,1,0,0:0:0:0:
64,192,7689,1,0,0:0:0:0:
192,192,7689,1,0,0:0:0:0:
192,192,7861,1,0,0:0:0:0:
320,192,7861,1,0,0:0:0:0:
448,192,7861,1,0,0:0:0:0:
64,192,8032,1,0,0:0:0:0:
448,192,8032,1,0,0:0:0:0:
192,192,8032,1,0,0:0:0:0:
64,192,8375,1,0,0:0:0:0:
448,192,8375,128,0,8546:0:0:0:0:
192,192,8461,1,0,0:0:0:0:
320,192,8546,1,0,0:0:0:0:
192,192,8632,1,0,0:0:0:0:
64,192,8632,1,0,0:0:0:0:
320,192,8718,1,0,0:0:0:0:
448,192,8718,1,0,0:0:0:0:
192,192,8803,1,0,0:0:0:0:
64,192,8803,1,0,0:0:0:0:
320,192,8889,1,0,0:0:0:0:
448,192,8889,1,0,0:0:0:0:
64,192,9061,1,0,0:0:0:0:
320,192,9061,1,0,0:0:0:0:
192,192,9146,1,0,0:0:0:0:
448,192,9146,1,0,0:0:0:0:
64,192,9232,1,0,0:0:0:0:
320,192,9232,1,0,0:0:0:0:
320,192,9403,1,0,0:0:0:0:
192,192,9403,1,0,0:0:0:0:
448,192,9403,1,0,0:0:0:0:
320,192,9575,1,0,0:0:0:0:
192,192,9575,1,0,0:0:0:0:
448,192,9575,1,0,0:0:0:0:
448,192,9746,1,0,0:0:0:0:
192,192,9746,1,0,0:0:0:0:
320,192,9832,1,0,0:0:0:0:
64,192,9832,1,0,0:0:0:0:
448,192,9918,1,0,0:0:0:0:
192,192,9918,1,0,0:0:0:0:
64,192,10089,1,0,0:0:0:0:
320,192,10089,1,0,0:0:0:0:
192,192,10261,1,0,0:0:0:0:
448,192,10261,1,0,0:0:0:0:
64,192,10261,1,0,0:0:0:0:
320,192,10432,1,0,0:0:0:0:
64,192,10432,1,0,0:0:0:0:
192,192,10432,1,0,0:0:0:0:
448,192,10603,1,0,0:0:0:0:
320,192,10603,1,0,0:0:0:0:
64,192,10603,1,0,0:0:0:0:
192,192,10775,1,0,0:0:0:0:
64,192,10775,1,0,0:0:0:0:
320,192,10775,1,0,0:0:0:0:
448,192,11118,1,0,0:0:0:0:
320,192,11289,1,0,0:0:0:0:
192,192,11461,1,0,0:0:0:0:
64,192,11632,1,0,0:0:0:0:
448,192,11632,1,0,0:0:0:0:
320,192,11632,1,0,0:0:0:0:
64,192,12146,1,0,0:0:0:0:
320,192,12318,1,0,0:0:0:0:
192,192,12489,1,0,0:0:0:0:
448,192,12661,1,0,0:0:0:0:
320,192,12832,1,0,0:0:0:0:
192,192,13003,1,0,0:0:0:0:
448,192,13175,128,0,13261:0:0:0:0:
320,192,13346,128,0,13432:0:0:0:0:
192,192,13518,128,0,13603:0:0:0:0:
64,192,13689,128,0,13775:0:0:0:0:
448,192,13861,1,0,0:0:0:0:
192,192,14032,1,0,0:0:0:0:
320,192,14203,1,0,0:0:0:0:
64,192,14375,1,0,0:0:0:0:
192,192,14889,1,0,0:0:0:0:
448,192,15061,1,0,0:0:0:0:
64,192,15232,1,0,0:0:0:0:
320,192,15403,1,0,0:0:0:0:
192,192,15575,1,0,0:0:0:0:
64,192,15746,1,0,0:0:0:0:
192,192,15918,128,0,16003:0:0:0:0:
320,192,16003,128,0,16089:0:0:0:0:
448,192,16089,128,0,16175:0:0:0:0:
64,192,16175,128,0,16261:0:0:0:0:
192,192,16261,128,0,16346:0:0:0:0:
448,192,16346,128,0,16432:0:0:0:0:
320,192,16432,128,0,16518:0:0:0:0:
64,192,16432,1,0,0:0:0:0:
192,192,16518,1,0,0:0:0:0:
64,192,16603,1,0,0:0:0:0:
192,192,16689,1,0,0:0:0:0:
448,192,16775,1,0,0:0:0:0:
320,192,16861,1,0,0:0:0:0:
448,192,16946,1,0,0:0:0:0:
320,192,17032,1,0,0:0:0:0:
64,192,17118,1,0,0:0:0:0:
192,192,17118,1,0,0:0:0:0:
448,192,17118,1,0,0:0:0:0:
448,192,17803,1,0,0:0:0:0:
320,192,17803,1,0,0:0:0:0:
64,192,17803,1,0,0:0:0:0:
192,192,17975,1,0,0:0:0:0:
448,192,18146,1,0,0:0:0:0:
320,192,18318,1,0,0:0:0:0:
64,192,18489,1,0,0:0:0:0:
192,192,18489,1,0,0:0:0:0:
448,192,18489,1,0,0:0:0:0:
320,192,18575,1,0,0:0:0:0:
192,192,18661,1,0,0:0:0:0:
64,192,18661,1,0,0:0:0:0:
448,192,18746,1,0,0:0:0:0:
320,192,18746,1,0,0:0:0:0:
192,192,18832,1,0,0:0:0:0:
64,192,18832,1,0,0:0:0:0:
448,192,18918,1,0,0:0:0:0:
320,192,18918,1,0,0:0:0:0:
192,192,19003,1,0,0:0:0:0:
64,192,19003,1,0,0:0:0:0:
448,192,19089,1,0,0:0:0:0:
320,192,19175,1,0,0:0:0:0:
64,192,19175,1,0,0:0:0:0:
448,192,19261,1,0,0:0:0:0:
320,192,19346,1,0,0:0:0:0:
192,192,19432,1,0,0:0:0:0:
64,192,19518,1,0,0:0:0:0:
192,192,19603,1,0,0:0:0:0:
320,192,19689,1,0,0:0:0:0:
448,192,19775,1,0,0:0:0:0:
320,192,19861,1,0,0:0:0:0:
448,192,20032,1,0,0:0:0:0:
192,192,20032,1,0,0:0:0:0:
320,192,20203,1,0,0:0:0:0:
64,192,20203,1,0,0:0:0:0:
192,192,20203,1,0,0:0:0:0:
448,192,20375,1,0,0:0:0:0:
64,192,20375,1,0,0:0:0:0:
192,192,20546,1,0,0:0:0:0:
320,192,20546,1,0,0:0:0:0:
64,192,20718,1,0,0:0:0:0:
448,192,20718,1,0,0:0:0:0:
192,192,20889,1,0,0:0:0:0:
320,192,20889,1,0,0:0:0:0:
448,192,20889,1,0,0:0:0:0:
64,192,21061,1,0,0:0:0:0:
320,192,21061,1,0,0:0:0:0:
448,192,21232,1,0,0:0:0:0:
192,192,21232,1,0,0:0:0:0:
320,192,21403,1,0,0:0:0:0:
64,192,21403,1,0,0:0:0:0:
320,192,21489,1,0,0:0:0:0:
64,192,21489,1,0,0:0:0:0:
320,192,21575,1,0,0:0:0:0:
64,192,21575,1,0,0:0:0:0:
192,192,21746,1,0,0:0:0:0:
448,192,21746,1,0,0:0:0:0:
192,192,21918,1,0,0:0:0:0:
448,192,21918,1,0,0:0:0:0:
64,192,22089,128,0,22603:0:0:0:0:
320,192,22603,1,0,0:0:0:0:
448,192,22603,1,0,0:0:0:0:
192,192,22603,1,0,0:0:0:0:
192,192,22775,1,0,0:0:0:0:
320,192,22775,1,0,0:0:0:0:
64,192,22946,1,0,0:0:0:0:
448,192,22946,1,0,0:0:0:0:
320,192,23118,128,0,23289:0:0:0:0:
64,192,23289,1,0,0:0:0:0:
192,192,23289,1,0,0:0:0:0:
448,192,23375,1,0,0:0:0:0:
192,192,23461,1,0,0:0:0:0:
64,192,23546,1,0,0:0:0:0:
448,192,23632,1,0,0:0:0:0:
192,192,23632,1,0,0:0:0:0:
320,192,23718,1,0,0:0:0:0:
192,192,23803,1,0,0:0:0:0:
64,192,23889,1,0,0:0:0:0:
192,192,23975,1,0,0:0:0:0:
448,192,23975,1,0,0:0:0:0:
320,192,24146,1,0,0:0:0:0:
64,192,24146,1,0,0:0:0:0:
448,192,24232,1,0,0:0:0:0:
64,192,24318,1,0,0:0:0:0:
320,192,24318,1,0,0:0:0:0:
448,192,24489,128,0,24661:0:0:0:0:
192,192,24661,1,0,0:0:0:0:
320,192,24661,1,0,0:0:0:0:
64,192,24746,1,0,0:0:0:0:
192,192,24832,1,0,0:0:0:0:
448,192,24832,1,0,0:0:0:0:
64,192,25003,1,0,0:0:0:0:
320,192,25003,1,0,0:0:0:0:
448,192,25175,1,0,0:0:0:0:
192,192,25175,1,0,0:0:0:0:
64,192,25346,1,0,0:0:0:0:
192,192,25346,1,0,0:0:0:0:
320,192,25518,1,0,0:0:0:0:
448,192,25518,1,0,0:0:0:0:
192,192,25603,1,0,0:0:0:0:
64,192,25689,1,0,0:0:0:0:
448,192,25689,1,0,0:0:0:0:
192,192,25861,128,0,26032:0:0:0:0:
448,192,26032,1,0,0:0:0:0:
64,192,26032,1,0,0:0:0:0:
320,192,26118,1,0,0:0:0:0:
64,192,26203,1,0,0:0:0:0:
448,192,26289,1,0,0:0:0:0:
64,192,26375,1,0,0:0:0:0:
320,192,26375,1,0,0:0:0:0:
192,192,26461,1,0,0:0:0:0:
448,192,26546,1,0,0:0:0:0:
320,192,26632,1,0,0:0:0:0:
64,192,26718,1,0,0:0:0:0:
192,192,26718,1,0,0:0:0:0:
64,192,26889,1,0,0:0:0:0:
320,192,26889,1,0,0:0:0:0:
448,192,26975,1,0,0:0:0:0:
320,192,27061,1,0,0:0:0:0:
64,192,27061,1,0,0:0:0:0:
448,192,27232,1,0,0:0:0:0:
192,192,27232,1,0,0:0:0:0:
320,192,27318,1,0,0:0:0:0:
64,192,27318,1,0,0:0:0:0:
64,192,27489,1,0,0:0:0:0:
320,192,27489,1,0,0:0:0:0:
192,192,27575,1,0,0:0:0:0:
448,192,27575,1,0,0:0:0:0:
64,192,27746,1,0,0:0:0:0:
448,192,27746,1,0,0:0:0:0:
192,192,27746,1,0,0:0:0:0:
448,192,27918,1,0,0:0:0:0:
64,192,27918,1,0,0:0:0:0:
320,192,27918,1,0,0:0:0:0:
320,192,28089,1,0,0:0:0:0:
192,192,28089,1,0,0:0:0:0:
64,192,28261,1,0,0:0:0:0:
448,192,28261,1,0,0:0:0:0:
192,192,28346,1,0,0:0:0:0:
448,192,28432,1,0,0:0:0:0:
320,192,28432,1,0,0:0:0:0:
192,192,28603,128,0,28775:0:0:0:0:
320,192,28775,1,0,0:0:0:0:
448,192,28775,1,0,0:0:0:0:
64,192,28861,1,0,0:0:0:0:
192,192,28946,1,0,0:0:0:0:
448,192,29032,1,0,0:0:0:0:
320,192,29118,1,0,0:0:0:0:
192,192,29118,1,0,0:0:0:0:
64,192,29203,1,0,0:0:0:0:
192,192,29289,1,0,0:0:0:0:
448,192,29375,1,0,0:0:0:0:
320,192,29461,1,0,0:0:0:0:
192,192,29461,1,0,0:0:0:0:
64,192,29632,1,0,0:0:0:0:
192,192,29632,1,0,0:0:0:0:
448,192,29718,1,0,0:0:0:0:
320,192,29803,1,0,0:0:0:0:
192,192,29803,1,0,0:0:0:0:
64,192,29975,128,0,30146:0:0:0:0:
192,192,30146,1,0,0:0:0:0:
320,192,30146,1,0,0:0:0:0:
448,192,30232,1,0,0:0:0:0:
320,192,30318,1,0,0:0:0:0:
192,192,30318,1,0,0:0:0:0:
64,192,30489,1,0,0:0:0:0:
192,192,30489,1,0,0:0:0:0:
320,192,30661,1,0,0:0:0:0:
192,192,30661,1,0,0:0:0:0:
448,192,30832,1,0,0:0:0:0:
64,192,30832,1,0,0:0:0:0:
192,192,31003,1,0,0:0:0:0:
448,192,31003,1,0,0:0:0:0:
64,192,31089,1,0,0:0:0:0:
320,192,31175,1,0,0:0:0:0:
448,192,31175,1,0,0:0:0:0:
64,192,31346,128,0,31518:0:0:0:0:
192,192,31518,1,0,0:0:0:0:
448,192,31518,1,0,0:0:0:0:
320,192,31603,1,0,0:0:0:0:
192,192,31689,1,0,0:0:0:0:
64,192,31775,1,0,0:0:0:0:
448,192,31861,1,0,0:0:0:0:
192,192,31861,1,0,0:0:0:0:
320,192,31946,1,0,0:0:0:0:
192,192,32032,1,0,0:0:0:0:
64,192,32118,1,0,0:0:0:0:
448,192,32203,1,0,0:0:0:0:
320,192,32203,1,0,0:0:0:0:
192,192,32289,1,0,0:0:0:0:
64,192,32289,1,0,0:0:0:0:
320,192,32375,1,0,0:0:0:0:
448,192,32375,1,0,0:0:0:0:
192,192,32461,1,0,0:0:0:0:
64,192,32461,1,0,0:0:0:0:
320,192,32546,1,0,0:0:0:0:
448,192,32546,1,0,0:0:0:0:
192,192,32632,1,0,0:0:0:0:
64,192,32632,1,0,0:0:0:0:
320,192,32718,1,0,0:0:0:0:
448,192,32718,1,0,0:0:0:0:
192,192,32803,1,0,0:0:0:0:
64,192,32803,1,0,0:0:0:0:
448,192,32889,1,0,0:0:0:0:
320,192,32889,1,0,0:0:0:0:
64,192,32889,1,0,0:0:0:0:
320,192,33061,1,0,0:0:0:0:
192,192,33061,1,0,0:0:0:0:
192,192,33232,1,0,0:0:0:0:
64,192,33232,1,0,0:0:0:0:
320,192,33403,1,0,0:0:0:0:
448,192,33403,1,0,0:0:0:0:
64,192,33403,1,0,0:0:0:0:
448,192,33575,1,0,0:0:0:0:
320,192,33575,1,0,0:0:0:0:
192,192,33575,1,0,0:0:0:0:
64,192,33746,1,0,0:0:0:0:
320,192,33746,1,0,0:0:0:0:
448,192,33918,1,0,0:0:0:0:
192,192,33918,1,0,0:0:0:0:
320,192,34089,128,0,34261:0:0:0:0:
64,192,34261,1,0,0:0:0:0:
448,192,34261,1,0,0:0:0:0:
192,192,34346,1,0,0:0:0:0:
320,192,34432,1,0,0:0:0:0:
448,192,34518,1,0,0:0:0:0:
320,192,34603,1,0,0:0:0:0:
192,192,34603,1,0,0:0:0:0:
64,192,34689,1,0,0:0:0:0:
192,192,34775,1,0,0:0:0:0:
320,192,34861,1,0,0:0:0:0:
448,192,34946,1,0,0:0:0:0:
64,192,34946,1,0,0:0:0:0:
320,192,35118,1,0,0:0:0:0:
64,192,35118,1,0,0:0:0:0:
192,192,35203,1,0,0:0:0:0:
64,192,35289,1,0,0:0:0:0:
448,192,35289,1,0,0:0:0:0:
320,192,35461,128,0,35632:0:0:0:0:
64,192,35632,1,0,0:0:0:0:
192,192,35632,1,0,0:0:0:0:
448,192,35718,1,0,0:0:0:0:
320,192,35803,1,0,0:0:0:0:
192,192,35803,1,0,0:0:0:0:
64,192,35975,1,0,0:0:0:0:
320,192,35975,1,0,0:0:0:0:
448,192,36146,1,0,0:0:0:0:
192,192,36146,1,0,0:0:0:0:
320,192,36318,1,0,0:0:0:0:
192,192,36318,1,0,0:0:0:0:
448,192,36489,1,0,0:0:0:0:
320,192,36489,1,0,0:0:0:0:
192,192,36575,1,0,0:0:0:0:
64,192,36661,1,0,0:0:0:0:
448,192,36661,1,0,0:0:0:0:
192,192,36832,128,0,37003:0:0:0:0:
64,192,37003,1,0,0:0:0:0:
448,192,37003,1,0,0:0:0:0:
320,192,37089,1,0,0:0:0:0:
448,192,37175,1,0,0:0:0:0:
320,192,37261,1,0,0:0:0:0:
448,192,37346,1,0,0:0:0:0:
64,192,37346,1,0,0:0:0:0:
192,192,37432,1,0,0:0:0:0:
64,192,37518,1,0,0:0:0:0:
192,192,37603,1,0,0:0:0:0:
448,192,37689,1,0,0:0:0:0:
64,192,37689,1,0,0:0:0:0:
64,192,37861,1,0,0:0:0:0:
192,192,37861,1,0,0:0:0:0:
320,192,37946,1,0,0:0:0:0:
448,192,38032,1,0,0:0:0:0:
192,192,38032,1,0,0:0:0:0:
448,192,38203,1,0,0:0:0:0:
320,192,38203,1,0,0:0:0:0:
64,192,38289,1,0,0:0:0:0:
192,192,38289,1,0,0:0:0:0:
64,192,38461,1,0,0:0:0:0:
192,192,38461,1,0,0:0:0:0:
448,192,38546,1,0,0:0:0:0:
320,192,38546,1,0,0:0:0:0:
192,192,38718,1,0,0:0:0:0:
448,192,38718,1,0,0:0:0:0:
64,192,38718,1,0,0:0:0:0:
320,192,38889,1,0,0:0:0:0:
448,192,38889,1,0,0:0:0:0:
64,192,38889,1,0,0:0:0:0:
320,192,39061,1,0,0:0:0:0:
192,192,39061,1,0,0:0:0:0:
64,192,39232,1,0,0:0:0:0:
448,192,39232,1,0,0:0:0:0:
320,192,39318,1,0,0:0:0:0:
192,192,39403,1,0,0:0:0:0:
64,192,39403,1,0,0:0:0:0:
448,192,39575,128,0,39746:0:0:0:0:
64,192,39746,1,0,0:0:0:0:
320,192,39746,1,0,0:0:0:0:
192,192,39832,1,0,0:0:0:0:
448,192,39918,1,0,0:0:0:0:
320,192,40003,1,0,0:0:0:0:
192,192,40089,1,0,0:0:0:0:
64,192,40089,1,0,0:0:0:0:
320,192,40175,1,0,0:0:0:0:
64,192,40261,1,0,0:0:0:0:
192,192,40346,1,0,0:0:0:0:
320,192,40432,1,0,0:0:0:0:
448,192,40432,1,0,0:0:0:0:
448,192,40603,1,0,0:0:0:0:
192,192,40603,1,0,0:0:0:0:
320,192,40689,1,0,0:0:0:0:
64,192,40775,1,0,0:0:0:0:
192,192,40775,1,0,0:0:0:0:
448,192,40946,128,0,41118:0:0:0:0:
192,192,41118,1,0,0:0:0:0:
320,192,41118,1,0,0:0:0:0:
64,192,41203,1,0,0:0:0:0:
448,192,41289,5,0,0:0:0:0:
192,192,41289,1,0,0:0:0:0:
320,192,41461,1,0,0:0:0:0:
448,192,41461,1,0,0:0:0:0:
192,192,41546,1,0,0:0:0:0:
320,192,41632,1,0,0:0:0:0:
64,192,41632,1,0,0:0:0:0:
192,192,41718,1,0,0:0:0:0:
320,192,41803,5,0,0:0:0:0:
448,192,41803,1,0,0:0:0:0:
64,192,41803,1,0,0:0:0:0:
64,192,41889,1,0,0:0:0:0:
320,192,41889,1,0,0:0:0:0:
448,192,41889,1,0,0:0:0:0:
320,192,42061,1,0,0:0:0:0:
192,192,42061,1,0,0:0:0:0:
448,192,42061,1,0,0:0:0:0:
448,192,42146,1,0,0:0:0:0:
320,192,42146,1,0,0:0:0:0:
192,192,42146,1,0,0:0:0:0:
64,192,42318,1,0,0:0:0:0:
320,192,42318,1,0,0:0:0:0:
192,192,42318,1,0,0:0:0:0:
320,192,42403,1,0,0:0:0:0:
192,192,42403,1,0,0:0:0:0:
64,192,42403,1,0,0:0:0:0:
448,192,42575,1,0,0:0:0:0:
64,192,42575,1,0,0:0:0:0:
192,192,42575,1,0,0:0:0:0:
64,192,42661,1,0,0:0:0:0:
192,192,42661,1,0,0:0:0:0:
448,192,42661,1,0,0:0:0:0:
64,192,42832,1,0,0:0:0:0:
320,192,42832,1,0,0:0:0:0:
192,192,42832,1,0,0:0:0:0:
192,192,43003,1,0,0:0:0:0:
448,192,43003,1,0,0:0:0:0:
320,192,43003,1,0,0:0:0:0:
320,192,43175,1,0,0:0:0:0:
192,192,43175,1,0,0:0:0:0:
64,192,43175,1,0,0:0:0:0:
192,192,43346,1,0,0:0:0:0:
320,192,43346,1,0,0:0:0:0:
64,192,43346,1,0,0:0:0:0:
320,192,43518,1,0,0:0:0:0:
192,192,43518,1,0,0:0:0:0:
64,192,43518,1,0,0:0:0:0:
448,192,43689,1,0,0:0:0:0:
192,192,43689,1,0,0:0:0:0:
320,192,43689,1,0,0:0:0:0:
64,192,43775,1,0,0:0:0:0:
320,192,43775,1,0,0:0:0:0:
192,192,43775,1,0,0:0:0:0:
64,192,44203,1,0,0:0:0:0:
192,192,44203,1,0,0:0:0:0:
448,192,44203,1,0,0:0:0:0:
320,192,44203,1,0,0:0:0:0:
64,192,44546,1,0,0:0:0:0:
192,192,44546,1,0,0:0:0:0:
320,192,44632,1,0,0:0:0:0:
448,192,44718,1,0,0:0:0:0:
320,192,44803,1,0,0:0:0:0:
192,192,44889,1,0,0:0:0:0:
64,192,44889,1,0,0:0:0:0:
320,192,44975,1,0,0:0:0:0:
448,192,45061,1,0,0:0:0:0:
320,192,45146,1,0,0:0:0:0:
192,192,45232,1,0,0:0:0:0:
448,192,45232,1,0,0:0:0:0:
320,192,45318,1,0,0:0:0:0:
448,192,45403,1,0,0:0:0:0:
320,192,45489,1,0,0:0:0:0:
192,192,45575,1,0,0:0:0:0:
64,192,45575,1,0,0:0:0:0:
320,192,45661,1,0,0:0:0:0:
448,192,45746,1,0,0:0:0:0:
320,192,45832,1,0,0:0:0:0:
192,192,45918,1,0,0:0:0:0:
448,192,45918,1,0,0:0:0:0:
64,192,46003,1,0,0:0:0:0:
192,192,46089,1,0,0:0:0:0:
320,192,46175,1,0,0:0:0:0:
192,192,46261,1,0,0:0:0:0:
448,192,46261,1,0,0:0:0:0:
64,192,46346,1,0,0:0:0:0:
192,192,46432,1,0,0:0:0:0:
320,192,46518,1,0,0:0:0:0:
192,192,46603,1,0,0:0:0:0:
448,192,46603,1,0,0:0:0:0:
64,192,46689,1,0,0:0:0:0:
192,192,46775,1,0,0:0:0:0:
320,192,46861,1,0,0:0:0:0:
192,192,46946,1,0,0:0:0:0:
448,192,46946,1,0,0:0:0:0:
64,192,47032,1,0,0:0:0:0:
192,192,47118,1,0,0:0:0:0:
320,192,47203,1,0,0:0:0:0:
192,192,47289,1,0,0:0:0:0:
448,192,47289,1,0,0:0:0:0:
320,192,47375,1,0,0:0:0:0:
448,192,47461,1,0,0:0:0:0:
192,192,47546,1,0,0:0:0:0:
320,192,47632,1,0,0:0:0:0:
448,192,47632,1,0,0:0:0:0:
192,192,47718,1,0,0:0:0:0:
320,192,47803,1,0,0:0:0:0:
64,192,47889,1,0,0:0:0:0:
448,192,47975,1,0,0:0:0:0:
192,192,47975,1,0,0:0:0:0:
320,192,48061,1,0,0:0:0:0:
192,192,48146,1,0,0:0:0:0:
448,192,48232,1,0,0:0:0:0:
320,192,48318,1,0,0:0:0:0:
64,192,48318,1,0,0:0:0:0:
192,192,48403,1,0,0:0:0:0:
64,192,48489,1,0,0:0:0:0:
320,192,48575,1,0,0:0:0:0:
448,192,48661,1,0,0:0:0:0:
64,192,48661,1,0,0:0:0:0:
320,192,48746,1,0,0:0:0:0:
192,192,48832,1,0,0:0:0:0:
64,192,48918,1,0,0:0:0:0:
448,192,49003,1,0,0:0:0:0:
192,192,49003,1,0,0:0:0:0:
320,192,49089,1,0,0:0:0:0:
192,192,49175,1,0,0:0:0:0:
64,192,49261,1,0,0:0:0:0:
448,192,49346,1,0,0:0:0:0:
192,192,49346,1,0,0:0:0:0:
320,192,49432,1,0,0:0:0:0:
192,192,49518,1,0,0:0:0:0:
64,192,49603,1,0,0:0:0:0:
448,192,49689,1,0,0:0:0:0:
192,192,49689,1,0,0:0:0:0:
320,192,49775,1,0,0:0:0:0:
192,192,49861,1,0,0:0:0:0:
64,192,49946,1,0,0:0:0:0:
192,192,50032,1,0,0:0:0:0:
448,192,50032,1,0,0:0:0:0:
320,192,50118,1,0,0:0:0:0:
192,192,50203,1,0,0:0:0:0:
320,192,50289,1,0,0:0:0:0:
64,192,50375,1,0,0:0:0:0:
192,192,50375,1,0,0:0:0:0:
448,192,50461,1,0,0:0:0:0:
64,192,50546,1,0,0:0:0:0:
448,192,50632,1,0,0:0:0:0:
192,192,50718,1,0,0:0:0:0:
64,192,50718,1,0,0:0:0:0:
320,192,50803,1,0,0:0:0:0:
192,192,50889,1,0,0:0:0:0:
320,192,50975,1,0,0:0:0:0:
64,192,51061,1,0,0:0:0:0:
192,192,51061,1,0,0:0:0:0:
448,192,51146,1,0,0:0:0:0:
64,192,51232,1,0,0:0:0:0:
448,192,51318,1,0,0:0:0:0:
320,192,51403,1,0,0:0:0:0:
192,192,51403,1,0,0:0:0:0:
64,192,51489,1,0,0:0:0:0:
320,192,51575,1,0,0:0:0:0:
64,192,51661,1,0,0:0:0:0:
448,192,51746,1,0,0:0:0:0:
320,192,51746,1,0,0:0:0:0:
192,192,51832,1,0,0:0:0:0:
448,192,51918,1,0,0:0:0:0:
192,192,52003,1,0,0:0:0:0:
320,192,52089,1,0,0:0:0:0:
448,192,52089,1,0,0:0:0:0:
64,192,52175,1,0,0:0:0:0:
320,192,52261,1,0,0:0:0:0:
64,192,52346,1,0,0:0:0:0:
448,192,52432,1,0,0:0:0:0:
320,192,52432,1,0,0:0:0:0:
192,192,52518,1,0,0:0:0:0:
448,192,52603,1,0,0:0:0:0:
192,192,52689,1,0,0:0:0:0:
64,192,52775,128,0,52946:0:0:0:0:
320,192,52775,128,0,52946:0:0:0:0:
448,192,52946,128,0,53118:0:0:0:0:
64,192,53118,128,0,53289:0:0:0:0:
192,192,53118,128,0,53289:0:0:0:0:
320,192,53289,128,0,53461:0:0:0:0:
448,192,53461,128,0,53632:0:0:0:0:
64,192,53461,128,0,53632:0:0:0:0:
192,192,53632,128,0,53803:0:0:0:0:
448,192,53803,128,0,53975:0:0:0:0:
320,192,53803,128,0,53975:0:0:0:0:
64,192,53975,128,0,54146:0:0:0:0:
192,192,54146,128,0,54661:0:0:0:0:
320,192,54146,128,0,54661:0:0:0:0:
64,192,54661,1,0,0:0:0:0:
448,192,54661,1,0,0:0:0:0:
64,192,54832,128,0,55003:0:0:0:0:
448,192,54832,128,0,55003:0:0:0:0:
320,192,54832,1,0,0:0:0:0:
192,192,54918,1,0,0:0:0:0:
320,192,55003,1,0,0:0:0:0:
192,192,55089,1,0,0:0:0:0:
64,192,55089,1,0,0:0:0:0:
320,192,55175,1,0,0:0:0:0:
448,192,55175,1,0,0:0:0:0:
192,192,55261,1,0,0:0:0:0:
64,192,55346,1,0,0:0:0:0:
320,192,55346,1,0,0:0:0:0:
448,192,55432,1,0,0:0:0:0:
320,192,55518,1,0,0:0:0:0:
192,192,55518,1,0,0:0:0:0:
64,192,55603,1,0,0:0:0:0:
192,192,55689,1,0,0:0:0:0:
448,192,55775,1,0,0:0:0:0:
320,192,55861,1,0,0:0:0:0:
192,192,55861,1,0,0:0:0:0:
64,192,55946,1,0,0:0:0:0:
192,192,56032,1,0,0:0:0:0:
448,192,56118,1,0,0:0:0:0:
320,192,56203,1,0,0:0:0:0:
192,192,56203,1,0,0:0:0:0:
64,192,56289,1,0,0:0:0:0:
192,192,56375,1,0,0:0:0:0:
448,192,56461,1,0,0:0:0:0:
320,192,56546,1,0,0:0:0:0:
192,192,56546,1,0,0:0:0:0:
64,192,56546,1,0,0:0:0:0:
448,192,56632,1,0,0:0:0:0:
320,192,56718,1,0,0:0:0:0:
192,192,56803,1,0,0:0:0:0:
320,192,56889,1,0,0:0:0:0:
64,192,56889,1,0,0:0:0:0:
192,192,56975,1,0,0:0:0:0:
64,192,57061,1,0,0:0:0:0:
320,192,57146,1,0,0:0:0:0:
448,192,57232,1,0,0:0:0:0:
64,192,57232,1,0,0:0:0:0:
192,192,57318,1,0,0:0:0:0:
64,192,57403,1,0,0:0:0:0:
320,192,57489,1,0,0:0:0:0:
448,192,57575,1,0,0:0:0:0:
64,192,57575,1,0,0:0:0:0:
192,192,57661,1,0,0:0:0:0:
64,192,57746,1,0,0:0:0:0:
448,192,57746,1,0,0:0:0:0:
320,192,57746,1,0,0:0:0:0:
192,192,57832,1,0,0:0:0:0:
448,192,57918,1,0,0:0:0:0:
64,192,57918,1,0,0:0:0:0:
320,192,57918,1,0,0:0:0:0:
192,192,58003,1,0,0:0:0:0:
64,192,58089,1,0,0:0:0:0:
320,192,58175,1,0,0:0:0:0:
448,192,58261,1,0,0:0:0:0:
192,192,58261,1,0,0:0:0:0:
64,192,58346,1,0,0:0:0:0:
192,192,58432,1,0,0:0:0:0:
320,192,58518,1,0,0:0:0:0:
448,192,58603,1,0,0:0:0:0:
64,192,58603,1,0,0:0:0:0:
320,192,58689,1,0,0:0:0:0:
192,192,58775,1,0,0:0:0:0:
64,192,58861,1,0,0:0:0:0:
192,192,58946,1,0,0:0:0:0:
448,192,58946,1,0,0:0:0:0:
320,192,59032,1,0,0:0:0:0:
448,192,59118,1,0,0:0:0:0:
320,192,59203,1,0,0:0:0:0:
192,192,59289,1,0,0:0:0:0:
448,192,59289,1,0,0:0:0:0:
64,192,59375,1,0,0:0:0:0:
192,192,59461,1,0,0:0:0:0:
320,192,59546,1,0,0:0:0:0:
448,192,59632,1,0,0:0:0:0:
192,192,59632,1,0,0:0:0:0:
64,192,59718,1,0,0:0:0:0:
320,192,59803,1,0,0:0:0:0:
192,192,59889,1,0,0:0:0:0:
448,192,59975,1,0,0:0:0:0:
320,192,59975,1,0,0:0:0:0:
64,192,60061,1,0,0:0:0:0:
320,192,60146,1,0,0:0:0:0:
192,192,60232,1,0,0:0:0:0:
448,192,60318,1,0,0:0:0:0:
320,192,60318,1,0,0:0:0:0:
64,192,60403,1,0,0:0:0:0:
320,192,60489,1,0,0:0:0:0:
448,192,60489,1,0,0:0:0:0:
192,192,60489,1,0,0:0:0:0:
64,192,60575,1,0,0:0:0:0:
448,192,60661,1,0,0:0:0:0:
320,192,60661,1,0,0:0:0:0:
192,192,60661,1,0,0:0:0:0:
64,192,60746,1,0,0:0:0:0:
320,192,60832,1,0,0:0:0:0:
192,192,60918,1,0,0:0:0:0:
64,192,61013,128,0,61098:0:0:0:0:
320,192,61013,1,0,0:0:0:0:
448,192,61013,1,0,0:0:0:0:
448,192,61098,128,0,61184:0:0:0:0:
320,192,61184,128,0,61270:0:0:0:0:
192,192,61270,128,0,61355:0:0:0:0:
448,192,61355,128,0,61441:0:0:0:0:
64,192,61441,128,0,61527:0:0:0:0:
192,192,61527,128,0,61613:0:0:0:0:
320,192,61613,128,0,61698:0:0:0:0:
192,192,61698,128,0,61784:0:0:0:0:
448,192,61698,1,0,0:0:0:0:
64,192,61698,1,0,0:0:0:0:
320,192,61784,128,0,61870:0:0:0:0:
192,192,61870,128,0,61955:0:0:0:0:
448,192,61955,128,0,62041:0:0:0:0:
64,192,62041,128,0,62127:0:0:0:0:
320,192,62127,128,0,62213:0:0:0:0:
448,192,62213,128,0,62298:0:0:0:0:
192,192,62298,128,0,62384:0:0:0:0:
64,192,62384,128,0,62470:0:0:0:0:
320,192,62384,1,0,0:0:0:0:
448,192,62384,1,0,0:0:0:0:
192,192,62470,128,0,62555:0:0:0:0:
64,192,62555,128,0,62641:0:0:0:0:
320,192,62641,128,0,62727:0:0:0:0:
448,192,62727,128,0,62813:0:0:0:0:
192,192,62727,1,0,0:0:0:0:
64,192,62727,1,0,0:0:0:0:
320,192,62813,128,0,62898:0:0:0:0:
448,192,62898,128,0,62984:0:0:0:0:
192,192,62984,128,0,63070:0:0:0:0:
64,192,63070,1,0,0:0:0:0:
320,192,63070,1,0,0:0:0:0:
448,192,63070,128,0,63155:0:0:0:0:
320,192,63155,128,0,63241:0:0:0:0:
192,192,63241,128,0,63327:0:0:0:0:
64,192,63413,128,0,63584:0:0:0:0:
64,192,63755,1,0,0:0:0:0:
448,192,63755,1,0,0:0:0:0:
192,192,63755,1,0,0:0:0:0:
320,192,63927,1,0,0:0:0:0:
192,192,64013,1,0,0:0:0:0:
64,192,64098,1,0,0:0:0:0:
192,192,64184,1,0,0:0:0:0:
320,192,64270,1,0,0:0:0:0:
448,192,64355,1,0,0:0:0:0:
320,192,64441,1,0,0:0:0:0:
64,192,64441,1,0,0:0:0:0:
192,192,64441,1,0,0:0:0:0:
448,192,64613,1,0,0:0:0:0:
320,192,64698,1,0,0:0:0:0:
192,192,64784,1,0,0:0:0:0:
64,192,64870,1,0,0:0:0:0:
192,192,64955,1,0,0:0:0:0:
320,192,65041,1,0,0:0:0:0:
448,192,65127,1,0,0:0:0:0:
192,192,65127,1,0,0:0:0:0:
64,192,65127,128,0,65213:0:0:0:0:
192,192,65213,128,0,65298:0:0:0:0:
320,192,65298,128,0,65384:0:0:0:0:
448,192,65384,128,0,65470:0:0:0:0:
64,192,65470,128,0,65555:0:0:0:0:
320,192,65470,1,0,0:0:0:0:
192,192,65470,1,0,0:0:0:0:
192,192,65555,128,0,65641:0:0:0:0:
320,192,65641,128,0,65727:0:0:0:0:
448,192,65727,128,0,65813:0:0:0:0:
64,192,65813,128,0,65898:0:0:0:0:
192,192,65813,1,0,0:0:0:0:
320,192,65813,1,0,0:0:0:0:
192,192,65898,128,0,65984:0:0:0:0:
320,192,65984,128,0,66070:0:0:0:0:
448,192,66070,128,0,66155:0:0:0:0:
64,192,66155,128,0,66241:0:0:0:0:
192,192,66155,1,0,0:0:0:0:
320,192,66155,1,0,0:0:0:0:
192,192,66241,128,0,66327:0:0:0:0:
320,192,66327,128,0,66413:0:0:0:0:
448,192,66413,128,0,66498:0:0:0:0:
64,192,66498,1,0,0:0:0:0:
320,192,66498,1,0,0:0:0:0:
192,192,66670,1,0,0:0:0:0:
192,192,67827,1,0,0:0:0:0:
320,192,67870,1,0,0:0:0:0:
448,192,67870,1,0,0:0:0:0:
320,192,69198,1,0,0:0:0:0:
192,192,69241,1,0,0:0:0:0:
64,192,69241,1,0,0:0:0:0:
192,192,70570,1,0,0:0:0:0:
448,192,70613,1,0,0:0:0:0:
64,192,70613,1,0,0:0:0:0:
448,192,71984,1,0,0:0:0:0:
64,192,71984,1,0,0:0:0:0:
192,192,71984,1,0,0:0:0:0:
192,192,72155,128,0,72327:0:0:0:0:
320,192,72155,1,0,0:0:0:0:
64,192,72155,1,0,0:0:0:0:
192,192,72498,128,0,72670:0:0:0:0:
448,192,72498,1,0,0:0:0:0:
320,192,72498,1,0,0:0:0:0:
192,192,72841,128,0,73013:0:0:0:0:
64,192,72841,1,0,0:0:0:0:
448,192,72841,1,0,0:0:0:0:
192,192,73184,128,0,73355:0:0:0:0:
64,192,73184,1,0,0:0:0:0:
320,192,73184,1,0,0:0:0:0:
64,192,73355,1,0,0:0:0:0:
448,192,73355,1,0,0:0:0:0:
192,192,73441,1,0,0:0:0:0:
320,192,73527,128,0,73698:0:0:0:0:
448,192,73527,1,0,0:0:0:0:
192,192,73613,1,0,0:0:0:0:
64,192,73698,1,0,0:0:0:0:
192,192,73784,1,0,0:0:0:0:
320,192,73870,128,0,74041:0:0:0:0:
448,192,73870,1,0,0:0:0:0:
192,192,73955,1,0,0:0:0:0:
64,192,74041,1,0,0:0:0:0:
192,192,74127,1,0,0:0:0:0:
320,192,74213,128,0,74384:0:0:0:0:
64,192,74213,1,0,0:0:0:0:
448,192,74298,1,0,0:0:0:0:
192,192,74384,1,0,0:0:0:0:
64,192,74470,1,0,0:0:0:0:
320,192,74555,128,0,74727:0:0:0:0:
192,192,74555,1,0,0:0:0:0:
448,192,74641,1,0,0:0:0:0:
192,192,74727,1,0,0:0:0:0:
64,192,74727,1,0,0:0:0:0:
320,192,74813,1,0,0:0:0:0:
448,192,74813,1,0,0:0:0:0:
192,192,74898,1,0,0:0:0:0:
64,192,74898,1,0,0:0:0:0:
320,192,74984,1,0,0:0:0:0:
192,192,75070,1,0,0:0:0:0:
64,192,75070,1,0,0:0:0:0:
448,192,75070,1,0,0:0:0:0:
448,192,75413,1,0,0:0:0:0:
320,192,75455,1,0,0:0:0:0:
192,192,75498,1,0,0:0:0:0:
64,192,75541,1,0,0:0:0:0:
448,192,75584,1,0,0:0:0:0:
320,192,75627,1,0,0:0:0:0:
192,192,75670,1,0,0:0:0:0:
64,192,75713,1,0,0:0:0:0:
192,192,75755,1,0,0:0:0:0:
320,192,75755,1,0,0:0:0:0:
448,192,75755,1,0,0:0:0:0:
64,192,76098,1,0,0:0:0:0:
192,192,76098,1,0,0:0:0:0:
320,192,76184,1,0,0:0:0:0:
448,192,76184,1,0,0:0:0:0:
192,192,76270,1,0,0:0:0:0:
64,192,76270,1,0,0:0:0:0:
320,192,76355,1,0,0:0:0:0:
448,192,76355,1,0,0:0:0:0:
192,192,76441,1,0,0:0:0:0:
64,192,76441,1,0,0:0:0:0:
448,192,76527,1,0,0:0:0:0:
320,192,76527,1,0,0:0:0:0:
192,192,76613,1,0,0:0:0:0:
64,192,76613,1,0,0:0:0:0:
320,192,76698,1,0,0:0:0:0:
448,192,76698,1,0,0:0:0:0:
192,192,76784,1,0,0:0:0:0:
64,192,76784,1,0,0:0:0:0:
448,192,76955,1,0,0:0:0:0:
320,192,77127,1,0,0:0:0:0:
192,192,77298,1,0,0:0:0:0:
64,192,77470,1,0,0:0:0:0:
320,192,77470,1,0,0:0:0:0:
448,192,77470,1,0,0:0:0:0:
192,192,77641,1,0,0:0:0:0:
64,192,77813,1,0,0:0:0:0:
448,192,77813,1,0,0:0:0:0:
320,192,77984,1,0,0:0:0:0:
192,192,77984,1,0,0:0:0:0:
192,192,78155,1,0,0:0:0:0:
64,192,78155,1,0,0:0:0:0:
192,192,78327,1,0,0:0:0:0:
320,192,78327,1,0,0:0:0:0:
320,192,78498,1,0,0:0:0:0:
448,192,78498,1,0,0:0:0:0:
192,192,78670,1,0,0:0:0:0:
320,192,78670,1,0,0:0:0:0:
64,192,78841,1,0,0:0:0:0:
192,192,78841,1,0,0:0:0:0:
448,192,79013,1,0,0:0:0:0:
320,192,79013,1,0,0:0:0:0:
320,192,79184,1,0,0:0:0:0:
192,192,79184,1,0,0:0:0:0:
192,192,79355,1,0,0:0:0:0:
64,192,79355,1,0,0:0:0:0:
64,192,79527,1,0,0:0:0:0:
448,192,79527,1,0,0:0:0:0:
320,192,79698,1,0,0:0:0:0:
192,192,79698,1,0,0:0:0:0:
192,192,79870,1,0,0:0:0:0:
64,192,79870,1,0,0:0:0:0:
192,192,80041,1,0,0:0:0:0:
320,192,80041,1,0,0:0:0:0:
320,192,80213,1,0,0:0:0:0:
448,192,80213,1,0,0:0:0:0:
192,192,80384,1,0,0:0:0:0:
64,192,80555,1,0,0:0:0:0:
448,192,80555,1,0,0:0:0:0:
192,192,80727,1,0,0:0:0:0:
448,192,80727,1,0,0:0:0:0:
192,192,80898,1,0,0:0:0:0:
64,192,80898,1,0,0:0:0:0:
64,192,81070,1,0,0:0:0:0:
320,192,81070,1,0,0:0:0:0:
320,192,81241,1,0,0:0:0:0:
448,192,81241,1,0,0:0:0:0:
64,192,81413,1,0,0:0:0:0:
448,192,81413,1,0,0:0:0:0:
192,192,81584,1,0,0:0:0:0:
320,192,81584,1,0,0:0:0:0:
64,192,81755,1,0,0:0:0:0:
320,192,81755,1,0,0:0:0:0:
192,192,81841,1,0,0:0:0:0:
448,192,81841,1,0,0:0:0:0:
320,192,81927,1,0,0:0:0:0:
64,192,81927,1,0,0:0:0:0:
448,192,82013,1,0,0:0:0:0:
192,192,82013,1,0,0:0:0:0:
320,192,82098,1,0,0:0:0:0:
64,192,82098,1,0,0:0:0:0:
192,192,82184,1,0,0:0:0:0:
448,192,82184,1,0,0:0:0:0:
320,192,82270,1,0,0:0:0:0:
64,192,82270,1,0,0:0:0:0:
64,192,82613,128,0,82698:0:0:0:0:
320,192,82613,128,0,82698:0:0:0:0:
448,192,82613,128,0,82698:0:0:0:0:
192,192,82955,1,0,0:0:0:0:
448,192,82955,1,0,0:0:0:0:
320,192,82955,1,0,0:0:0:0:
64,192,83298,1,0,0:0:0:0:
320,192,83298,1,0,0:0:0:0:
448,192,83298,1,0,0:0:0:0:
320,192,83470,1,0,0:0:0:0:
192,192,83470,1,0,0:0:0:0:
64,192,83813,1,0,0:0:0:0:
192,192,83813,1,0,0:0:0:0:
192,192,83984,1,0,0:0:0:0:
320,192,83984,1,0,0:0:0:0:
448,192,83984,1,0,0:0:0:0:
192,192,84155,1,0,0:0:0:0:
320,192,84155,1,0,0:0:0:0:
64,192,84498,1,0,0:0:0:0:
448,192,84498,1,0,0:0:0:0:
320,192,84670,1,0,0:0:0:0:
192,192,84670,1,0,0:0:0:0:
192,192,84841,1,0,0:0:0:0:
320,192,84841,1,0,0:0:0:0:
320,192,85013,1,0,0:0:0:0:
192,192,85013,1,0,0:0:0:0:
64,192,85184,1,0,0:0:0:0:
448,192,85184,1,0,0:0:0:0:
320,192,85270,1,0,0:0:0:0:
192,192,85270,1,0,0:0:0:0:
64,192,85355,1,0,0:0:0:0:
192,192,85441,1,0,0:0:0:0:
320,192,85527,1,0,0:0:0:0:
448,192,85527,1,0,0:0:0:0:
192,192,85613,1,0,0:0:0:0:
64,192,85698,1,0,0:0:0:0:
320,192,85698,1,0,0:0:0:0:
192,192,85870,1,0,0:0:0:0:
448,192,85870,1,0,0:0:0:0:
64,192,86041,1,0,0:0:0:0:
448,192,86041,1,0,0:0:0:0:
320,192,86213,1,0,0:0:0:0:
448,192,86213,1,0,0:0:0:0:
320,192,86384,1,0,0:0:0:0:
192,192,86384,1,0,0:0:0:0:
192,192,86555,1,0,0:0:0:0:
64,192,86555,1,0,0:0:0:0:
192,192,86727,1,0,0:0:0:0:
320,192,86727,1,0,0:0:0:0:
64,192,86898,1,0,0:0:0:0:
448,192,86898,1,0,0:0:0:0:
64,192,87070,1,0,0:0:0:0:
448,192,87070,1,0,0:0:0:0:
192,192,87413,1,0,0:0:0:0:
320,192,87413,1,0,0:0:0:0:
320,192,87755,1,0,0:0:0:0:
448,192,87755,1,0,0:0:0:0:
192,192,87841,1,0,0:0:0:0:
64,192,87927,1,0,0:0:0:0:
320,192,87927,1,0,0:0:0:0:
192,192,88013,1,0,0:0:0:0:
448,192,88098,1,0,0:0:0:0:
64,192,88098,1,0,0:0:0:0:
320,192,88184,1,0,0:0:0:0:
192,192,88270,1,0,0:0:0:0:
448,192,88270,1,0,0:0:0:0:
320,192,88355,1,0,0:0:0:0:
192,192,88441,1,0,0:0:0:0:
64,192,88441,1,0,0:0:0:0:
320,192,88613,1,0,0:0:0:0:
448,192,88784,1,0,0:0:0:0:
64,192,88784,1,0,0:0:0:0:
192,192,88955,1,0,0:0:0:0:
320,192,88955,1,0,0:0:0:0:
320,192,89127,1,0,0:0:0:0:
64,192,89127,1,0,0:0:0:0:
448,192,89298,1,0,0:0:0:0:
64,192,89298,1,0,0:0:0:0:
192,192,89470,1,0,0:0:0:0:
448,192,89470,1,0,0:0:0:0:
320,192,89641,1,0,0:0:0:0:
448,192,89641,1,0,0:0:0:0:
192,192,89813,1,0,0:0:0:0:
320,192,89813,1,0,0:0:0:0:
64,192,89984,1,0,0:0:0:0:
448,192,89984,1,0,0:0:0:0:
448,192,90155,1,0,0:0:0:0:
192,192,90155,1,0,0:0:0:0:
64,192,90327,1,0,0:0:0:0:
448,192,90327,1,0,0:0:0:0:
320,192,90498,1,0,0:0:0:0:
64,192,90498,1,0,0:0:0:0:
192,192,90670,1,0,0:0:0:0:
448,192,90670,1,0,0:0:0:0:
192,192,90841,1,0,0:0:0:0:
64,192,90841,1,0,0:0:0:0:
64,192,91013,1,0,0:0:0:0:
320,192,91013,1,0,0:0:0:0:
320,192,91184,1,0,0:0:0:0:
448,192,91184,1,0,0:0:0:0:
192,192,91355,1,0,0:0:0:0:
448,192,91527,1,0,0:0:0:0:
320,192,91527,1,0,0:0:0:0:
192,192,91698,1,0,0:0:0:0:
64,192,91698,1,0,0:0:0:0:
192,192,91870,1,0,0:0:0:0:
320,192,91870,1,0,0:0:0:0:
320,192,92041,1,0,0:0:0:0:
448,192,92041,1,0,0:0:0:0:
64,192,92213,1,0,0:0:0:0:
320,192,92213,1,0,0:0:0:0:
192,192,92384,1,0,0:0:0:0:
64,192,92384,1,0,0:0:0:0:
192,192,92555,1,0,0:0:0:0:
320,192,92555,1,0,0:0:0:0:
448,192,92727,1,0,0:0:0:0:
192,192,92727,1,0,0:0:0:0:
320,192,92813,1,0,0:0:0:0:
64,192,92813,1,0,0:0:0:0:
192,192,92898,1,0,0:0:0:0:
320,192,92984,1,0,0:0:0:0:
448,192,93070,1,0,0:0:0:0:
64,192,93070,1,0,0:0:0:0:
192,192,93155,1,0,0:0:0:0:
320,192,93241,1,0,0:0:0:0:
448,192,93241,1,0,0:0:0:0:
64,192,93584,128,0,93670:0:0:0:0:
192,192,93584,128,0,93670:0:0:0:0:
448,192,93584,128,0,93670:0:0:0:0:
64,192,93927,1,0,0:0:0:0:
448,192,93927,1,0,0:0:0:0:
320,192,93927,1,0,0:0:0:0:
64,192,94270,1,0,0:0:0:0:
448,192,94270,1,0,0:0:0:0:
192,192,94270,1,0,0:0:0:0:
320,192,94441,1,0,0:0:0:0:
448,192,94441,1,0,0:0:0:0:
64,192,94784,1,0,0:0:0:0:
320,192,94784,1,0,0:0:0:0:
192,192,94955,1,0,0:0:0:0:
320,192,94955,1,0,0:0:0:0:
64,192,94955,1,0,0:0:0:0:
448,192,95127,1,0,0:0:0:0:
192,192,95127,1,0,0:0:0:0:
320,192,95298,1,0,0:0:0:0:
64,192,95298,1,0,0:0:0:0:
64,192,95470,1,0,0:0:0:0:
192,192,95470,1,0,0:0:0:0:
320,192,95555,1,0,0:0:0:0:
448,192,95555,1,0,0:0:0:0:
192,192,95641,1,0,0:0:0:0:
64,192,95641,1,0,0:0:0:0:
320,192,95727,1,0,0:0:0:0:
448,192,95727,1,0,0:0:0:0:
192,192,95813,1,0,0:0:0:0:
64,192,95813,1,0,0:0:0:0:
320,192,95898,1,0,0:0:0:0:
448,192,95898,1,0,0:0:0:0:
192,192,95984,1,0,0:0:0:0:
64,192,95984,1,0,0:0:0:0:
320,192,96155,1,0,0:0:0:0:
448,192,96155,1,0,0:0:0:0:
192,192,96241,1,0,0:0:0:0:
64,192,96327,1,0,0:0:0:0:
320,192,96327,1,0,0:0:0:0:
448,192,96413,1,0,0:0:0:0:
320,192,96498,1,0,0:0:0:0:
192,192,96498,1,0,0:0:0:0:
64,192,96584,1,0,0:0:0:0:
192,192,96670,1,0,0:0:0:0:
448,192,96670,1,0,0:0:0:0:
192,192,96841,1,0,0:0:0:0:
64,192,96841,1,0,0:0:0:0:
192,192,97013,128,0,97355:0:0:0:0:
448,192,97013,128,0,97355:0:0:0:0:
320,192,97355,1,0,0:0:0:0:
64,192,97355,1,0,0:0:0:0:
320,192,97527,1,0,0:0:0:0:
192,192,97527,1,0,0:0:0:0:
64,192,97698,128,0,98041:0:0:0:0:
448,192,97698,128,0,98041:0:0:0:0:
448,192,98555,128,0,99070:0:0:0:0:
192,192,99070,128,0,99241:0:0:0:0:
320,192,99070,128,0,99241:0:0:0:0:
64,192,99413,1,0,0:0:0:0:
192,192,99413,1,0,0:0:0:0:
448,192,99413,1,0,0:0:0:0:
320,192,99584,1,0,0:0:0:0:
192,192,99584,1,0,0:0:0:0:
448,192,99755,1,0,0:0:0:0:
64,192,99755,1,0,0:0:0:0:
192,192,99927,128,0,100098:0:0:0:0:
320,192,100098,1,0,0:0:0:0:
448,192,100098,1,0,0:0:0:0:
192,192,100184,1,0,0:0:0:0:
64,192,100270,1,0,0:0:0:0:
448,192,100355,1,0,0:0:0:0:
320,192,100441,1,0,0:0:0:0:
64,192,100441,1,0,0:0:0:0:
192,192,100527,1,0,0:0:0:0:
320,192,100613,1,0,0:0:0:0:
448,192,100698,1,0,0:0:0:0:
64,192,100784,1,0,0:0:0:0:
320,192,100784,1,0,0:0:0:0:
192,192,100955,1,0,0:0:0:0:
448,192,100955,1,0,0:0:0:0:
320,192,101041,1,0,0:0:0:0:
192,192,101127,1,0,0:0:0:0:
64,192,101127,1,0,0:0:0:0:
448,192,101298,128,0,101470:0:0:0:0:
64,192,101470,1,0,0:0:0:0:
192,192,101470,1,0,0:0:0:0:
320,192,101555,1,0,0:0:0:0:
192,192,101641,1,0,0:0:0:0:
448,192,101641,1,0,0:0:0:0:
64,192,101813,1,0,0:0:0:0:
320,192,101813,1,0,0:0:0:0:
64,192,101984,1,0,0:0:0:0:
192,192,101984,1,0,0:0:0:0:
320,192,102155,1,0,0:0:0:0:
448,192,102155,1,0,0:0:0:0:
64,192,102327,1,0,0:0:0:0:
320,192,102327,1,0,0:0:0:0:
448,192,102413,1,0,0:0:0:0:
64,192,102498,1,0,0:0:0:0:
192,192,102498,1,0,0:0:0:0:
320,192,102670,128,0,102841:0:0:0:0:
64,192,102841,1,0,0:0:0:0:
448,192,102841,1,0,0:0:0:0:
192,192,102927,1,0,0:0:0:0:
320,192,103013,1,0,0:0:0:0:
64,192,103098,1,0,0:0:0:0:
448,192,103184,1,0,0:0:0:0:
192,192,103184,1,0,0:0:0:0:
320,192,103270,1,0,0:0:0:0:
192,192,103355,1,0,0:0:0:0:
64,192,103441,1,0,0:0:0:0:
192,192,103527,1,0,0:0:0:0:
448,192,103527,1,0,0:0:0:0:
320,192,103698,1,0,0:0:0:0:
64,192,103698,1,0,0:0:0:0:
192,192,103784,1,0,0:0:0:0:
320,192,103870,1,0,0:0:0:0:
448,192,103870,1,0,0:0:0:0:
64,192,104041,1,0,0:0:0:0:
448,192,104041,1,0,0:0:0:0:
320,192,104127,1,0,0:0:0:0:
192,192,104127,1,0,0:0:0:0:
192,192,104298,1,0,0:0:0:0:
320,192,104298,1,0,0:0:0:0:
64,192,104384,1,0,0:0:0:0:
448,192,104384,1,0,0:0:0:0:
320,192,104555,1,0,0:0:0:0:
64,192,104555,1,0,0:0:0:0:
192,192,104555,1,0,0:0:0:0:
448,192,104727,1,0,0:0:0:0:
320,192,104727,1,0,0:0:0:0:
192,192,104727,1,0,0:0:0:0:
192,192,104898,1,0,0:0:0:0:
320,192,104898,1,0,0:0:0:0:
64,192,105070,1,0,0:0:0:0:
448,192,105070,1,0,0:0:0:0:
192,192,105241,1,0,0:0:0:0:
448,192,105241,1,0,0:0:0:0:
64,192,105413,128,0,105584:0:0:0:0:
192,192,105584,1,0,0:0:0:0:
448,192,105584,1,0,0:0:0:0:
320,192,105670,1,0,0:0:0:0:
192,192,105755,1,0,0:0:0:0:
64,192,105841,1,0,0:0:0:0:
320,192,105927,1,0,0:0:0:0:
192,192,105927,1,0,0:0:0:0:
448,192,106013,1,0,0:0:0:0:
320,192,106098,1,0,0:0:0:0:
192,192,106184,1,0,0:0:0:0:
320,192,106270,1,0,0:0:0:0:
448,192,106270,1,0,0:0:0:0:
64,192,106441,1,0,0:0:0:0:
192,192,106441,1,0,0:0:0:0:
320,192,106527,1,0,0:0:0:0:
448,192,106613,1,0,0:0:0:0:
64,192,106613,1,0,0:0:0:0:
192,192,106784,128,0,106955:0:0:0:0:
448,192,106955,1,0,0:0:0:0:
64,192,106955,1,0,0:0:0:0:
320,192,107041,1,0,0:0:0:0:
64,192,107127,1,0,0:0:0:0:
448,192,107127,1,0,0:0:0:0:
320,192,107298,1,0,0:0:0:0:
192,192,107298,1,0,0:0:0:0:
64,192,107470,1,0,0:0:0:0:
320,192,107470,1,0,0:0:0:0:
192,192,107641,1,0,0:0:0:0:
448,192,107641,1,0,0:0:0:0:
64,192,107813,1,0,0:0:0:0:
320,192,107813,1,0,0:0:0:0:
192,192,107898,1,0,0:0:0:0:
320,192,107984,1,0,0:0:0:0:
64,192,107984,1,0,0:0:0:0:
192,192,108155,128,0,108327:0:0:0:0:
320,192,108327,1,0,0:0:0:0:
448,192,108327,1,0,0:0:0:0:
64,192,108413,1,0,0:0:0:0:
192,192,108498,1,0,0:0:0:0:
448,192,108584,1,0,0:0:0:0:
320,192,108670,1,0,0:0:0:0:
64,192,108670,1,0,0:0:0:0:
448,192,108755,1,0,0:0:0:0:
192,192,108841,1,0,0:0:0:0:
320,192,108927,1,0,0:0:0:0:
64,192,109013,1,0,0:0:0:0:
192,192,109013,1,0,0:0:0:0:
320,192,109098,1,0,0:0:0:0:
448,192,109098,1,0,0:0:0:0:
192,192,109184,1,0,0:0:0:0:
64,192,109184,1,0,0:0:0:0:
320,192,109270,1,0,0:0:0:0:
448,192,109270,1,0,0:0:0:0:
192,192,109355,1,0,0:0:0:0:
64,192,109355,1,0,0:0:0:0:
320,192,109441,1,0,0:0:0:0:
448,192,109441,1,0,0:0:0:0:
192,192,109527,1,0,0:0:0:0:
64,192,109527,1,0,0:0:0:0:
320,192,109613,1,0,0:0:0:0:
448,192,109613,1,0,0:0:0:0:
192,192,109698,1,0,0:0:0:0:
64,192,109698,1,0,0:0:0:0:
448,192,109698,1,0,0:0:0:0:
64,192,109870,1,0,0:0:0:0:
448,192,109870,1,0,0:0:0:0:
64,192,110041,1,0,0:0:0:0:
320,192,110041,1,0,0:0:0:0:
192,192,110213,1,0,0:0:0:0:
448,192,110213,1,0,0:0:0:0:
64,192,110213,1,0,0:0:0:0:
320,192,110384,1,0,0:0:0:0:
192,192,110384,1,0,0:0:0:0:
448,192,110384,1,0,0:0:0:0:
64,192,110555,1,0,0:0:0:0:
320,192,110555,1,0,0:0:0:0:
192,192,110727,1,0,0:0:0:0:
448,192,110727,1,0,0:0:0:0:
64,192,110898,128,0,111070:0:0:0:0:
192,192,111070,1,0,0:0:0:0:
448,192,111070,1,0,0:0:0:0:
320,192,111155,1,0,0:0:0:0:
192,192,111241,1,0,0:0:0:0:
64,192,111327,1,0,0:0:0:0:
448,192,111413,1,0,0:0:0:0:
320,192,111413,1,0,0:0:0:0:
192,192,111498,1,0,0:0:0:0:
64,192,111584,1,0,0:0:0:0:
192,192,111670,1,0,0:0:0:0:
448,192,111755,1,0,0:0:0:0:
64,192,111755,1,0,0:0:0:0:
448,192,111927,1,0,0:0:0:0:
192,192,111927,1,0,0:0:0:0:
320,192,112013,1,0,0:0:0:0:
192,192,112098,1,0,0:0:0:0:
64,192,112098,1,0,0:0:0:0:
448,192,112270,128,0,112441:0:0:0:0:
320,192,112441,1,0,0:0:0:0:
192,192,112441,1,0,0:0:0:0:
64,192,112527,1,0,0:0:0:0:
448,192,112613,1,0,0:0:0:0:
192,192,112613,1,0,0:0:0:0:
320,192,112784,1,0,0:0:0:0:
64,192,112784,1,0,0:0:0:0:
448,192,112955,1,0,0:0:0:0:
320,192,112955,1,0,0:0:0:0:
320,192,113127,1,0,0:0:0:0:
64,192,113127,1,0,0:0:0:0:
448,192,113298,1,0,0:0:0:0:
192,192,113298,1,0,0:0:0:0:
320,192,113384,1,0,0:0:0:0:
64,192,113470,1,0,0:0:0:0:
192,192,113470,1,0,0:0:0:0:
320,192,113641,128,0,113813:0:0:0:0:
448,192,113813,1,0,0:0:0:0:
64,192,113813,1,0,0:0:0:0:
320,192,113898,1,0,0:0:0:0:
448,192,113984,1,0,0:0:0:0:
320,192,114070,1,0,0:0:0:0:
192,192,114155,1,0,0:0:0:0:
448,192,114155,1,0,0:0:0:0:
64,192,114241,1,0,0:0:0:0:
192,192,114327,1,0,0:0:0:0:
64,192,114413,1,0,0:0:0:0:
192,192,114498,1,0,0:0:0:0:
320,192,114498,1,0,0:0:0:0:
448,192,114670,1,0,0:0:0:0:
320,192,114670,1,0,0:0:0:0:
192,192,114755,1,0,0:0:0:0:
320,192,114841,1,0,0:0:0:0:
448,192,114841,1,0,0:0:0:0:
64,192,115013,1,0,0:0:0:0:
320,192,115013,1,0,0:0:0:0:
192,192,115098,1,0,0:0:0:0:
448,192,115098,1,0,0:0:0:0:
448,192,115270,1,0,0:0:0:0:
192,192,115270,1,0,0:0:0:0:
320,192,115355,1,0,0:0:0:0:
64,192,115355,1,0,0:0:0:0:
448,192,115527,1,0,0:0:0:0:
192,192,115527,1,0,0:0:0:0:
64,192,115527,1,0,0:0:0:0:
64,192,115698,1,0,0:0:0:0:
320,192,115698,1,0,0:0:0:0:
448,192,115698,1,0,0:0:0:0:
64,192,115870,1,0,0:0:0:0:
192,192,115870,1,0,0:0:0:0:
192,192,116041,1,0,0:0:0:0:
320,192,116041,1,0,0:0:0:0:
320,192,116213,1,0,0:0:0:0:
448,192,116213,1,0,0:0:0:0:
192,192,116384,128,0,116555:0:0:0:0:
448,192,116555,1,0,0:0:0:0:
64,192,116555,1,0,0:0:0:0:
320,192,116641,1,0,0:0:0:0:
192,192,116727,1,0,0:0:0:0:
64,192,116813,1,0,0:0:0:0:
448,192,116898,1,0,0:0:0:0:
192,192,116898,1,0,0:0:0:0:
320,192,116984,1,0,0:0:0:0:
448,192,117070,1,0,0:0:0:0:
320,192,117155,1,0,0:0:0:0:
192,192,117241,1,0,0:0:0:0:
64,192,117241,1,0,0:0:0:0:
320,192,117413,1,0,0:0:0:0:
192,192,117413,1,0,0:0:0:0:
448,192,117498,1,0,0:0:0:0:
64,192,117584,1,0,0:0:0:0:
320,192,117584,1,0,0:0:0:0:
64,192,117755,128,0,117927:0:0:0:0:
192,192,117927,1,0,0:0:0:0:
448,192,117927,1,0,0:0:0:0:
320,192,118013,1,0,0:0:0:0:
192,192,118098,1,0,0:0:0:0:
64,192,118098,1,0,0:0:0:0:
448,192,118270,1,0,0:0:0:0:
192,192,118270,1,0,0:0:0:0:
64,192,118355,1,0,0:0:0:0:
320,192,118355,1,0,0:0:0:0:
192,192,118441,1,0,0:0:0:0:
448,192,118441,1,0,0:0:0:0:
320,192,118527,1,0,0:0:0:0:
192,192,118613,1,0,0:0:0:0:
448,192,118613,1,0,0:0:0:0:
64,192,118613,1,0,0:0:0:0:
64,192,118698,1,0,0:0:0:0:
192,192,118698,1,0,0:0:0:0:
448,192,118698,1,0,0:0:0:0:
192,192,118870,1,0,0:0:0:0:
320,192,118870,1,0,0:0:0:0:
448,192,118870,1,0,0:0:0:0:
448,192,118955,1,0,0:0:0:0:
320,192,118955,1,0,0:0:0:0:
192,192,118955,1,0,0:0:0:0:
64,192,119127,1,0,0:0:0:0:
192,192,119127,1,0,0:0:0:0:
320,192,119127,1,0,0:0:0:0:
320,192,119213,1,0,0:0:0:0:
64,192,119213,1,0,0:0:0:0:
192,192,119213,1,0,0:0:0:0:
320,192,119384,1,0,0:0:0:0:
448,192,119384,1,0,0:0:0:0:
64,192,119384,1,0,0:0:0:0:
448,192,119470,1,0,0:0:0:0:
320,192,119470,1,0,0:0:0:0:
64,192,119470,1,0,0:0:0:0:
64,192,119641,1,0,0:0:0:0:
192,192,119641,1,0,0:0:0:0:
320,192,119641,1,0,0:0:0:0:
320,192,119813,1,0,0:0:0:0:
448,192,119813,1,0,0:0:0:0:
192,192,119813,1,0,0:0:0:0:
64,192,119984,1,0,0:0:0:0:
320,192,119984,1,0,0:0:0:0:
192,192,119984,1,0,0:0:0:0:
320,192,120155,1,0,0:0:0:0:
192,192,120155,1,0,0:0:0:0:
64,192,120155,1,0,0:0:0:0:
64,192,120327,1,0,0:0:0:0:
320,192,120327,1,0,0:0:0:0:
192,192,120327,1,0,0:0:0:0:
448,192,120498,1,0,0:0:0:0:
320,192,120498,1,0,0:0:0:0:
192,192,120498,1,0,0:0:0:0:
320,192,120584,1,0,0:0:0:0:
192,192,120584,1,0,0:0:0:0:
64,192,120584,1,0,0:0:0:0:
320,192,121013,1,0,0:0:0:0:
448,192,121013,1,0,0:0:0:0:
64,192,121013,128,0,125470:0:0:0:0:
192,192,121013,128,0,121870:0:0:0:0:
