osu file format v14

[General]
AudioFilename: Soulja Baka.mp3
AudioLeadIn: 0
PreviewTime: 71983
Countdown: 1
SampleSet: Soft
StackLeniency: 0.5
Mode: 0
LetterboxInBreaks: 1
WidescreenStoryboard: 1

[Editor]
Bookmarks: 11632,15746,19861,22603,32203,32889,41803,44546,55518,56889,61003,66489,71975,77461,96661,99403,109003,110375,118603,121003
DistanceSpacing: 1.7
BeatDivisor: 4
GridSize: 8
TimelineZoom: 1.1

[Metadata]
Title:Soulja Baka
TitleUnicode:Soulja Baka
Artist:Soulja Baka
ArtistUnicode:Soulja Baka
Creator:jackylam5
Version:HIGHTEC RMX
Source:
Tags:HighTec Pittigbaasje A Mystery taku Kyshiro HikaruR n0ah Damnjelly Bara- Pheon mijkolsmith Soulja Boy Cirno
BeatmapID:726068
BeatmapSetID:239801

[Difficulty]
HPDrainRate:6.3
CircleSize:4
OverallDifficulty:8.5
ApproachRate:9
SliderMultiplier:1.9
SliderTickRate:1

[Events]
//Background and Video events
0,0,"BG.jpg",0,0
//Break Periods
2,66689,71375
//Storyboard Layer 0 (Background)
//Storyboard Layer 1 (Fail)
//Storyboard Layer 2 (Pass)
//Storyboard Layer 3 (Foreground)
//Storyboard Sound Samples

[TimingPoints]
661,342.857142857143,4,2,1,100,1,0
55518,-76.9230769230769,4,2,1,100,0,0
56546,-100,4,2,1,100,0,0
74718,-76.9230769230769,4,2,1,100,0,0
77461,-100,4,2,1,100,0,0
99403,-66.6666666666667,4,2,1,100,0,1
121003,-100,4,2,1,100,0,0

[Colours]
Combo1 : 168,133,211
Combo2 : 121,146,185
Combo3 : 106,173,255
Combo4 : 152,216,192

[HitObjects]
112,72,661,5,0,0:0:0:0:
240,96,832,1,0,0:0:0:0:
136,184,1003,1,0,0:0:0:0:
264,208,1175,1,0,0:0:0:0:
496,344,1518,5,0,0:0:0:0:
456,216,1689,1,0,0:0:0:0:
360,304,1861,1,0,0:0:0:0:
328,176,2032,1,0,0:0:0:0:
224,256,2203,1,0,0:0:0:0:
112,176,2375,1,0,0:0:0:0:
232,112,2546,1,0,0:0:0:0:
496,88,2889,6,0,B|448:64|448:64|392:64,1,95
408,200,3232,1,0,0:0:0:0:
272,200,3403,1,0,0:0:0:0:
192,304,3575,2,0,B|144:296|160:280|128:224,1,95
104,104,3918,1,0,0:0:0:0:
232,64,4089,1,0,0:0:0:0:
360,96,4261,2,0,B|376:136|376:136|336:128|352:208,1,95
384,296,4603,1,0,0:0:0:0:
256,344,4775,1,0,0:0:0:0:
136,288,4946,2,0,B|80:240|144:232|152:192,1,95
168,80,5289,1,0,0:0:0:0:
416,176,5632,6,0,L|352:176,1,47.5
416,224,5803,1,0,0:0:0:0:
168,200,6146,5,0,0:0:0:0:
304,200,6318,1,0,0:0:0:0:
304,336,6489,1,0,0:0:0:0:
168,336,6661,1,0,0:0:0:0:
280,96,7003,5,0,0:0:0:0:
416,96,7175,1,0,0:0:0:0:
416,232,7346,1,0,0:0:0:0:
280,232,7518,1,0,0:0:0:0:
80,192,7689,1,0,0:0:0:0:
368,192,7861,1,0,0:0:0:0:
232,192,8032,1,0,0:0:0:0:
24,24,8375,6,0,L|128:24,1,95
24,120,8718,1,0,0:0:0:0:
160,120,8889,1,0,0:0:0:0:
208,240,9061,2,0,L|96:240,1,95
32,344,9403,1,0,0:0:0:0:
168,344,9575,1,0,0:0:0:0:
304,336,9746,2,0,B|360:296|312:280|360:240,1,95
408,136,10089,1,0,0:0:0:0:
280,88,10261,1,0,0:0:0:0:
168,160,10432,2,0,L|80:224,1,95
208,272,10775,1,0,0:0:0:0:
256,192,10861,12,2,11632,0:0:0:0:
128,56,11803,5,0,0:0:0:0:
288,96,11975,1,0,0:0:0:0:
360,240,12146,1,0,0:0:0:0:
208,296,12318,1,0,0:0:0:0:
104,168,12489,1,0,0:0:0:0:
264,200,12661,2,0,L|392:152,1,95
448,296,13003,5,0,0:0:0:0:
96,288,13175,1,0,0:0:0:0:
216,184,13346,1,0,0:0:0:0:
376,144,13518,1,0,0:0:0:0:
336,352,13689,1,0,0:0:0:0:
320,192,13861,1,0,0:0:0:0:
216,72,14032,2,0,L|112:88,1,95
48,232,14375,5,0,0:0:0:0:
400,280,14546,1,0,0:0:0:0:
240,296,14718,1,0,0:0:0:0:
328,72,14889,1,0,0:0:0:0:
184,144,15061,1,0,0:0:0:0:
304,256,15232,1,0,0:0:0:0:
440,176,15403,2,0,L|336:152,1,95
144,64,15746,5,0,0:0:0:0:
136,80,15832,1,0,0:0:0:0:
136,96,15918,1,0,0:0:0:0:
136,112,16003,1,0,0:0:0:0:
136,128,16089,1,0,0:0:0:0:
144,144,16175,1,0,0:0:0:0:
152,160,16261,1,0,0:0:0:0:
160,176,16346,1,0,0:0:0:0:
176,192,16432,2,0,L|224:248,3,47.5
224,240,16775,5,0,0:0:0:0:
240,248,16861,1,0,0:0:0:0:
256,256,16946,1,0,0:0:0:0:
272,256,17032,1,0,0:0:0:0:
288,256,17118,1,0,0:0:0:0:
304,256,17203,1,0,0:0:0:0:
320,256,17289,1,0,0:0:0:0:
336,256,17375,1,0,0:0:0:0:
352,248,17461,2,0,L|408:192,3,47.5
392,200,17803,5,0,0:0:0:0:
392,184,17889,1,0,0:0:0:0:
384,168,17975,1,0,0:0:0:0:
376,152,18061,1,0,0:0:0:0:
360,136,18146,1,0,0:0:0:0:
344,128,18232,1,0,0:0:0:0:
328,120,18318,1,0,0:0:0:0:
312,112,18403,1,0,0:0:0:0:
296,112,18489,2,0,L|240:112,3,47.5
232,120,18832,5,0,0:0:0:0:
216,128,18918,1,0,0:0:0:0:
200,136,19003,1,0,0:0:0:0:
184,152,19089,1,0,0:0:0:0:
168,168,19175,1,0,0:0:0:0:
160,184,19261,1,0,0:0:0:0:
160,200,19346,1,0,0:0:0:0:
160,216,19432,1,0,0:0:0:0:
168,232,19518,1,0,0:0:0:0:
184,248,19603,1,0,0:0:0:0:
200,256,19689,1,0,0:0:0:0:
216,264,19775,1,0,0:0:0:0:
240,272,19861,6,0,L|432:176,1,190
360,112,20546,2,0,B|280:88|280:88|232:152|176:104,1,190
96,136,21232,1,0,0:0:0:0:
344,80,22603,5,2,0:0:0:0:
192,136,22775,2,0,L|104:88,1,95
96,248,23118,2,0,L|184:296,1,95
344,288,23461,1,0,0:0:0:0:
424,152,23632,1,0,0:0:0:0:
424,152,23718,1,0,0:0:0:0:
424,152,23803,1,0,0:0:0:0:
280,72,23975,5,0,0:0:0:0:
152,352,24146,2,0,B|224:344|224:344|280:304,1,95
496,56,24489,2,0,B|440:56|480:136|432:144,1,95
160,208,24832,1,0,0:0:0:0:
320,200,25003,1,0,0:0:0:0:
320,200,25089,1,0,0:0:0:0:
320,200,25175,1,0,0:0:0:0:
192,104,25346,5,0,0:0:0:0:
400,344,25518,2,0,B|352:320|392:296|328:256,1,95
88,304,25861,2,0,B|80:232|80:232|112:176,1,95
376,80,26203,1,0,0:0:0:0:
240,160,26375,1,0,0:0:0:0:
240,160,26461,1,0,0:0:0:0:
240,160,26546,1,0,0:0:0:0:
104,64,26718,5,0,0:0:0:0:
304,304,26889,2,0,B|192:280|232:264|216:248,1,95
480,96,27232,2,0,B|456:136|456:136|400:136,1,95
384,296,27575,1,0,0:0:0:0:
96,232,27746,1,0,0:0:0:0:
96,232,27832,1,0,0:0:0:0:
96,232,27918,1,0,0:0:0:0:
408,160,28089,5,2,0:0:0:0:
264,88,28261,2,0,B|216:56|184:72|144:56,1,95
384,352,28603,2,0,L|280:328,1,95
184,208,28946,1,0,0:0:0:0:
344,224,29118,1,0,0:0:0:0:
344,224,29203,1,0,0:0:0:0:
344,224,29289,1,0,0:0:0:0:
88,80,29461,5,2,0:0:0:0:
88,240,29632,2,0,B|136:320|168:304|184:288,1,95
432,160,29975,2,0,B|352:136|352:136|360:96,1,95
216,40,30318,1,0,0:0:0:0:
240,200,30489,1,0,0:0:0:0:
240,200,30575,1,0,0:0:0:0:
240,200,30661,1,0,0:0:0:0:
376,288,30832,5,2,0:0:0:0:
120,96,31003,2,0,B|176:96|144:112|216:128,1,95
136,304,31346,2,0,B|88:264|152:264|104:232|136:200,1,95
400,96,31689,1,0,0:0:0:0:
320,240,31861,1,0,0:0:0:0:
320,240,31946,1,0,0:0:0:0:
320,240,32032,1,0,0:0:0:0:
256,72,32203,5,2,0:0:0:0:
240,88,32289,1,0,0:0:0:0:
224,104,32375,1,0,0:0:0:0:
208,120,32461,1,0,0:0:0:0:
192,136,32546,1,0,0:0:0:0:
176,152,32632,1,0,0:0:0:0:
160,168,32718,1,0,0:0:0:0:
144,184,32803,1,0,0:0:0:0:
128,200,32889,1,0,0:0:0:0:
400,304,33061,5,0,0:0:0:0:
416,72,33232,1,0,0:0:0:0:
120,320,33403,1,0,0:0:0:0:
264,248,33575,5,2,0:0:0:0:
400,160,33746,2,0,B|344:144|352:128|296:96,1,95
320,352,34089,2,0,B|240:336|240:336|272:304|240:304,1,95
72,112,34432,1,0,0:0:0:0:
232,104,34603,1,0,0:0:0:0:
232,104,34689,1,0,0:0:0:0:
232,104,34775,1,0,0:0:0:0:
168,248,34946,5,0,0:0:0:0:
472,136,35118,2,0,L|384:88|384:88,1,95
72,208,35461,2,0,B|112:176|120:192|184:192,1,95
280,296,35803,1,0,0:0:0:0:
120,48,35975,1,0,0:0:0:0:
120,48,36061,1,0,0:0:0:0:
120,48,36146,1,0,0:0:0:0:
256,136,36318,5,0,0:0:0:0:
96,336,36489,2,0,B|136:312|112:304|136:288|96:272|112:224,1,95
400,64,36832,2,0,B|352:72|352:72|400:96,1,95
392,256,37175,1,0,0:0:0:0:
232,224,37346,1,0,0:0:0:0:
232,224,37432,1,0,0:0:0:0:
232,224,37518,1,0,0:0:0:0:
144,88,37689,5,0,0:0:0:0:
344,336,37861,2,0,B|232:328|288:296|240:288,1,95
344,160,38203,2,0,L|416:48,1,95
240,128,38546,1,0,0:0:0:0:
48,328,38718,1,0,0:0:0:0:
48,328,38803,1,0,0:0:0:0:
48,328,38889,1,0,0:0:0:0:
200,272,39061,5,2,0:0:0:0:
96,144,39232,2,0,B|72:80|144:112|144:40,1,95
424,344,39575,2,0,L|328:336,1,95
312,176,39918,1,0,0:0:0:0:
208,56,40089,1,0,0:0:0:0:
208,56,40175,1,0,0:0:0:0:
208,56,40261,1,0,0:0:0:0:
56,280,40432,5,2,0:0:0:0:
216,280,40603,2,0,B|272:264|272:264|240:240,1,95
72,64,40946,2,0,L|168:64,1,95
328,96,41289,1,0,0:0:0:0:
400,240,41461,1,0,0:0:0:0:
400,240,41546,1,0,0:0:0:0:
400,240,41632,1,0,0:0:0:0:
48,192,41803,6,0,L|48:144,1,47.5,2|0,0:0|0:0,0:0:0:0:
256,32,42061,2,0,L|304:32,1,47.5
464,192,42318,2,0,L|464:248,1,47.5
256,352,42575,2,0,L|208:352,1,47.5
168,192,42832,5,0,0:0:0:0:
320,128,43003,1,0,0:0:0:0:
392,272,43175,1,2,0:0:0:0:
248,344,43346,1,2,0:0:0:0:
264,184,43518,1,2,0:0:0:0:
152,72,43689,1,2,0:0:0:0:
152,72,43775,1,2,0:0:0:0:
104,312,44203,5,4,0:0:0:0:
360,120,44546,5,0,0:0:0:0:
64,200,44718,2,0,B|96:160|80:136|104:120|160:112,1,95
360,336,45061,2,0,L|248:328,1,95
312,48,45403,2,0,B|224:48|264:88|200:96,1,95
168,240,45746,1,0,0:0:0:0:
328,256,45918,5,0,0:0:0:0:
64,56,46089,2,0,B|152:64|152:64|128:104,1,95
416,336,46432,2,0,L|312:336,1,95
160,336,46775,2,0,B|80:336|120:312|104:264,1,95
224,176,47118,1,0,0:0:0:0:
440,48,47289,5,0,0:0:0:0:
384,200,47461,2,0,B|336:208|336:208|336:176|328:160|304:176,1,95
48,320,47803,2,0,B|104:288|48:280|104:240,1,95
288,48,48146,2,0,B|232:48|232:48|272:96,1,95
112,160,48489,1,0,0:0:0:0:
384,336,48661,5,0,0:0:0:0:
224,304,48832,2,0,L|104:280,1,95
424,32,49175,2,0,B|368:48|368:48|432:80,1,95
88,352,49518,2,0,B|144:336|144:336|80:304,1,95
208,192,49861,1,0,0:0:0:0:
352,264,50032,5,0,0:0:0:0:
104,48,50203,2,0,B|160:48|160:48|192:88,1,95
408,336,50546,2,0,B|352:336|352:336|320:296,1,95
168,272,50889,2,0,B|104:248|160:240|160:176,1,95
296,112,51232,1,0,0:0:0:0:
408,224,51403,5,0,0:0:0:0:
56,256,51575,2,0,B|104:208|104:208|32:192|80:176,1,95
168,64,51918,2,0,B|224:80|224:80|232:120,1,95
432,336,52261,2,0,L|328:344,1,95
216,232,52603,1,0,0:0:0:0:
328,112,52775,5,0,0:0:0:0:
48,352,52946,2,0,B|104:304|104:304|48:272,1,95
448,224,53289,2,0,B|376:208|416:176|408:152,1,95
56,48,53632,2,0,L|152:48,1,95
128,208,53975,1,0,0:0:0:0:
280,256,54146,5,0,0:0:0:0:
432,56,54318,2,0,L|320:40,1,95
160,328,54661,2,0,L|272:320,1,95
344,192,55003,2,0,L|240:192,1,95
144,72,55346,1,0,0:0:0:0:
80,272,55518,6,0,B|80:208|80:208|208:304|208:304|160:224|160:224|224:232|224:232|168:128|168:128|240:144|240:144|288:120|288:120|328:240,1,740.999966079714,0|2,0:0|0:0,0:0:0:0:
464,312,56718,1,0,0:0:0:0:
432,152,56889,5,0,0:0:0:0:
288,72,57061,2,0,B|200:40|200:40|176:80,1,95
80,152,57403,2,0,B|168:160|144:184|216:184,1,95
416,360,57746,2,0,B|360:352|360:352|312:304,1,95
176,296,58089,1,0,0:0:0:0:
312,200,58261,5,0,0:0:0:0:
192,96,58432,2,0,B|136:64|136:64|144:136,1,95
80,248,58775,2,0,B|128:240|128:240|184:192,1,95
448,64,59118,2,0,B|384:64|384:64|416:112,1,95
368,248,59461,1,0,0:0:0:0:
56,88,59632,5,0,0:0:0:0:
216,320,59803,2,0,B|152:320|168:304|136:248,1,95
248,144,60146,2,0,B|312:120|344:144|344:144|360:120,1,95
336,352,60489,2,0,B|288:288|288:288|240:256,1,95
128,208,60832,1,0,0:0:0:0:
192,64,61003,5,0,0:0:0:0:
184,80,61089,1,0,0:0:0:0:
176,96,61175,1,0,0:0:0:0:
168,112,61261,1,0,0:0:0:0:
168,128,61346,1,0,0:0:0:0:
168,144,61432,1,0,0:0:0:0:
168,160,61518,1,0,0:0:0:0:
168,176,61603,1,0,0:0:0:0:
176,192,61689,2,0,L|200:240,3,47.5
216,248,62032,5,0,0:0:0:0:
232,256,62118,1,0,0:0:0:0:
248,256,62203,1,0,0:0:0:0:
264,256,62289,1,0,0:0:0:0:
280,256,62375,1,0,0:0:0:0:
296,248,62461,1,0,0:0:0:0:
312,240,62546,1,0,0:0:0:0:
320,224,62632,1,0,0:0:0:0:
320,208,62718,2,0,L|320:144,3,47.5
312,144,63061,5,0,0:0:0:0:
296,128,63146,1,0,0:0:0:0:
280,120,63232,1,0,0:0:0:0:
264,112,63318,1,0,0:0:0:0:
248,112,63403,1,0,0:0:0:0:
232,112,63489,1,0,0:0:0:0:
216,112,63575,1,0,0:0:0:0:
200,120,63661,1,0,0:0:0:0:
184,128,63746,2,0,L|120:160,3,47.5
128,168,64089,5,0,0:0:0:0:
128,184,64175,1,0,0:0:0:0:
128,200,64261,1,0,0:0:0:0:
136,216,64346,1,0,0:0:0:0:
144,232,64432,1,0,0:0:0:0:
160,248,64518,1,0,0:0:0:0:
176,256,64603,1,0,0:0:0:0:
192,264,64689,1,0,0:0:0:0:
208,264,64775,2,0,L|264:264,3,47.5
272,264,65118,5,0,0:0:0:0:
288,256,65203,1,0,0:0:0:0:
304,248,65289,1,0,0:0:0:0:
320,240,65375,1,0,0:0:0:0:
336,224,65461,1,0,0:0:0:0:
344,208,65546,1,0,0:0:0:0:
360,192,65632,1,0,0:0:0:0:
376,184,65718,1,0,0:0:0:0:
392,184,65803,5,0,0:0:0:0:
408,192,65889,1,0,0:0:0:0:
416,208,65975,1,0,0:0:0:0:
424,224,66061,1,0,0:0:0:0:
424,240,66146,1,0,0:0:0:0:
424,256,66232,1,0,0:0:0:0:
416,272,66318,1,0,0:0:0:0:
408,288,66403,1,0,0:0:0:0:
392,296,66489,1,0,0:0:0:0:
152,120,71975,5,10,0:0:0:0:
472,152,72318,1,8,0:0:0:0:
184,296,72661,1,8,0:0:0:0:
392,48,73003,1,8,0:0:0:0:
344,368,73346,5,10,0:0:0:0:
128,128,73689,1,8,0:0:0:0:
408,288,74032,1,8,0:0:0:0:
88,328,74375,1,8,0:0:0:0:
464,144,74718,6,0,B|384:136|384:136|400:96|400:96|336:152|280:128,1,246.999988693238,0|4,0:0|0:0,0:0:0:0:
80,232,75403,6,0,B|152:232|152:232|104:168|104:168|232:176,1,246.999988693238,0|4,0:0|0:0,0:0:0:0:
288,88,76089,5,0,0:0:0:0:
272,104,76175,1,0,0:0:0:0:
264,128,76261,1,0,0:0:0:0:
264,152,76346,1,0,0:0:0:0:
272,176,76432,1,0,0:0:0:0:
280,200,76518,1,0,0:0:0:0:
280,224,76603,1,0,0:0:0:0:
272,248,76689,1,0,0:0:0:0:
256,264,76775,1,0,0:0:0:0:
88,96,77118,5,4,0:0:0:0:
344,296,77461,5,2,0:0:0:0:
184,304,77632,2,0,B|112:288|112:288|128:264|104:240,1,95
400,64,77975,2,0,B|320:48|320:48|272:64,1,95
176,152,78318,1,0,0:0:0:0:
432,224,78489,1,0,0:0:0:0:
432,224,78575,1,0,0:0:0:0:
432,224,78661,1,0,0:0:0:0:
160,56,78832,5,0,0:0:0:0:
80,192,79003,2,0,P|104:232|176:224,1,95
448,64,79346,2,0,B|392:56|392:56|400:112,1,95
336,240,79689,1,0,0:0:0:0:
176,280,79861,1,0,0:0:0:0:
176,280,79946,1,0,0:0:0:0:
176,280,80032,1,0,0:0:0:0:
72,64,80203,5,0,0:0:0:0:
352,136,80375,2,0,B|264:120|264:120|240:96,1,95
104,328,80718,2,0,B|64:288|64:288|104:248,1,95
392,312,81061,1,0,0:0:0:0:
224,136,81232,1,0,0:0:0:0:
224,136,81318,1,0,0:0:0:0:
224,136,81403,1,0,0:0:0:0:
240,328,81575,5,0,0:0:0:0:
440,64,81746,2,0,B|360:64|360:64|312:96,1,95
112,208,82089,2,0,P|88:168|144:112,1,95
240,216,82432,1,0,0:0:0:0:
400,176,82603,1,0,0:0:0:0:
400,176,82689,1,0,0:0:0:0:
400,176,82775,1,0,0:0:0:0:
264,88,82946,5,2,0:0:0:0:
104,96,83118,2,0,B|48:104|48:104|72:152,1,95
384,320,83461,2,0,B|336:320|336:320|296:288,1,95
136,312,83803,1,0,0:0:0:0:
384,72,83975,1,0,0:0:0:0:
384,72,84061,1,0,0:0:0:0:
384,72,84146,1,0,0:0:0:0:
256,168,84318,5,2,0:0:0:0:
112,104,84489,2,0,B|64:112|64:112|56:160,1,95
400,280,84832,2,0,B|448:272|448:272|456:224,1,95
296,216,85175,1,0,0:0:0:0:
232,72,85346,1,0,0:0:0:0:
232,72,85432,1,0,0:0:0:0:
232,72,85518,1,0,0:0:0:0:
128,344,85689,5,2,0:0:0:0:
24,216,85861,2,0,B|112:224|112:224|136:208,1,95
416,136,86203,2,0,B|352:120|352:120|288:128,1,95
328,288,86546,1,0,0:0:0:0:
72,64,86718,1,0,0:0:0:0:
72,64,86803,1,0,0:0:0:0:
72,64,86889,1,0,0:0:0:0:
208,312,87061,5,2,0:0:0:0:
112,184,87232,2,0,P|72:136|88:104,1,95
456,96,87575,2,0,B|392:48|392:48|344:56,1,95
320,200,87918,1,0,0:0:0:0:
208,88,88089,1,0,0:0:0:0:
208,88,88175,1,0,0:0:0:0:
208,88,88261,1,0,0:0:0:0:
120,320,88432,5,2,0:0:0:0:
424,320,88603,2,0,B|368:288|392:280|392:232,1,95
96,88,88946,2,0,B|144:96|144:96|136:152,1,95
440,224,89289,1,0,0:0:0:0:
168,256,89461,1,0,0:0:0:0:
168,256,89546,1,0,0:0:0:0:
168,256,89632,1,0,0:0:0:0:
368,72,89803,5,0,0:0:0:0:
272,344,89975,2,0,B|200:312|200:312|232:272|216:264,1,95
40,168,90318,2,0,B|96:144|104:152|144:88,1,95
432,320,90661,1,0,0:0:0:0:
312,216,90832,1,0,0:0:0:0:
312,216,90918,1,0,0:0:0:0:
312,216,91003,1,0,0:0:0:0:
64,56,91175,5,0,0:0:0:0:
160,344,91346,2,0,B|96:320|96:320|128:256,1,95
424,216,91689,2,0,L|336:168,1,95
280,320,92032,1,0,0:0:0:0:
168,24,92203,1,0,0:0:0:0:
168,24,92289,1,0,0:0:0:0:
168,24,92375,1,0,0:0:0:0:
64,304,92546,5,0,0:0:0:0:
192,208,92718,2,0,B|152:160|152:160|200:112,1,95
424,352,93061,2,0,L|320:352,1,95
168,320,93403,1,0,0:0:0:0:
392,152,93575,1,0,0:0:0:0:
392,152,93661,1,0,0:0:0:0:
392,152,93746,1,0,0:0:0:0:
128,72,93918,5,2,0:0:0:0:
80,224,94089,2,0,L|184:272,1,95
352,48,94432,2,0,B|304:48|304:48|304:96,1,95
360,344,94775,1,0,0:0:0:0:
264,216,94946,1,0,0:0:0:0:
264,216,95032,1,0,0:0:0:0:
264,216,95118,1,0,0:0:0:0:
64,344,95289,5,2,0:0:0:0:
224,328,95461,2,0,B|200:272|216:256|208:224,1,95
448,48,95803,2,0,L|352:48,1,95
216,128,96146,1,0,0:0:0:0:
376,320,96318,1,0,0:0:0:0:
376,320,96403,1,0,0:0:0:0:
376,320,96489,1,0,0:0:0:0:
232,248,96661,6,0,B|112:208|160:176|80:112,1,190,2|0,0:0|0:0,0:0:0:0:
408,48,97346,2,0,B|448:128|448:128|384:128|384:128|408:176,1,190,2|0,0:0|0:0,0:0:0:0:
128,336,98032,1,6,0:0:0:0:
88,72,99403,5,10,0:0:0:0:
224,272,99575,2,0,L|80:240,1,142.500005435944
456,48,99918,2,0,B|384:64|384:64|416:128,1,142.500005435944,0|8,0:0|0:0,0:0:0:0:
296,336,100261,1,0,0:0:0:0:
224,104,100432,1,0,0:0:0:0:
224,104,100518,1,0,0:0:0:0:
224,104,100603,1,0,0:0:0:0:
64,288,100775,5,8,0:0:0:0:
304,240,100946,2,0,B|392:224|392:224|336:200,1,142.500005435944
120,104,101289,2,0,B|80:152|80:192|24:208,1,142.500005435944,0|8,0:0|0:0,0:0:0:0:
240,320,101632,1,0,0:0:0:0:
352,104,101803,1,0,0:0:0:0:
352,104,101889,1,0,0:0:0:0:
352,104,101975,1,0,0:0:0:0:
120,40,102146,5,8,0:0:0:0:
64,280,102318,2,0,B|128:248|128:248|96:200|120:168,1,142.500005435944
448,152,102661,2,0,B|400:128|400:128|400:96|312:176,1,142.500005435944,0|8,0:0|0:0,0:0:0:0:
472,360,103003,1,0,0:0:0:0:
272,216,103175,1,0,0:0:0:0:
272,216,103261,1,0,0:0:0:0:
272,216,103346,1,0,0:0:0:0:
336,48,103518,5,8,0:0:0:0:
168,216,103689,2,0,L|56:120,1,142.500005435944
472,304,104032,2,0,L|328:320,1,142.500005435944,0|8,0:0|0:0,0:0:0:0:
240,96,104375,1,0,0:0:0:0:
96,296,104546,1,0,0:0:0:0:
96,296,104632,1,0,0:0:0:0:
96,296,104718,1,0,0:0:0:0:
120,56,104889,5,8,0:0:0:0:
336,168,105061,2,0,B|272:184|224:168|184:224,1,142.500005435944
424,296,105403,2,0,B|448:224|448:224|400:160,1,142.500005435944,0|8,0:0|0:0,0:0:0:0:
168,128,105746,1,0,0:0:0:0:
304,328,105918,1,0,0:0:0:0:
304,328,106003,1,0,0:0:0:0:
304,328,106089,1,0,0:0:0:0:
88,208,106261,5,8,0:0:0:0:
280,56,106432,2,0,B|352:48|352:48|360:80|376:88|336:136,1,142.500005435944
232,328,106775,2,0,B|160:336|160:336|152:304|136:296|176:248,1,142.500005435944,0|8,0:0|0:0,0:0:0:0:
392,208,107118,1,0,0:0:0:0:
176,96,107289,1,0,0:0:0:0:
176,96,107375,1,0,0:0:0:0:
176,96,107461,1,0,0:0:0:0:
96,320,107632,5,8,0:0:0:0:
336,320,107803,2,0,L|160:256,1,142.500005435944
176,64,108146,2,0,L|352:128,1,142.500005435944,0|8,0:0|0:0,0:0:0:0:
168,312,108489,1,0,0:0:0:0:
64,96,108661,1,0,0:0:0:0:
64,96,108746,1,0,0:0:0:0:
64,96,108832,1,0,0:0:0:0:
304,112,109003,5,8,0:0:0:0:
288,136,109089,1,0,0:0:0:0:
272,160,109175,1,0,0:0:0:0:
256,184,109261,1,0,0:0:0:0:
240,208,109346,1,0,0:0:0:0:
224,232,109432,1,0,0:0:0:0:
208,256,109518,1,0,0:0:0:0:
192,280,109603,1,0,0:0:0:0:
176,304,109689,1,8,0:0:0:0:
96,40,109861,5,0,0:0:0:0:
432,336,110032,1,0,0:0:0:0:
384,96,110203,1,0,0:0:0:0:
80,240,110375,5,8,0:0:0:0:
224,48,110546,2,0,P|328:40|352:72,1,142.500005435944
336,304,110889,2,0,B|272:360|272:360|192:344,1,142.500005435944,0|8,0:0|0:0,0:0:0:0:
104,136,111232,1,0,0:0:0:0:
344,184,111403,1,0,0:0:0:0:
344,184,111489,1,0,0:0:0:0:
344,184,111575,1,0,0:0:0:0:
136,312,111746,5,8,0:0:0:0:
312,144,111918,2,0,B|248:112|248:112|160:144,1,142.500005435944
352,304,112261,2,0,L|208:320,1,142.500005435944,0|8,0:0|0:0,0:0:0:0:
88,112,112603,1,0,0:0:0:0:
328,56,112775,1,0,0:0:0:0:
328,56,112861,1,0,0:0:0:0:
328,56,112946,1,0,0:0:0:0:
248,288,113118,5,8,0:0:0:0:
160,64,113289,2,0,B|232:112|232:112|320:96,1,142.500005435944
440,288,113632,2,0,B|352:280|392:240|272:216,1,142.500005435944,0|8,0:0|0:0,0:0:0:0:
96,328,113975,1,0,0:0:0:0:
232,128,114146,1,0,0:0:0:0:
232,128,114232,1,0,0:0:0:0:
232,128,114318,1,0,0:0:0:0:
472,168,114489,5,8,0:0:0:0:
296,336,114661,2,0,B|192:328|192:328|256:304|208:272,1,142.500005435944
216,48,115003,2,0,B|320:56|320:56|256:80|304:112,1,142.500005435944,0|8,0:0|0:0,0:0:0:0:
168,288,115346,1,0,0:0:0:0:
408,280,115518,1,0,0:0:0:0:
408,280,115603,1,0,0:0:0:0:
408,280,115689,1,0,0:0:0:0:
64,64,115861,5,8,0:0:0:0:
96,304,116032,2,0,B|24:304|24:304|40:272|128:216,1,142.500005435944
312,200,116375,2,0,B|368:136|368:136|280:120,1,142.500005435944,0|8,0:0|0:0,0:0:0:0:
408,344,116718,1,0,0:0:0:0:
208,216,116889,1,0,0:0:0:0:
208,216,116975,1,0,0:0:0:0:
208,216,117061,1,0,0:0:0:0:
448,184,117232,5,8,0:0:0:0:
56,32,117403,2,0,L|208:96,1,142.500005435944
456,352,117746,2,8,L|304:288,1,142.500005435944,0|8,0:0|0:0,0:0:0:0:
168,112,118089,1,0,0:0:0:0:
408,112,118261,1,0,0:0:0:0:
408,112,118346,1,0,0:0:0:0:
408,112,118432,1,0,0:0:0:0:
264,304,118603,6,0,L|192:304,1,71.2500027179719,2|0,0:0|0:0,0:0:0:0:
72,88,118861,2,0,L|160:48,1,71.2500027179719
328,208,119118,2,0,L|320:120,1,71.2500027179719
120,272,119375,2,0,L|176:328,1,71.2500027179719
344,152,119632,5,0,0:0:0:0:
128,40,119803,1,0,0:0:0:0:
296,216,119975,1,2,0:0:0:0:
496,344,120146,1,2,0:0:0:0:
256,312,120318,1,2,0:0:0:0:
80,144,120489,1,2,0:0:0:0:
80,144,120575,1,2,0:0:0:0:
256,192,121003,1,6,0:0:0:0:
