osu file format v14

[General]
AudioFilename: Soulja Baka.mp3
AudioLeadIn: 0
PreviewTime: 71983
Countdown: 1
SampleSet: Normal
StackLeniency: 0.7
Mode: 0
LetterboxInBreaks: 1
WidescreenStoryboard: 1

[Editor]
DistanceSpacing: 1.5
BeatDivisor: 4
GridSize: 4
TimelineZoom: 1.6

[Metadata]
Title:Soulja Baka
TitleUnicode:Soulja Baka
Artist:Soulja Baka
ArtistUnicode:Soulja Baka
Creator:jackylam5
Version:B123 RMX
Source:
Tags:HighTec Pittigbaasje A Mystery taku Kyshiro HikaruR n0ah Damnjelly Bara- Pheon mijkolsmith Soulja Boy Cirno
BeatmapID:734434
BeatmapSetID:239801

[Difficulty]
HPDrainRate:7
CircleSize:5
OverallDifficulty:9
ApproachRate:9.5
SliderMultiplier:1.8
SliderTickRate:4

[Events]
//Background and Video events
0,0,"BG.jpg",0,0
//Break Periods
2,66689,71450
2,98032,98878
//Storyboard Layer 0 (Background)
//Storyboard Layer 1 (Fail)
//Storyboard Layer 2 (Pass)
//Storyboard Layer 3 (Foreground)
//Storyboard Sound Samples

[TimingPoints]
661,342.857142857143,4,1,0,60,1,0
11632,-133.333333333333,4,2,0,100,0,0
17118,-200,4,2,0,100,0,0
19861,-66.6666666666667,4,2,0,100,0,0
22603,-66.6666666666667,4,1,0,60,0,1
41803,-14.2857142857143,4,1,0,60,0,0
42832,-100,4,1,0,60,0,0
44203,-14.2857142857143,4,1,0,60,0,0
44546,-100,4,2,0,60,0,0
71975,-100,4,1,0,60,0,0
74718,-33.3333333333333,4,1,0,60,0,0
77461,-100,4,1,0,60,0,0
82603,-50,4,1,0,60,0,0
82946,-100,4,1,0,60,0,0
89461,-33.3333333333333,4,1,0,60,0,0
89803,-100,4,1,0,60,0,0
90832,-33.3333333333333,4,1,0,60,0,0
91174,-100,4,1,0,60,0,0
93918,-33.3333333333333,4,1,0,60,0,0
94260,-100,4,1,0,60,0,0
95289,-33.3333333333333,4,1,0,60,0,0
95631,-100,4,1,0,60,0,0
96661,-20,4,1,0,60,0,0
99403,-66.6666666666667,4,1,0,60,0,1
118603,-14.2857142857143,4,1,0,60,0,0
120318,-100,4,1,0,60,0,0
120489,-10,4,1,0,60,0,0
121089,-100,4,2,0,5,0,0

[HitObjects]
168,124,661,5,0,0:0:0:0:
192,264,832,1,0,0:0:0:0:
256,32,1003,1,0,0:0:0:0:
104,264,1175,2,0,P|136:332|264:316,1,180
384,176,1689,1,0,0:0:0:0:
104,264,1861,1,0,0:0:0:0:
168,124,2032,5,0,0:0:0:0:
192,264,2203,1,0,0:0:0:0:
256,32,2375,1,0,0:0:0:0:
104,264,2546,2,0,P|136:332|264:316,1,180
384,248,3061,1,0,0:0:0:0:
168,124,3232,1,0,0:0:0:0:
104,264,3403,6,0,P|112:300|148:340,1,90
220,244,3661,1,0,0:0:0:0:
224,232,3746,2,0,L|208:120,1,90
360,120,4089,1,0,0:0:0:0:
104,264,4261,1,0,0:0:0:0:
408,264,4433,1,0,0:0:0:0:
152,120,4604,1,0,0:0:0:0:
256,356,4775,5,0,0:0:0:0:
420,192,4947,1,0,0:0:0:0:
256,28,5118,1,0,0:0:0:0:
92,192,5290,1,0,0:0:0:0:
220,240,5632,1,0,0:0:0:0:
248,228,5718,1,0,0:0:0:0:
276,216,5803,1,0,0:0:0:0:
420,192,6146,6,0,L|424:84,2,90
351,239,6661,2,0,P|429:276|498:224,1,180
351,239,7175,1,0,0:0:0:0:
256,308,7346,1,0,0:0:0:0:
92,192,7518,6,0,L|88:84,2,90
160,239,8033,2,0,P|82:276|13:224,1,180
160,239,8547,1,0,0:0:0:0:
256,308,8718,1,0,0:0:0:0:
351,239,8889,6,0,L|384:140,1,90
256,68,9232,1,0,0:0:0:0:
160,239,9403,2,0,L|128:140,1,90
256,68,9746,1,0,0:0:0:0:
256,308,9918,1,0,0:0:0:0:
256,68,10089,1,0,0:0:0:0:
96,316,10261,5,0,0:0:0:0:
416,68,10433,1,0,0:0:0:0:
44,288,10603,1,0,0:0:0:0:
468,96,10776,1,0,0:0:0:0:
256,132,11118,5,0,0:0:0:0:
256,144,11289,1,0,0:0:0:0:
256,156,11461,1,0,0:0:0:0:
256,168,11632,6,0,P|224:196|152:208,1,101.250003862381,4|0,0:0|0:0,0:0:0:0:
108,180,11975,2,0,B|72:176|72:176|24:188,1,67.5000025749208,8|0,0:0|0:0,0:0:0:0:
404,204,12318,2,0,B|440:208|440:208|488:196,1,67.5000025749208
396,132,12661,2,0,P|344:164|332:224,1,101.250003862381,8|0,0:0|0:0,0:0:0:0:
304,240,13003,6,0,L|292:160,1,67.5000025749208
256,292,13261,1,0,0:0:0:0:
208,240,13347,2,0,L|218:173,1,67.5000025749208,8|0,0:0|0:0,0:0:0:0:
256,292,13603,1,0,0:0:0:0:
264,312,13689,2,0,L|180:324,1,67.5000025749208
304,240,14032,2,0,P|340:280|340:348,1,101.250003862381,8|0,0:0|0:0,0:0:0:0:
380,356,14375,6,0,L|420:276,1,67.5000025749208
456,176,14632,1,0,0:0:0:0:
464,196,14718,2,0,L|504:116,1,67.5000025749208,8|0,0:0|0:0,0:0:0:0:
196,44,15061,1,0,0:0:0:0:
157,317,15233,1,0,0:0:0:0:
414,214,15404,1,8,0:0:0:0:
196,44,15575,1,0,0:0:0:0:
256,192,15746,6,0,L|216:168,1,33.7500012874604
132,216,15918,1,0,0:0:0:0:
136,224,16003,1,0,0:0:0:0:
140,232,16089,1,8,0:0:0:0:
144,236,16175,1,0,0:0:0:0:
148,244,16261,1,0,0:0:0:0:
152,252,16347,1,0,0:0:0:0:
156,260,16432,2,0,P|200:292|332:208,1,236.250009012223
333,206,17118,6,0,P|372:264|416:192,1,180,4|0,0:0|0:0,0:0:0:0:
344,116,17889,1,0,0:0:0:0:
286,89,17974,1,0,0:0:0:0:
222,93,18060,1,0,0:0:0:0:
169,128,18146,1,8,0:0:0:0:
139,184,18231,1,0,0:0:0:0:
140,248,18317,1,0,0:0:0:0:
172,303,18403,1,0,0:0:0:0:
228,336,18489,6,0,B|256:249|256:249|284:336,1,180,4|0,0:0|0:0,0:0:0:0:
339,303,19261,5,0,0:0:0:0:
371,248,19347,1,0,0:0:0:0:
372,184,19433,1,0,0:0:0:0:
342,128,19518,1,8,0:0:0:0:
289,93,19604,1,0,0:0:0:0:
225,89,19690,1,0,0:0:0:0:
168,116,19775,1,0,0:0:0:0:
127,164,19861,6,8,P|222:202|168:115,1,270.000010299683,4|8,0:0|0:0,0:0:0:0:
256,368,20375,1,0,0:0:0:0:
363,115,20546,2,0,P|309:202|404:164,1,270.000010299683,0|8,0:0|0:0,0:0:0:0:
256,368,21061,1,0,0:0:0:0:
196,300,21232,5,2,0:0:0:0:
136,232,21403,1,2,0:0:0:0:
140,244,21489,1,2,0:0:0:0:
144,256,21575,1,2,0:0:0:0:
176,164,21746,1,2,0:0:0:0:
376,248,21918,1,2,0:0:0:0:
264,76,22089,1,2,0:0:0:0:
196,300,22261,2,0,P|164:328|76:232,1,202.500007724762,4|0,0:0|0:0,0:0:0:0:
104,156,22603,6,0,P|84:196|-20:184,1,135.000005149842,4|0,0:0|0:0,0:0:0:0:
124,68,22861,1,0,0:0:0:0:
128,76,22946,2,0,L|264:76,1,135.000005149842,8|0,0:0|0:0,0:0:0:0:
380,240,23204,1,0,0:0:0:0:
376,248,23289,2,0,L|240:248,1,135.000005149842,8|0,0:0|0:0,0:0:0:0:
196,304,23546,1,0,0:0:0:0:
196,304,23632,1,8,0:0:0:0:
128,264,23718,1,0,0:0:0:0:
96,192,23803,1,0,0:0:0:0:
128,120,23889,1,0,0:0:0:0:
196,80,23975,6,0,P|256:52|316:80,1,135.000005149842,8|0,0:0|0:0,0:0:0:0:
256,124,24232,1,0,0:0:0:0:
198,170,24318,2,0,P|257:196|316:168,1,135.000005149842,8|0,0:0|0:0,0:0:0:0:
372,116,24575,1,0,0:0:0:0:
424,64,24661,2,0,P|444:104|448:136,1,67.5000025749208,8|0,0:0|0:0,0:0:0:0:
436,256,24832,2,0,P|500:216|512:116,1,135.000005149842,0|8,0:0|0:0,0:0:0:0:
352,248,25089,1,0,0:0:0:0:
256,296,25175,1,0,0:0:0:0:
208,200,25261,1,0,0:0:0:0:
304,152,25346,6,0,P|324:132|312:28,1,135.000005149842,8|0,0:0|0:0,0:0:0:0:
256,88,25603,1,0,0:0:0:0:
194,33,25689,2,0,P|174:95|208:152,1,135.000005149842,8|0,0:0|0:0,0:0:0:0:
256,240,25946,1,0,0:0:0:0:
256,340,26032,2,0,P|184:312|156:228,1,135.000005149842,8|0,0:0|0:0,0:0:0:0:
344,336,26375,1,8,0:0:0:0:
420,280,26461,1,0,0:0:0:0:
450,192,26546,1,0,0:0:0:0:
420,104,26633,1,0,0:0:0:0:
344,48,26718,6,0,P|304:64|356:128,1,135.000005149842,8|0,0:0|0:0,0:0:0:0:
420,104,26975,1,0,0:0:0:0:
336,200,27061,2,0,P|284:184|232:112,1,135.000005149842,8|2,0:0|0:0,0:0:0:0:
208,48,27318,1,2,0:0:0:0:
136,16,27403,2,0,L|132:176,1,135.000005149842,8|2,0:0|0:0,0:0:0:0:
144,244,27661,1,2,0:0:0:0:
144,244,27746,1,8,0:0:0:0:
176,324,27832,1,2,0:0:0:0:
256,356,27918,1,2,0:0:0:0:
336,324,28004,1,0,0:0:0:0:
368,244,28089,6,0,P|448:200|380:264,1,270.000010299683,12|8,0:0|0:0,0:0:0:0:
336,192,28518,1,0,0:0:0:0:
256,172,28603,1,0,0:0:0:0:
176,192,28689,1,0,0:0:0:0:
132,263,28775,2,8,P|59:206|144:244,1,270.000010299683
176,324,29203,1,0,0:0:0:0:
256,260,29289,1,0,0:0:0:0:
336,324,29376,1,0,0:0:0:0:
368,244,29461,6,8,P|452:206|379:263,1,270.000010299683
336,324,29889,1,0,0:0:0:0:
248,356,29975,1,0,0:0:0:0:
344,144,30146,2,0,P|388:124|480:140,1,135.000005149842,8|0,0:0|0:0,0:0:0:0:
368,244,30403,1,0,0:0:0:0:
368,244,30489,1,8,0:0:0:0:
336,324,30575,1,0,0:0:0:0:
256,356,30661,1,0,0:0:0:0:
176,324,30746,1,0,0:0:0:0:
144,244,30832,6,8,B|116:200|140:164|140:164|180:108|172:48|120:40|104:64|112:92|140:116,1,270.000010299683
192,200,31261,1,0,0:0:0:0:
216,260,31346,2,0,B|288:264|288:264|264:200|284:136|320:120|348:120,1,202.500007724762
396,212,31689,1,0,0:0:0:0:
400,220,31775,1,0,0:0:0:0:
404,228,31861,1,8,0:0:0:0:
368,336,31946,1,0,0:0:0:0:
256,356,32032,1,0,0:0:0:0:
144,336,32118,1,0,0:0:0:0:
108,228,32203,5,14,0:3:0:0:
148,88,32289,1,14,0:3:0:0:
124,244,32375,5,14,0:3:0:0:
164,104,32461,1,14,0:3:0:0:
140,260,32546,5,14,0:3:0:0:
180,120,32632,1,14,0:3:0:0:
156,276,32718,5,14,0:3:0:0:
196,136,32804,1,14,0:3:0:0:
172,292,32889,5,2,0:0:0:0:
176,304,33061,1,2,0:0:0:0:
180,316,33232,1,2,0:0:0:0:
184,328,33403,1,2,0:0:0:0:
188,340,33575,6,0,P|260:320|296:248,1,135.000005149842,8|0,0:0|0:0,0:0:0:0:
324,132,33832,1,0,0:0:0:0:
336,144,33918,2,0,L|344:4,1,135.000005149842,8|0,0:0|0:0,0:0:0:0:
432,175,34261,2,0,P|395:230|331:249,1,135.000005149842,8|0,0:0|0:0,0:0:0:0:
224,96,34518,1,0,0:0:0:0:
224,96,34603,1,8,0:0:0:0:
140,120,34689,1,0,0:0:0:0:
88,192,34775,1,0,0:0:0:0:
140,264,34861,1,0,0:0:0:0:
224,288,34946,6,0,B|300:256|356:312|444:256,1,202.500007724762,8|0,0:0|0:0,0:0:0:0:
476,224,35289,2,0,P|488:248|444:336,1,135.000005149842,8|0,0:0|0:0,0:0:0:0:
36,160,35633,2,0,P|24:136|68:48,1,135.000005149842,8|0,0:0|0:0,0:0:0:0:
476,160,35975,1,8,0:0:0:0:
396,280,36061,1,0,0:0:0:0:
256,308,36146,1,0,0:0:0:0:
116,280,36232,1,0,0:0:0:0:
36,160,36318,6,0,P|24:108|92:36,1,135.000005149842,8|0,0:0|0:0,0:0:0:0:
112,116,36575,1,0,0:0:0:0:
156,188,36661,2,0,P|197:136|187:72,1,135.000005149842,8|0,0:0|0:0,0:0:0:0:
116,280,37003,2,0,P|176:284|240:232,1,135.000005149842,8|0,0:0|0:0,0:0:0:0:
336,108,37346,1,8,0:0:0:0:
348,228,37432,1,0,0:0:0:0:
256,308,37518,1,0,0:0:0:0:
164,228,37603,1,0,0:0:0:0:
176,108,37689,6,0,P|176:56|120:104,1,135.000005149842,8|0,0:0|0:0,0:0:0:0:
208,168,37946,1,0,0:0:0:0:
224,160,38032,2,0,P|248:112|236:24,1,135.000005149842,8|2,0:0|0:0,0:0:0:0:
228,12,38289,2,0,P|276:36|364:24,1,135.000005149842,2|2,0:0|0:0,0:0:0:0:
420,16,38546,2,0,P|456:12|492:28,1,67.5000025749208,2|2,0:0|0:0,0:0:0:0:
444,84,38718,1,8,0:0:0:0:
368,168,38803,1,0,0:0:0:0:
256,192,38889,1,0,0:0:0:0:
144,168,38975,1,0,0:0:0:0:
68,84,39061,6,0,P|26:115|144:168,1,270.000010299683,10|8,0:0|0:0,0:0:0:0:
200,84,39489,1,0,0:0:0:0:
220,184,39575,2,0,P|148:268|-12:252,1,270.000010299683
36,352,40003,1,0,0:0:0:0:
136,376,40089,1,8,0:0:0:0:
212,308,40175,1,0,0:0:0:0:
300,308,40261,1,0,0:0:0:0:
376,376,40346,1,0,0:0:0:0:
476,352,40432,5,12,0:3:0:0:
464,320,40518,1,12,0:3:0:0:
452,288,40603,1,12,0:3:0:0:
440,256,40689,1,12,0:3:0:0:
428,224,40775,5,12,0:3:0:0:
380,176,40861,1,12,0:3:0:0:
332,128,40946,1,12,0:3:0:0:
284,80,41032,1,12,0:3:0:0:
232,36,41118,5,12,0:3:0:0:
176,120,41203,1,12,0:3:0:0:
120,204,41289,1,12,0:3:0:0:
64,288,41375,1,12,0:3:0:0:
8,372,41461,5,12,0:3:0:0:
116,292,41546,1,12,0:3:0:0:
224,212,41632,1,12,0:3:0:0:
332,128,41718,1,12,0:3:0:0:
476,32,41803,6,4,L|476:380,1,315.000003004074
36,32,42061,6,4,L|36:380,1,315.000003004074
504,81,42318,6,4,L|438:389,1,315.000003004074
7,81,42576,6,4,L|73:389,1,315.000003004074
256,224,42832,6,4,L|256:96,1,90
212,288,43175,2,0,P|192:268|184:232,1,45,4|0,0:0|2:0,0:0:0:0:
326,252,43346,2,0,P|316:273|300:288,1,45,4|0,0:0|2:0,0:0:0:0:
256,224,43518,2,4,P|288:188|336:176,1,90
256,224,43775,2,0,P|224:188|176:176,1,90,4|0,0:0|0:0,0:0:0:0:
256,224,44032,1,0,0:0:0:0:
428,208,44203,6,0,P|118:192|428:176,1,945.000009012222,14|0,0:0|0:0,0:0:0:0:
428,208,44546,5,8,0:3:0:0:
416,251,44631,1,0,0:3:0:0:
394,289,44717,1,0,0:3:0:0:
361,320,44803,1,0,0:3:0:0:
320,339,44888,1,8,0:3:0:0:
276,347,44974,1,0,0:3:0:0:
231,341,45060,1,0,0:3:0:0:
190,323,45145,1,0,0:3:0:0:
156,294,45232,2,0,L|120:252,3,45,8|0|0|0,0:3|0:3|0:3|0:3,0:3:0:0:
172,200,45576,2,0,L|142:165,3,45,8|0|0|0,0:3|0:3|0:3|0:3,0:3:0:0:
212,100,45918,5,8,0:3:0:0:
224,112,46003,1,0,0:3:0:0:
236,124,46089,1,0,0:3:0:0:
248,136,46175,1,0,0:3:0:0:
260,148,46261,1,8,0:3:0:0:
272,160,46346,1,0,0:3:0:0:
284,172,46432,1,0,0:3:0:0:
296,184,46518,1,0,0:3:0:0:
308,196,46603,2,0,L|304:244,3,45,8|0|0|0,0:3|0:3|0:3|0:3,0:3:0:0:
380,188,46947,2,0,L|384:140,3,45,8|0|0|0,0:3|0:3|0:3|0:3,0:3:0:0:
372,48,47289,5,8,0:3:0:0:
344,56,47375,1,0,0:3:0:0:
316,64,47461,1,0,0:3:0:0:
288,72,47546,1,0,0:3:0:0:
260,80,47632,1,8,0:3:0:0:
232,88,47718,1,0,0:3:0:0:
204,96,47803,1,0,0:3:0:0:
176,104,47889,1,0,0:3:0:0:
148,112,47975,2,0,L|92:112,3,45,8|0|0|0,0:3|0:3|0:3|0:3,0:3:0:0:
72,188,48318,2,0,L|16:188,3,45,8|0|0|0,0:3|0:3|0:3|0:3,0:3:0:0:
80,264,48661,5,8,0:3:0:0:
115,291,48746,1,0,0:3:0:0:
159,293,48832,1,0,0:3:0:0:
200,275,48918,1,0,0:3:0:0:
242,258,49003,1,8,0:3:0:0:
286,251,49089,1,0,0:3:0:0:
330,259,49175,1,0,0:3:0:0:
373,274,49260,1,0,0:3:0:0:
416,285,49346,2,8,L|408:232,1,45,8|8,0:3|0:3,0:3:0:0:
476,152,49518,2,8,L|508:112,1,45,8|8,0:3|0:3,0:3:0:0:
504,267,49689,2,8,L|476:232,1,45,8|8,0:3|0:3,0:3:0:0:
409,142,49860,2,8,L|416:98,1,45,8|8,0:3|0:3,0:3:0:0:
344,44,50032,5,8,0:3:0:0:
338,53,50117,1,0,0:3:0:0:
333,63,50203,1,0,0:3:0:0:
328,73,50289,1,0,0:3:0:0:
323,83,50374,1,8,0:3:0:0:
317,93,50460,1,0,0:3:0:0:
312,103,50546,1,0,0:3:0:0:
307,113,50631,1,0,0:3:0:0:
302,123,50718,2,0,L|292:188,3,45,8|0|0|0,0:3|0:3|0:3|0:3,0:3:0:0:
216,168,51061,2,0,L|205:232,3,45,8|0|0|0,0:3|0:3|0:3|0:3,0:3:0:0:
172,316,51403,5,8,0:3:0:0:
212,295,51488,1,0,0:3:0:0:
255,283,51574,1,0,0:3:0:0:
299,278,51660,1,0,0:3:0:0:
344,282,51745,1,8,0:3:0:0:
388,293,51831,1,0,0:3:0:0:
428,313,51917,1,0,0:3:0:0:
465,339,52002,1,0,0:3:0:0:
496,372,52089,2,0,L|500:320,3,45,8|0|0|0,0:3|0:3|0:3|0:3,0:3:0:0:
476,264,52432,2,0,L|479:211,3,45,8|0|0|0,0:3|0:3|0:3|0:3,0:3:0:0:
464,104,52775,5,10,0:3:0:0:
420,120,52861,1,0,0:3:0:0:
376,136,52946,1,2,0:3:0:0:
332,152,53032,1,0,0:3:0:0:
244,84,53118,5,10,0:3:0:0:
260,128,53204,1,0,0:3:0:0:
276,172,53289,1,2,0:3:0:0:
292,216,53376,1,0,0:3:0:0:
224,304,53460,5,10,0:3:0:0:
268,288,53546,1,0,0:3:0:0:
312,272,53632,1,2,0:3:0:0:
356,256,53718,1,0,0:3:0:0:
444,324,53803,5,10,0:3:0:0:
428,280,53889,1,0,0:3:0:0:
412,236,53974,1,2,0:3:0:0:
396,192,54061,1,0,0:3:0:0:
378,150,54147,5,10,0:3:0:0:
348,117,54233,1,0,0:3:0:0:
309,94,54319,1,0,0:3:0:0:
266,84,54404,1,0,0:3:0:0:
221,89,54490,1,8,0:3:0:0:
180,107,54576,1,0,0:3:0:0:
146,137,54661,2,0,P|124:152|84:152,1,45,10|0,0:3|0:3,0:3:0:0:
69,192,54832,5,8,0:3:0:0:
124,323,54918,1,8,0:3:0:0:
256,378,55003,1,8,0:3:0:0:
387,323,55089,1,8,0:3:0:0:
442,191,55175,1,8,0:3:0:0:
387,60,55261,1,8,0:3:0:0:
255,5,55346,1,8,0:3:0:0:
124,60,55432,1,8,0:3:0:0:
69,192,55518,6,0,P|64:244|100:296,1,90,8|0,0:3|0:3,0:3:0:0:
136,228,55775,1,0,0:3:0:0:
193,178,55861,2,0,P|209:219|202:263,1,90,8|0,0:3|0:3,0:3:0:0:
136,228,56118,1,0,0:3:0:0:
193,178,56203,2,0,L|224:128,1,45,8|0,0:3|0:3,0:3:0:0:
296,68,56375,2,0,L|364:52,1,45,0|0,0:3|0:3,0:3:0:0:
216,68,56546,2,0,L|172:57,1,45,8|0,0:3|0:3,0:3:0:0:
295,139,56717,2,0,L|319:178,1,45,0|0,0:3|0:3,0:3:0:0:
216,68,56889,6,0,B|172:58|172:58|114:58,1,90,8|0,0:3|0:3,0:3:0:0:
192,176,57146,1,0,0:3:0:0:
215,284,57233,2,0,B|171:294|171:294|127:294,1,90,8|0,0:3|0:3,0:3:0:0:
192,176,57489,1,0,0:3:0:0:
272,236,57575,2,0,P|288:264|292:296,1,45,8|0,0:3|0:3,0:3:0:0:
372,268,57746,2,0,P|400:252|432:248,1,45,0|0,0:3|0:3,0:3:0:0:
412,135,57918,2,0,P|390:128|372:116,1,45,8|0,0:3|0:3,0:3:0:0:
291,107,58090,2,0,P|284:129|272:148,1,45,0|0,0:3|0:3,0:3:0:0:
216,284,58261,5,8,0:3:0:0:
208,288,58346,1,0,0:3:0:0:
200,292,58432,1,0,0:3:0:0:
192,296,58518,1,0,0:3:0:0:
184,300,58603,1,8,0:3:0:0:
176,304,58689,1,0,0:3:0:0:
168,308,58775,1,0,0:3:0:0:
160,312,58861,1,0,0:3:0:0:
152,316,58946,2,0,L|96:312,1,45,8|0,0:3|0:3,0:3:0:0:
168,240,59118,2,0,L|224:236,1,45,0|0,0:3|0:3,0:3:0:0:
152,164,59289,2,0,L|96:160,1,45,8|0,0:3|0:3,0:3:0:0:
168,88,59461,2,0,L|224:84,1,45,0|0,0:3|0:3,0:3:0:0:
284,112,59632,5,8,0:3:0:0:
288,120,59718,1,0,0:3:0:0:
292,128,59803,1,0,0:3:0:0:
296,136,59889,1,0,0:3:0:0:
300,144,59975,1,8,0:3:0:0:
304,152,60061,1,0,0:3:0:0:
308,160,60146,1,0,0:3:0:0:
312,168,60232,1,0,0:3:0:0:
316,176,60318,2,8,L|316:220,3,45,8|8|8|8,0:3|0:3|0:3|0:3,0:3:0:0:
372,216,60661,2,8,L|372:260,3,45,8|8|8|8,0:3|0:3|0:3|0:3,0:3:0:0:
476,352,61003,5,12,0:3:0:0:
464,320,61089,1,12,0:3:0:0:
452,288,61174,1,12,0:3:0:0:
440,256,61260,1,12,0:3:0:0:
428,224,61346,5,12,0:3:0:0:
380,176,61432,1,12,0:3:0:0:
332,128,61517,1,12,0:3:0:0:
284,80,61603,1,12,0:3:0:0:
232,36,61689,5,12,0:3:0:0:
176,120,61774,1,12,0:3:0:0:
120,204,61860,1,12,0:3:0:0:
64,288,61946,1,12,0:3:0:0:
8,372,62032,5,12,0:3:0:0:
116,292,62117,1,12,0:3:0:0:
224,212,62203,1,12,0:3:0:0:
332,128,62289,1,12,0:3:0:0:
180,128,62375,5,12,0:3:0:0:
288,212,62461,1,12,0:3:0:0:
396,292,62547,1,12,0:3:0:0:
504,372,62632,1,12,0:3:0:0:
448,288,62718,5,12,0:3:0:0:
392,204,62804,1,12,0:3:0:0:
336,120,62890,1,12,0:3:0:0:
280,36,62975,1,12,0:3:0:0:
228,80,63061,5,12,0:3:0:0:
180,128,63147,1,12,0:3:0:0:
132,176,63232,1,12,0:3:0:0:
72,256,63403,6,2,P|32:256|80:212,1,135,2|2,0:3|0:3,0:3:0:0:
136,292,63746,6,0,P|104:316|44:328,1,90,8|2,0:3|0:3,0:3:0:0:
184,224,64003,2,0,P|216:200|276:188,1,90,8|2,0:3|0:3,0:3:0:0:
136,292,64260,1,8,0:3:0:0:
184,224,64345,1,2,0:3:0:0:
136,292,64431,6,0,P|108:256|108:196,1,90,8|2,0:3|0:3,0:3:0:0:
172,88,64689,2,0,P|200:124|200:184,1,90,8|2,0:3|0:3,0:3:0:0:
136,292,64945,1,8,0:3:0:0:
172,88,65031,1,2,0:3:0:0:
136,292,65118,5,8,0:3:0:0:
256,340,65204,1,0,0:3:0:0:
348,252,65288,1,0,0:3:0:0:
376,128,65374,1,0,0:3:0:0:
256,88,65460,5,8,0:3:0:0:
136,128,65545,1,0,0:3:0:0:
164,252,65631,1,0,0:3:0:0:
256,340,65718,1,0,0:3:0:0:
376,292,65803,2,8,L|436:304,1,45,8|8,0:3|0:3,0:3:0:0:
136,292,65975,2,8,L|76:304,1,45,8|8,0:3|0:3,0:3:0:0:
417,292,66146,2,8,L|497:304,1,45,8|8,0:3|0:3,0:3:0:0:
94,292,66318,2,8,L|14:304,1,45,8|8,0:3|0:3,0:3:0:0:
256,192,66489,5,12,0:3:0:0:
264,152,71975,6,0,P|192:156|120:84,1,180,4|8,0:0|0:0,0:0:0:0:
220,56,72489,1,0,0:0:0:0:
316,96,72661,2,0,P|336:132|324:208,1,90
276,260,73003,2,0,P|328:232|424:268,1,135,8|0,0:0|0:0,0:0:0:0:
399,246,73346,6,0,P|395:174|467:102,1,180,4|8,0:0|0:0,0:0:0:0:
495,202,73860,1,0,0:0:0:0:
455,298,74031,2,0,P|419:318|343:306,1,90
291,258,74375,2,0,P|319:310|283:406,1,135,8|0,0:0|0:0,0:0:0:0:
232,328,74718,6,6,B|108:328|108:328|96:240|178:199|230:197|230:197|256:120|172:136|124:168|80:216,1,540.000020599366,6|6,0:0|0:0,0:3:0:0:
232,328,75403,6,2,B|356:328|356:328|368:240|285:199|233:197|233:197|208:120|292:136|340:168|384:216,1,540.000020599366,2|2,0:0|0:0,0:3:0:0:
404,136,76089,5,12,0:3:0:0:
403,202,76174,1,12,0:3:0:0:
374,263,76260,1,12,0:3:0:0:
321,304,76346,1,12,0:3:0:0:
256,319,76431,1,12,0:3:0:0:
191,305,76517,1,12,0:3:0:0:
138,264,76603,1,12,0:3:0:0:
108,204,76689,1,12,0:3:0:0:
107,137,76774,1,12,0:3:0:0:
107,137,77461,6,0,P|160:116|284:136,1,180,8|8,0:3|0:3,0:3:0:0:
368,252,77975,1,0,0:3:0:0:
107,137,78146,2,0,P|96:92|104:36,1,90,8|0,0:3|0:3,0:3:0:0:
368,252,78489,2,0,P|379:297|371:353,1,90,8|0,0:3|0:3,0:3:0:0:
300,224,78832,6,8,P|344:184|444:248,1,180,8|8,0:3|0:3,0:3:0:0:
368,252,79346,1,0,0:3:0:0:
172,296,79518,2,8,P|239:346|312:302,1,180,8|8,0:3|0:3,0:3:0:0:
300,224,80032,1,0,0:3:0:0:
296,144,80203,6,0,B|284:100|284:100|240:116|240:116|196:108,1,135,8|0,0:3|0:3,0:3:0:0:
144,80,80546,2,0,L|144:192,1,90,8|0,0:3|0:3,0:3:0:0:
296,144,80889,1,8,0:3:0:0:
448,88,81061,1,0,0:3:0:0:
296,240,81232,1,8,0:3:0:0:
448,296,81404,1,0,0:3:0:0:
296,144,81575,2,0,P|272:112|280:48,1,90,8|0,0:3|0:3,0:3:0:0:
372,132,81832,1,0,0:3:0:0:
380,192,81918,1,8,0:3:0:0:
356,248,82003,1,0,0:3:0:0:
308,288,82089,1,0,0:3:0:0:
260,248,82176,1,0,0:3:0:0:
236,192,82261,2,0,P|224:148|212:200,1,135,8|8,0:3|0:3,0:3:0:0:
264,96,82603,6,8,P|184:88|156:244,1,270,8|8,0:3|0:3,0:3:0:0:
264,96,82946,6,10,P|184:88|124:172,1,180,10|10,0:3|0:3,0:3:0:0:
172,308,83461,1,0,0:3:0:0:
316,164,83632,2,0,P|340:128|336:64,1,90,8|0,0:3|0:3,0:3:0:0:
256,208,83975,2,0,P|292:232|356:228,1,90,8|0,0:3|0:3,0:3:0:0:
337,234,84489,5,0,0:3:0:0:
364,228,84575,1,0,0:3:0:0:
391,222,84661,2,0,P|391:190|427:122,1,90,8|0,0:3|0:3,0:3:0:0:
162,293,85004,2,0,P|190:309|231:375,1,90,8|0,0:3|0:3,0:3:0:0:
214,60,85346,2,0,P|186:76|109:78,1,90,8|0,0:3|0:3,0:3:0:0:
256,192,85689,5,8,0:3:0:0:
440,144,85861,1,0,0:3:0:0:
472,192,85946,1,0,0:3:0:0:
440,240,86032,1,8,0:3:0:0:
256,192,86203,1,0,0:3:0:0:
474,135,86375,1,8,0:3:0:0:
511,192,86460,1,0,0:3:0:0:
474,248,86546,1,0,0:3:0:0:
256,192,86718,1,8,0:3:0:0:
244,200,86803,1,0,0:3:0:0:
232,208,86889,1,0,0:3:0:0:
220,216,86975,1,0,0:3:0:0:
208,224,87061,6,10,P|148:224|100:104,1,180,10|10,0:3|0:3,0:3:0:0:
304,224,87746,2,8,P|364:224|412:104,1,180,8|8,0:3|0:3,0:3:0:0:
336,48,88261,1,0,0:3:0:0:
256,296,88432,6,0,P|288:312|344:304,1,90,8|0,0:3|0:3,0:3:0:0:
304,224,88689,1,0,0:3:0:0:
255,296,88775,2,0,P|215:313|171:305,1,90,8|0,0:3|0:3,0:3:0:0:
304,224,89032,1,0,0:3:0:0:
312,224,89118,2,0,L|332:124,1,90,8|0,0:3|0:3,0:3:0:0:
255,296,89461,6,6,P|60:191|252:82,1,540.000020599366,6|6,0:3|0:3,0:3:0:0:
276,108,89889,5,0,0:3:0:0:
304,128,89975,1,0,0:3:0:0:
340,128,90061,1,0,0:3:0:0:
372,108,90146,1,8,0:3:0:0:
404,96,90232,1,0,0:3:0:0:
440,100,90318,1,0,0:3:0:0:
464,124,90403,1,0,0:3:0:0:
468,160,90489,2,0,L|468:212,3,45,8|0|0|0,0:3|0:3|0:3|0:3,0:3:0:0:
468,268,90832,6,6,B|468:356|256:344|256:268|256:268|256:192|44:180|44:268,1,540.000020599366,6|6,0:3|0:3,0:3:0:0:
68,300,91261,5,0,0:3:0:0:
104,300,91346,1,0,0:3:0:0:
140,288,91432,1,0,0:3:0:0:
168,268,91518,1,8,0:3:0:0:
188,236,91603,1,0,0:3:0:0:
196,200,91689,1,0,0:3:0:0:
216,172,91775,1,0,0:3:0:0:
252,160,91861,1,8,0:3:0:0:
288,164,91946,1,0,0:3:0:0:
320,176,92032,1,0,0:3:0:0:
348,196,92118,1,0,0:3:0:0:
384,204,92203,1,8,0:3:0:0:
420,196,92289,1,0,0:3:0:0:
448,172,92375,1,0,0:3:0:0:
456,136,92461,1,0,0:3:0:0:
448,100,92546,6,0,L|344:72,1,90,2|0,0:3|0:3,0:3:0:0:
209,99,92804,2,0,L|296:76,1,90,2|2,0:3|0:3,0:3:0:0:
448,172,93061,1,2,0:3:0:0:
420,196,93146,1,2,0:3:0:0:
384,204,93232,1,6,0:3:0:0:
384,204,93575,6,0,P|336:224|392:240,1,135,0|0,0:3|0:3,0:3:0:0:
376,128,93918,6,6,P|268:220|448:280,1,405.000015449525,6|2,0:3|0:3,0:3:0:0:
376,128,94261,5,8,0:3:0:0:
352,104,94346,1,0,0:3:0:0:
320,88,94432,1,0,0:3:0:0:
284,80,94518,1,0,0:3:0:0:
249,80,94603,1,8,0:3:0:0:
212,84,94689,1,0,0:3:0:0:
180,96,94775,1,0,0:3:0:0:
148,116,94861,1,0,0:3:0:0:
120,140,94946,2,0,L|112:196,3,45,8|0|0|0,0:3|0:3|0:3|0:3,0:3:0:0:
108,248,95289,6,6,P|326:288|248:80,1,540.000020599366,14|14,0:3|0:3,0:3:0:0:
221,94,95717,1,0,0:3:0:0:
186,122,95803,1,0,0:3:0:0:
163,161,95889,1,0,0:3:0:0:
155,205,95974,1,8,0:3:0:0:
162,249,96060,1,0,0:3:0:0:
185,288,96146,1,0,0:3:0:0:
219,317,96232,1,0,0:3:0:0:
261,332,96317,1,8,0:3:0:0:
306,332,96403,1,0,0:3:0:0:
348,316,96489,1,0,0:3:0:0:
382,287,96574,1,0,0:3:0:0:
403,248,96661,6,6,P|256:8|108:248,1,675,14|2,0:3|0:3,0:3:0:0:
108,248,97003,1,8,0:3:0:0:
108,248,97346,6,2,P|256:8|404:248,1,675,14|2,0:3|0:3,0:3:0:0:
403,248,97688,1,8,0:3:0:0:
408,228,99403,6,0,P|428:188|532:200,1,135.000005149842,12|0,0:0|0:0,0:0:0:0:
388,316,99661,1,0,0:0:0:0:
384,308,99746,2,0,L|248:308,1,135.000005149842,8|0,0:0|0:0,0:0:0:0:
132,144,100004,1,0,0:0:0:0:
136,136,100089,2,0,L|272:136,1,135.000005149842,8|0,0:0|0:0,0:0:0:0:
316,80,100346,1,0,0:0:0:0:
316,80,100432,1,8,0:0:0:0:
384,120,100518,1,0,0:0:0:0:
416,192,100603,1,0,0:0:0:0:
384,264,100689,1,0,0:0:0:0:
316,304,100775,6,0,P|256:332|196:304,1,135.000005149842,8|0,0:0|0:0,0:0:0:0:
256,260,101032,1,0,0:0:0:0:
314,214,101118,2,0,P|255:188|196:216,1,135.000005149842,8|0,0:0|0:0,0:0:0:0:
140,268,101375,1,0,0:0:0:0:
88,320,101461,2,0,P|68:280|64:248,1,67.5000025749208,8|0,0:0|0:0,0:0:0:0:
76,128,101632,2,8,P|12:168|0:268,1,135.000005149842
160,136,101889,1,0,0:0:0:0:
256,88,101975,1,0,0:0:0:0:
304,184,102061,1,0,0:0:0:0:
208,232,102146,6,0,P|188:252|200:356,1,135.000005149842,8|0,0:0|0:0,0:0:0:0:
256,296,102403,1,0,0:0:0:0:
318,351,102489,2,0,P|338:289|304:232,1,135.000005149842,8|0,0:0|0:0,0:0:0:0:
256,144,102746,1,0,0:0:0:0:
256,44,102832,2,0,P|328:72|356:156,1,135.000005149842,8|0,0:0|0:0,0:0:0:0:
168,48,103175,1,0,0:0:0:0:
92,104,103261,1,0,0:0:0:0:
62,192,103346,1,0,0:0:0:0:
92,280,103433,1,0,0:0:0:0:
168,336,103518,6,0,P|208:320|156:256,1,135.000005149842,8|0,0:0|0:0,0:0:0:0:
92,280,103775,1,0,0:0:0:0:
176,184,103861,2,0,P|228:200|280:272,1,135.000005149842,8|0,0:0|0:0,0:0:0:0:
304,336,104118,1,0,0:0:0:0:
376,368,104203,2,0,L|380:208,1,135.000005149842,8|0,0:0|0:0,0:0:0:0:
368,140,104461,1,0,0:0:0:0:
368,140,104546,1,8,0:0:0:0:
336,60,104632,1,0,0:0:0:0:
256,28,104718,1,0,0:0:0:0:
176,60,104804,1,0,0:0:0:0:
144,140,104889,6,0,P|64:184|132:120,1,270.000010299683,8|8,0:0|0:0,0:0:0:0:
176,192,105318,1,0,0:0:0:0:
256,212,105403,1,0,0:0:0:0:
336,192,105489,1,0,0:0:0:0:
380,121,105575,2,8,P|453:178|368:140,1,270.000010299683
336,60,106003,1,0,0:0:0:0:
256,124,106089,1,0,0:0:0:0:
176,60,106176,1,0,0:0:0:0:
144,140,106261,6,8,P|60:178|133:121,1,270.000010299683
176,60,106689,1,0,0:0:0:0:
264,28,106775,1,0,0:0:0:0:
168,240,106946,2,0,P|124:260|32:244,1,135.000005149842,8|0,0:0|0:0,0:0:0:0:
144,140,107203,1,0,0:0:0:0:
144,140,107289,1,8,0:0:0:0:
176,60,107375,1,0,0:0:0:0:
256,28,107461,1,0,0:0:0:0:
336,60,107546,1,0,0:0:0:0:
368,140,107632,6,8,B|396:184|372:220|372:220|332:276|340:336|392:344|408:320|400:292|372:268,1,270.000010299683
320,184,108061,1,0,0:0:0:0:
296,124,108146,2,0,B|224:120|224:120|248:184|228:248|192:264|164:264,1,202.500007724762
116,172,108489,1,0,0:0:0:0:
112,164,108575,1,0,0:0:0:0:
108,156,108661,1,8,0:0:0:0:
144,48,108746,1,0,0:0:0:0:
256,28,108832,1,0,0:0:0:0:
368,48,108918,1,0,0:0:0:0:
404,156,109003,5,14,0:3:0:0:
364,296,109089,1,14,0:3:0:0:
388,140,109175,5,14,0:3:0:0:
348,280,109261,1,14,0:3:0:0:
372,124,109346,5,14,0:3:0:0:
332,264,109432,1,14,0:3:0:0:
356,108,109518,5,14,0:3:0:0:
316,248,109604,1,14,0:3:0:0:
340,92,109689,5,2,0:0:0:0:
336,80,109861,1,2,0:0:0:0:
332,68,110032,1,2,0:0:0:0:
328,56,110203,1,2,0:0:0:0:
324,44,110375,6,0,P|252:64|216:136,1,135.000005149842,4|0,0:0|0:0,0:0:0:0:
188,252,110632,1,0,0:0:0:0:
176,240,110718,2,0,L|168:380,1,135.000005149842,8|0,0:0|0:0,0:0:0:0:
80,209,111060,2,0,P|117:154|181:135,1,135.000005149842,8|0,0:0|0:0,0:0:0:0:
288,288,111318,1,0,0:0:0:0:
288,288,111403,1,8,0:0:0:0:
372,264,111489,1,0,0:0:0:0:
424,192,111575,1,0,0:0:0:0:
372,120,111661,1,0,0:0:0:0:
288,96,111746,6,0,B|212:128|156:72|68:128,1,202.500007724762,8|0,0:0|0:0,0:0:0:0:
36,160,112089,2,0,P|24:136|68:48,1,135.000005149842,8|0,0:0|0:0,0:0:0:0:
476,224,112433,2,0,P|488:248|444:336,1,135.000005149842,8|0,0:0|0:0,0:0:0:0:
36,224,112775,1,8,0:0:0:0:
116,104,112861,1,0,0:0:0:0:
256,76,112946,1,0,0:0:0:0:
396,104,113032,1,0,0:0:0:0:
476,224,113118,6,0,P|488:276|420:348,1,135.000005149842,8|0,0:0|0:0,0:0:0:0:
400,268,113375,1,0,0:0:0:0:
356,196,113461,2,0,P|315:248|325:312,1,135.000005149842,8|0,0:0|0:0,0:0:0:0:
396,104,113803,2,0,P|336:100|272:152,1,135.000005149842,8|0,0:0|0:0,0:0:0:0:
176,276,114146,1,8,0:0:0:0:
164,156,114232,1,0,0:0:0:0:
256,76,114318,1,0,0:0:0:0:
348,156,114403,1,0,0:0:0:0:
336,276,114489,6,0,P|336:328|392:280,1,135.000005149842,8|0,0:0|0:0,0:0:0:0:
304,216,114746,1,0,0:0:0:0:
288,224,114831,2,0,P|264:272|276:360,1,135.000005149842,8|0,0:0|0:0,0:0:0:0:
284,372,115090,2,0,P|236:348|148:360,1,135.000005149842
92,368,115346,2,0,P|56:372|20:356,1,67.5000025749208
68,300,115518,1,8,0:0:0:0:
144,216,115603,1,0,0:0:0:0:
256,192,115689,1,0,0:0:0:0:
368,216,115775,1,0,0:0:0:0:
444,300,115861,6,8,P|486:269|368:216,1,270.000010299683
312,300,116289,1,0,0:0:0:0:
292,200,116375,2,0,P|364:116|524:132,1,270.000010299683
476,32,116803,1,0,0:0:0:0:
376,8,116889,1,8,0:0:0:0:
300,76,116975,1,0,0:0:0:0:
212,76,117061,1,0,0:0:0:0:
136,8,117146,1,0,0:0:0:0:
36,32,117232,5,0,0:3:0:0:
20,152,117318,1,0,0:0:0:0:
36,32,117403,1,0,0:0:0:0:
20,152,117489,1,0,0:0:0:0:
112,62,117575,5,0,0:3:0:0:
96,206,117661,1,0,0:0:0:0:
112,62,117746,1,0,0:0:0:0:
96,206,117832,1,0,0:0:0:0:
188,98,117918,5,0,0:3:0:0:
186,290,118004,1,0,0:0:0:0:
188,98,118089,1,0,0:0:0:0:
186,290,118175,1,0,0:0:0:0:
188,98,118261,5,0,0:0:0:0:
380,100,118346,1,0,0:0:0:0:
378,292,118432,1,0,0:0:0:0:
186,290,118518,1,0,0:0:0:0:
36,352,118603,6,4,L|36:8,1,315.000003004074
476,352,118860,6,4,L|476:8,1,315.000003004074
20,328,119117,6,4,L|56:-13,1,315.000003004074
491,328,119376,6,4,L|455:-13,1,315.000003004074
36,352,119632,5,4,0:0:0:0:
476,352,119803,1,4,0:0:0:0:
36,352,119975,6,0,L|380:352,1,315.000003004074,4|0,0:0|2:0,0:0:0:0:
468,256,120147,6,0,L|124:256,1,315.000003004074,4|0,0:0|2:0,0:0:0:0:
36,160,120318,2,0,P|44:132|28:152,1,45,4|0,0:0|2:2,0:0:0:0:
36,160,120489,6,4,L|500:160,1,450
486,160,121003,5,12,0:0:0:0:
256,192,121089,12,0,124089,0:0:0:0:
