osu file format v14

[General]
AudioFilename: audio.mp3
AudioLeadIn: 0
PreviewTime: 46560
Countdown: 0
SampleSet: Normal
StackLeniency: 0.2
Mode: 0
LetterboxInBreaks: 0
WidescreenStoryboard: 1

[Editor]
DistanceSpacing: 1.2
BeatDivisor: 16
GridSize: 16
TimelineZoom: 2

[Metadata]
Title:Potential For Anything
TitleUnicode:Potential For Anything
Artist:SoulEye
ArtistUnicode:SoulEye
Creator:KingBranBran
Version:Determined
Source:
Tags:
BeatmapID:1801295
BeatmapSetID:860957

[Difficulty]
HPDrainRate:6
CircleSize:4
OverallDifficulty:7
ApproachRate:9
SliderMultiplier:1.5
SliderTickRate:2

[Events]
//Background and Video events
0,0,"VVVVVV.0.png",0,0
//Break Periods
//Storyboard Layer 0 (Background)
//Storyboard Layer 1 (Fail)
//Storyboard Layer 2 (Pass)
//Storyboard Layer 3 (Foreground)
//Storyboard Sound Samples

[TimingPoints]
480,480,4,1,0,100,1,0
10080,-66.6666666666667,4,1,0,100,0,0
26640,-33.3333333333333,4,1,0,100,0,0
44640,-100,4,1,0,100,0,0
45840,-50,4,1,0,100,0,0
46560,-50,4,1,0,100,0,1
51120,-100,4,1,0,100,0,1
52320,-50,4,1,0,100,0,1
53040,-100,4,1,0,100,0,1
53760,-50,4,1,0,100,0,1
54240,-100,4,1,0,100,0,1
59520,-50,4,1,0,100,0,1
61920,-50,4,1,0,100,0,0

[Colours]
Combo1 : 192,192,192
Combo2 : 0,128,255
Combo3 : 0,0,255

[HitObjects]
94,229,480,6,0,P|138:292|273:229,1,225
188,199,1320,1,0,0:0:0:0:
273,257,1560,5,0,0:0:0:0:
191,188,1680,1,0,0:0:0:0:
83,60,2400,6,0,B|171:51|171:51|219:83|219:83|311:72,2,225
282,168,4320,2,0,B|203:177|203:177|155:145|155:145|67:154,2,225
373,127,6240,2,0,B|388:207|388:207|373:268|373:268|395:378,1,225
388,347,7680,1,0,0:0:0:0:
77,332,8160,6,0,L|143:328,3,37.5
109,241,8640,2,0,L|175:245,3,37.5
66,155,9120,6,0,L|132:151,3,37.5
97,65,9600,2,0,L|163:69,3,37.5
217,134,10080,6,0,L|308:128,1,56.2500021457673
378,56,10320,2,0,L|469:62,1,56.2500021457673
228,223,10560,6,0,L|319:217,1,56.2500021457673
388,146,10800,2,0,L|479:152,1,56.2500021457673
400,338,11040,6,0,L|491:332,1,56.2500021457673
388,146,11280,2,0,L|479:152,1,56.2500021457673
229,326,11520,6,0,L|320:320,1,56.2500021457673
217,134,11760,2,0,L|308:140,1,56.2500021457673
59,320,12000,6,0,L|65:229,1,56.2500021457673
113,81,12240,2,0,L|109:137,1,56.2500021457673
70,316,12480,6,0,L|76:225,1,56.2500021457673
124,77,12720,2,0,L|120:133,1,56.2500021457673
81,314,12960,6,0,L|87:223,1,56.2500021457673
135,75,13200,2,0,L|131:131,1,56.2500021457673
92,310,13440,6,0,L|98:219,1,56.2500021457673
146,71,13680,2,0,L|142:127,1,56.2500021457673
184,338,13920,5,0,0:0:0:0:
236,304,14040,1,0,0:0:0:0:
294,296,14160,2,0,P|336:302|389:317,1,56.2500021457673
468,343,14400,5,0,0:0:0:0:
443,281,14520,1,0,0:0:0:0:
461,219,14640,2,0,P|473:183|508:141,1,56.2500021457673
186,61,14880,5,0,0:0:0:0:
248,63,15000,1,0,0:0:0:0:
310,68,15120,2,0,L|402:73,1,56.2500021457673
113,306,15360,5,0,0:0:0:0:
175,304,15480,1,0,0:0:0:0:
237,299,15600,2,0,L|329:294,1,56.2500021457673
186,61,15840,5,0,0:0:0:0:
172,143,15960,1,0,0:0:0:0:
268,73,16080,1,0,0:0:0:0:
256,156,16200,1,0,0:0:0:0:
335,128,16320,5,0,0:0:0:0:
353,230,16440,1,0,0:0:0:0:
454,215,16560,1,0,0:0:0:0:
439,112,16680,1,0,0:0:0:0:
419,318,16800,5,0,0:0:0:0:
317,333,16920,1,0,0:0:0:0:
353,230,17040,1,0,0:0:0:0:
156,246,17160,5,0,0:0:0:0:
258,261,17280,1,0,0:0:0:0:
222,158,17400,1,0,0:0:0:0:
66,299,17520,5,0,0:0:0:0:
44,129,17640,1,0,0:0:0:0:
202,57,17760,5,0,0:0:0:0:
291,62,17880,1,0,0:0:0:0:
380,65,18000,1,0,0:0:0:0:
469,69,18120,1,0,0:0:0:0:
421,144,18240,5,0,0:0:0:0:
243,137,18360,1,0,0:0:0:0:
332,140,18480,1,0,0:0:0:0:
154,132,18600,1,0,0:0:0:0:
326,260,18720,5,0,0:0:0:0:
153,274,18840,1,0,0:0:0:0:
421,338,18960,5,0,0:0:0:0:
248,324,19080,1,0,0:0:0:0:
262,151,19200,5,0,0:0:0:0:
248,324,19320,1,0,0:0:0:0:
139,101,19440,5,0,0:0:0:0:
153,274,19560,1,0,0:0:0:0:
248,69,19680,5,0,0:0:0:0:
262,151,19800,1,0,0:0:0:0:
344,139,19920,1,0,0:0:0:0:
332,56,20040,1,0,0:0:0:0:
359,243,20160,5,0,0:0:0:0:
344,139,20280,1,0,0:0:0:0:
464,226,20400,1,0,0:0:0:0:
446,124,20520,1,0,0:0:0:0:
263,200,20640,5,0,0:0:0:0:
307,326,20760,1,0,0:0:0:0:
179,307,20880,1,0,0:0:0:0:
266,180,21000,5,0,0:0:0:0:
321,337,21120,1,0,0:0:0:0:
161,314,21240,1,0,0:0:0:0:
101,132,21360,5,0,0:0:0:0:
52,323,21480,1,0,0:0:0:0:
22,89,21600,5,0,0:0:0:0:
101,132,21720,1,0,0:0:0:0:
193,100,21840,1,0,0:0:0:0:
272,143,21960,1,0,0:0:0:0:
238,26,22080,5,0,0:0:0:0:
317,69,22200,1,0,0:0:0:0:
409,37,22320,1,0,0:0:0:0:
488,80,22440,1,0,0:0:0:0:
383,323,22560,5,0,0:0:0:0:
400,127,22680,1,0,0:0:0:0:
222,341,22800,5,0,0:0:0:0:
205,145,22920,1,0,0:0:0:0:
477,264,23040,5,0,0:0:0:0:
282,246,23160,1,0,0:0:0:0:
400,127,23280,5,0,0:0:0:0:
205,145,23400,1,0,0:0:0:0:
44,220,23520,5,0,0:0:0:0:
58,302,23640,1,0,0:0:0:0:
140,290,23760,1,0,0:0:0:0:
128,207,23880,1,0,0:0:0:0:
194,11,24000,5,0,0:0:0:0:
95,27,24120,1,0,0:0:0:0:
110,126,24240,1,0,0:0:0:0:
209,111,24360,1,0,0:0:0:0:
386,112,24480,5,0,0:0:0:0:
386,288,24600,1,0,0:0:0:0:
209,288,24720,1,0,0:0:0:0:
209,111,24840,1,0,0:0:0:0:
422,200,24960,5,0,0:0:0:0:
297,75,25080,1,0,0:0:0:0:
172,200,25200,1,0,0:0:0:0:
297,325,25320,1,0,0:0:0:0:
386,112,25440,5,0,0:0:0:0:
422,200,25560,1,0,0:0:0:0:
386,288,25680,1,0,0:0:0:0:
297,325,25800,1,0,0:0:0:0:
297,75,25920,5,0,0:0:0:0:
209,111,26040,1,0,0:0:0:0:
172,200,26160,1,0,0:0:0:0:
209,288,26280,1,0,0:0:0:0:
67,298,26400,5,0,0:0:0:0:
209,288,26520,1,0,0:0:0:0:
346,276,26640,2,0,L|477:266,1,112.500004291535
67,101,26880,5,0,0:0:0:0:
209,111,27000,1,0,0:0:0:0:
346,123,27120,2,0,L|477:133,1,112.500004291535
446,350,27360,5,0,0:0:0:0:
458,267,27480,1,0,0:0:0:0:
376,255,27600,1,0,0:0:0:0:
362,337,27720,1,0,0:0:0:0:
277,184,27840,5,0,0:0:0:0:
292,287,27960,1,0,0:0:0:0:
189,302,28080,1,0,0:0:0:0:
172,200,28200,1,0,0:0:0:0:
89,226,28320,5,0,0:0:0:0:
101,143,28440,1,0,0:0:0:0:
19,131,28560,1,0,0:0:0:0:
5,213,28680,1,0,0:0:0:0:
74,59,28800,5,0,0:0:0:0:
207,76,28920,1,0,0:0:0:0:
341,94,29040,1,0,0:0:0:0:
474,112,29160,1,0,0:0:0:0:
397,191,29280,5,0,0:0:0:0:
296,262,29400,1,0,0:0:0:0:
308,180,29520,1,0,0:0:0:0:
378,276,29640,1,0,0:0:0:0:
232,316,29760,5,0,0:0:0:0:
137,246,29880,1,0,0:0:0:0:
219,232,30000,1,0,0:0:0:0:
149,328,30120,1,0,0:0:0:0:
25,249,30240,5,0,0:0:0:0:
25,83,30360,1,0,0:0:0:0:
166,166,30480,1,0,0:0:0:0:
70,164,30600,1,0,0:0:0:0:
166,0,30720,5,0,0:0:0:0:
166,166,30840,1,0,0:0:0:0:
307,83,30960,1,0,0:0:0:0:
211,81,31080,1,0,0:0:0:0:
406,353,31200,5,0,0:0:0:0:
288,314,31320,1,0,0:0:0:0:
288,191,31440,1,0,0:0:0:0:
406,152,31560,1,0,0:0:0:0:
478,252,31680,1,0,0:0:0:0:
475,278,31800,1,0,0:0:0:0:
93,287,31920,5,0,0:0:0:0:
211,248,32040,1,0,0:0:0:0:
211,125,32160,1,0,0:0:0:0:
93,86,32280,1,0,0:0:0:0:
21,186,32400,1,0,0:0:0:0:
24,212,32520,1,0,0:0:0:0:
251,228,32640,5,0,0:0:0:0:
297,101,32760,1,0,0:0:0:0:
170,54,32880,1,0,0:0:0:0:
125,183,33000,1,0,0:0:0:0:
411,227,33120,5,0,0:0:0:0:
300,190,33240,1,0,0:0:0:0:
231,285,33360,1,0,0:0:0:0:
299,379,33480,1,0,0:0:0:0:
412,344,33600,1,0,0:0:0:0:
427,309,33720,1,0,0:0:0:0:
208,197,33840,5,0,0:0:0:0:
208,26,33960,1,0,0:0:0:0:
353,112,34080,1,0,0:0:0:0:
208,197,34200,1,0,0:0:0:0:
158,285,34320,5,0,0:0:0:0:
56,109,34440,1,0,0:0:0:0:
56,285,34560,1,0,0:0:0:0:
158,109,34680,1,0,0:0:0:0:
6,197,34800,1,0,0:0:0:0:
208,197,34920,1,0,0:0:0:0:
446,179,35040,5,0,0:0:0:0:
335,216,35160,1,0,0:0:0:0:
266,121,35280,1,0,0:0:0:0:
334,27,35400,1,0,0:0:0:0:
447,62,35520,1,0,0:0:0:0:
462,97,35640,1,0,0:0:0:0:
97,159,35760,5,0,0:0:0:0:
208,197,35880,1,0,0:0:0:0:
208,313,36000,1,0,0:0:0:0:
97,349,36120,1,0,0:0:0:0:
29,254,36240,1,0,0:0:0:0:
31,230,36360,1,0,0:0:0:0:
303,152,36480,5,0,0:0:0:0:
267,297,36600,1,0,0:0:0:0:
125,257,36720,1,0,0:0:0:0:
163,117,36840,1,0,0:0:0:0:
371,57,36960,5,0,0:0:0:0:
482,95,37080,1,0,0:0:0:0:
482,211,37200,1,0,0:0:0:0:
371,247,37320,1,0,0:0:0:0:
303,152,37440,1,0,0:0:0:0:
371,57,37560,1,0,0:0:0:0:
401,150,37680,5,0,0:0:0:0:
335,329,37800,1,0,0:0:0:0:
212,183,37920,1,0,0:0:0:0:
401,150,38040,1,0,0:0:0:0:
335,329,38160,5,0,0:0:0:0:
84,299,38280,1,0,0:0:0:0:
404,211,38400,5,0,0:0:0:0:
153,241,38520,1,0,0:0:0:0:
432,79,38640,5,0,0:0:0:0:
197,172,38760,1,0,0:0:0:0:
215,88,38880,5,0,0:0:0:0:
256,192,38910,12,0,39480,0:0:0:0:
384,103,39600,5,0,0:0:0:0:
256,192,39630,12,0,40320,0:0:0:0:
113,141,40560,5,0,0:0:0:0:
278,334,40800,1,0,0:0:0:0:
256,192,40830,12,0,41400,0:0:0:0:
384,103,41520,5,0,0:0:0:0:
256,192,41550,12,0,42240,0:0:0:0:
278,334,42480,5,0,0:0:0:0:
315,321,42720,5,0,0:0:0:0:
256,192,42750,12,0,43320,0:0:0:0:
113,141,43440,5,0,0:0:0:0:
256,192,43470,12,0,44400,0:0:0:0:
256,192,44640,6,0,L|244:279,1,75
284,184,45120,6,0,L|272:271,1,75
316,176,45600,5,0,0:0:0:0:
71,71,45840,6,0,L|138:80,4,37.5
327,174,46320,5,0,0:0:0:0:
316,176,46350,5,0,0:0:0:0:
269,263,46440,5,0,0:0:0:0:
258,261,46470,5,0,0:0:0:0:
108,75,46560,6,0,B|163:94|210:66|210:66|263:36|330:48,1,225
355,75,47040,5,0,0:0:0:0:
367,69,47070,5,0,0:0:0:0:
49,158,47280,6,0,P|11:240|122:158,1,375
88,223,48000,5,0,0:0:0:0:
100,217,48030,5,0,0:0:0:0:
151,137,48120,1,0,0:0:0:0:
211,280,48240,1,0,0:0:0:0:
270,98,48360,1,0,0:0:0:0:
295,232,48480,6,0,B|319:225|319:225|338:263|338:263|376:258|376:258|416:335|529:286,1,225
451,224,48960,5,0,0:0:0:0:
450,212,48990,5,0,0:0:0:0:
506,131,49200,6,0,B|427:95|367:160|367:160|326:139|326:139|287:152|287:152|246:133|246:133|205:150|205:150|155:123,1,375
75,52,49920,5,0,0:0:0:0:
82,64,49950,6,0,P|61:143|83:192,1,131.25
153,270,50400,2,0,B|226:216|305:238|305:238|276:275|284:324,1,225
372,298,50880,5,0,0:0:0:0:
380,290,50910,5,0,0:0:0:0:
472,346,51120,6,0,L|454:107,1,225
446,128,51870,5,0,0:0:0:0:
46,87,52320,6,0,P|98:50|182:89,1,150
196,292,52800,5,0,0:0:0:0:
190,285,52830,5,0,0:0:0:0:
382,122,53040,6,0,P|330:85|236:164,1,187.5
356,220,53760,5,0,0:0:0:0:
355,208,53790,6,0,P|309:278|404:282,1,206.25
16,73,54240,6,0,B|46:40|103:45|136:83|135:120,1,150
123,109,54750,6,0,B|136:180|221:197|221:197|215:134|267:99,1,253.125
276,102,55620,1,0,0:0:0:0:
294,103,55680,6,0,L|299:140,1,37.5
507,167,55920,2,0,L|502:204,1,37.5
382,324,56160,6,0,P|336:345|266:282,1,150
255,298,56670,6,0,B|245:250|201:214|140:236|140:236|133:152|50:134,1,290.625
45,142,57630,6,0,L|80:139,1,28.125
285,31,57840,2,0,L|326:36,1,37.5
484,195,58080,6,0,P|452:165|472:300,1,412.5
234,334,59520,5,0,0:0:0:0:
248,329,59550,6,0,B|194:320|194:320|181:331|181:331|132:324|132:324|93:333|93:333|82:344|82:344|35:350,1,225
88,99,60000,6,0,L|77:184,1,75
191,82,60360,6,0,L|200:156,1,75
284,44,60720,5,0,0:0:0:0:
290,60,60780,1,0,0:0:0:0:
296,78,60840,1,0,0:0:0:0:
301,92,60900,1,0,0:0:0:0:
307,108,60960,1,0,0:0:0:0:
424,186,61080,5,0,0:0:0:0:
415,178,61110,5,0,0:0:0:0:
340,239,61200,5,0,0:0:0:0:
315,219,61230,5,0,0:0:0:0:
225,371,61440,5,0,0:0:0:0:
174,360,61470,5,0,0:0:0:0:
