osu file format v14

[General]
AudioFilename: audio.mp3
AudioLeadIn: 0
PreviewTime: 8212
Countdown: 0
SampleSet: Soft
StackLeniency: 0.7
Mode: 0
LetterboxInBreaks: 0
WidescreenStoryboard: 1

[Editor]
Bookmarks: 10815,20661,30828,50212,60058,79751,99443,109597,128982
DistanceSpacing: 1.1
BeatDivisor: 4
GridSize: 8
TimelineZoom: 1

[Metadata]
Title:Identity
TitleUnicode:アイデンティティ
Artist:Sou x Ivudot
ArtistUnicode:Sou × いゔどっと
Creator:AirinCat
Version:Normal
Source:
Tags:763 kanaria cover japanese pop jpop utaite electronic vocaloid
BeatmapID:4115410
BeatmapSetID:1727268

[Difficulty]
HPDrainRate:3
CircleSize:3
OverallDifficulty:4
ApproachRate:5.6
SliderMultiplier:1
SliderTickRate:1

[Events]
//Background and Video events
0,0,"screenshot.png",0,0
//Break Periods
//Storyboard Layer 0 (Background)
//Storyboard Layer 1 (Fail)
//Storyboard Layer 2 (Pass)
//Storyboard Layer 3 (Foreground)
//Storyboard Layer 4 (Overlay)
//Storyboard Sound Samples

[TimingPoints]
982,307.692307692308,4,2,1,50,1,0
982,-125,4,2,1,50,0,0
9751,-125,4,2,1,40,0,0
10828,-100,4,2,1,80,0,0
18674,-100,4,2,1,80,0,0
20212,-111.111111111111,4,2,1,70,0,0
20674,-111.111111111111,4,2,1,60,0,0
23135,-100,4,2,1,70,0,0
23443,-100,4,2,1,80,0,0
23751,-100,4,2,1,80,0,0
24058,-100,4,2,1,80,0,0
24982,-100,4,2,1,60,0,0
26212,-100,4,2,1,70,0,0
26828,-100,4,2,1,80,0,0
29905,-100,4,2,1,50,0,0
30828,-100,4,2,1,80,0,0
40674,-100,4,2,1,80,0,1
40982,-100,4,2,1,80,0,0
47751,-100,4,2,1,80,0,0
48058,-100,4,2,1,80,0,0
48366,-100,4,2,1,80,0,0
48674,-100,4,2,1,80,0,0
48982,-100,4,2,1,80,0,0
49289,-100,4,2,1,80,0,0
49597,-100,4,2,1,80,0,0
67751,-100,4,2,1,80,0,0
68058,-100,4,2,1,80,0,0
68366,-100,4,2,1,80,0,0
69905,-111.111111111111,4,2,1,60,0,0
89597,-105.263157894737,4,2,1,65,0,0
99443,-125,4,2,1,60,0,0
101905,-100,4,2,1,70,0,0
102213,-100,4,2,1,80,0,0
102520,-111.111111111111,4,2,1,80,0,0
102828,-100,4,2,1,80,0,0
103751,-100,4,2,1,60,0,0
104982,-100,4,2,1,70,0,0
105597,-100,4,2,1,80,0,0
108674,-166.666666666667,4,2,1,40,0,0
109597,-100,4,2,1,80,0,0
119443,-100,4,2,1,80,0,1
119751,-100,4,2,1,80,0,0
126520,-100,4,2,1,80,0,0
126827,-100,4,2,1,80,0,0
127135,-100,4,2,1,80,0,0
127443,-100,4,2,1,80,0,0
127751,-100,4,2,1,80,0,0
128058,-100,4,2,1,80,0,0
128366,-100,4,2,1,80,0,0
146212,-100,4,2,1,80,0,0
146519,-100,4,2,1,80,0,0
146827,-100,4,2,1,80,0,0
147135,-100,4,2,1,80,0,0
147597,-100,4,2,1,60,0,0
148366,-125,4,2,1,60,0,0
148674,-125,4,2,2,60,0,0
148751,-125,4,2,1,30,0,0

[Colours]
Combo1 : 254,63,63
Combo2 : 153,17,17
Combo3 : 218,126,126

[HitObjects]
13,283,982,6,0,L|1:226,2,40,2|2|2,1:2|0:2|1:2,0:0:0:0:
92,331,1597,1,2,1:2:0:0:
92,331,1751,1,2,0:2:0:0:
166,283,2058,2,0,L|244:299,1,80,2|0,0:2|0:2,0:2:0:0:
274,331,2520,1,2,1:2:0:0:
361,321,2828,1,2,1:2:0:0:
411,249,3135,1,2,1:2:0:0:
366,173,3443,6,0,L|375:126,2,40,2|2|2,1:2|0:2|1:2,0:0:0:0:
281,181,4058,1,2,1:2:0:0:
281,181,4212,1,2,0:2:0:0:
213,237,4520,2,0,L|135:215,1,80,2|0,0:2|0:2,0:2:0:0:
96,194,4982,1,2,1:2:0:0:
83,107,5289,1,2,1:2:0:0:
144,43,5597,1,2,1:2:0:0:
231,38,5905,6,0,L|240:-10,2,40,2|2|2,1:2|0:2|1:2,0:0:0:0:
288,112,6520,1,2,1:2:0:0:
288,112,6674,1,2,0:2:0:0:
371,83,6982,2,0,L|456:109,1,80,2|0,0:2|0:2,0:2:0:0:
462,147,7443,1,2,1:2:0:0:
408,216,7751,1,2,1:2:0:0:
455,289,8058,1,2,1:2:0:0:
381,337,8366,6,0,L|342:326,1,40,2|2,1:2|0:2,0:0:0:0:
298,331,8674,1,2,1:2:0:0:
240,272,8982,1,2,1:2:0:0:
240,272,9135,1,2,0:2:0:0:
175,331,9443,2,0,L|92:352,1,80,2|2,0:2|0:2,0:2:0:0:
26,76,10828,6,0,L|123:95,1,100,6|8,1:2|0:2,0:2:0:0:
167,130,11289,2,0,L|272:105,1,100,2|0,0:2|1:2,0:0:0:0:
292,59,11751,1,10,0:2:0:0:
398,85,12058,2,0,P|413:140|422:182,1,100,2|8,1:2|0:2,0:2:0:0:
466,215,12520,2,0,P|454:260|445:319,1,100,2|0,1:2|1:2,0:2:0:0:
398,341,12982,1,10,0:2:0:0:
288,348,13289,6,0,P|236:336|188:331,1,100,2|8,1:2|0:2,0:0:0:0:
157,285,13751,2,0,P|165:231|171:182,1,100,2|0,1:2|1:2,0:2:0:0:
208,145,14212,2,0,P|236:148|263:152,1,50,8|2,0:2|0:2,0:0:0:0:
306,124,14520,1,2,1:2:0:0:
255,32,14828,1,8,0:2:0:0:
255,32,14982,2,0,P|204:27|147:12,1,100,2|2,1:2|1:2,0:2:0:0:
102,24,15443,1,8,0:2:0:0:
26,104,15751,6,0,P|34:147|45:216,1,100,2|8,1:2|0:2,0:2:0:0:
2,239,16212,2,0,P|11:287|19:344,1,100,2|2,0:2|1:2,0:0:0:0:
67,363,16674,1,10,0:2:0:0:
167,316,16982,2,0,P|210:324|274:336,1,100,2|8,1:2|0:2,0:2:0:0:
307,369,17443,2,0,P|353:361|419:354,1,100,2|0,1:2|1:2,0:2:0:0:
435,308,17905,1,10,0:2:0:0:
353,234,18212,6,0,P|341:183|338:133,1,100,2|8,1:2|0:2,0:0:0:0:
362,85,18674,2,0,P|406:64|461:76,1,100,2|2,1:2|1:2,0:2:0:0:
503,99,19135,2,0,L|512:162,1,50,10|2,0:2|0:2,0:0:0:0:
472,187,19443,1,2,1:2:0:0:
507,296,19751,1,8,0:2:0:0:
507,296,19905,1,2,1:2:0:0:
428,356,20212,2,0,P|388:347|329:332,1,89.9999972534181,2|0,1:1|0:0,0:2:0:0:
297,309,20674,6,0,L|208:327,1,89.9999972534181,4|0,1:2|0:2,0:2:0:0:
121,373,21289,2,0,P|106:297|98:271,1,89.9999972534181,8|0,0:2|0:2,0:2:0:0:
140,195,21905,1,2,0:1:0:0:
140,195,22058,2,0,P|179:186|245:169,1,89.9999972534181,8|0,0:2|0:0,0:0:0:0:
262,139,22520,2,0,P|310:149|360:165,1,89.9999972534181,2|8,1:2|0:2,0:0:0:0:
387,201,22982,1,8,0:2:0:0:
387,201,23135,5,2,1:1:0:0:
365,309,23443,1,2,1:1:0:0:
270,365,23751,1,2,1:1:0:0:
160,360,24058,1,2,1:1:0:0:
84,280,24366,1,4,1:2:0:0:
207,97,24982,6,0,P|268:137|341:131,1,150,4|2,1:2|1:2,0:2:0:0:
385,97,25597,1,0,1:2:0:0:
484,144,25905,1,0,1:2:0:0:
470,252,26212,1,0,1:2:0:0:
363,279,26520,1,0,1:2:0:0:
281,205,26828,2,0,L|226:217,1,50,2|8,1:1|0:2,0:0:0:0:
181,194,27135,2,0,L|129:206,1,50,2|8,1:1|0:2,0:0:0:0:
80,185,27443,2,0,P|91:229|102:285,1,100,2|2,1:1|1:1,0:2:0:0:
178,361,28058,6,0,P|225:349|285:339,1,100,6|2,1:2|1:2,0:2:0:0:
321,307,28520,1,10,0:2:0:0:
321,307,28674,2,0,L|384:317,1,50,2|10,1:2|0:2,0:0:0:0:
417,343,28982,2,0,L|478:329,1,50,2|10,1:2|0:2,0:0:0:0:
507,232,29443,1,2,1:3:0:0:
507,232,29597,1,2,1:3:0:0:
192,62,30828,6,0,P|129:72|80:80,1,100,4|0,1:2|1:2,0:2:0:0:
23,163,31443,2,0,L|35:224,1,50,2|2,1:2|0:2,0:0:0:0:
18,268,31751,1,2,1:1:0:0:
18,268,31905,2,0,P|75:257|129:249,1,100,2|2,0:2|0:2,0:2:0:0:
169,264,32366,1,2,1:2:0:0:
241,346,32674,1,2,1:2:0:0:
347,318,32982,6,0,P|359:261|376:212,1,100,2|0,1:1|1:2,0:2:0:0:
422,199,33443,2,0,P|415:142|419:89,1,100,2|0,0:2|0:2,0:0:0:0:
386,53,33905,1,2,1:1:0:0:
279,80,34212,2,0,P|228:77|176:59,1,100,2|0,1:1|1:2,0:2:0:0:
144,29,34674,1,2,0:1:0:0:
144,29,34828,1,2,1:1:0:0:
45,76,35135,1,2,1:2:0:0:
17,182,35443,5,2,1:1:0:0:
105,247,35751,2,0,P|160:239|210:226,1,100,2|0,1:1|1:2,0:2:0:0:
288,158,36366,2,0,P|315:159|351:174,1,50,2|2,1:2|0:2,0:0:0:0:
365,213,36674,1,2,1:1:0:0:
466,170,36982,1,2,1:2:0:0:
462,60,37289,1,2,1:2:0:0:
362,12,37597,2,0,P|340:15|311:24,1,50,2|2,1:2|0:2,0:0:0:0:
270,58,37905,6,0,P|195:58|132:19,1,150,2|2,1:1|0:1,0:2:0:0:
78,24,38520,2,0,P|33:83|41:155,1,150,2|2,1:1|0:1,0:2:0:0:
31,209,39135,2,0,P|101:185|173:199,1,150,2|2,1:1|1:2,0:2:0:0:
199,248,39751,1,2,1:1:0:0:
245,347,40058,1,2,1:2:0:0:
353,367,40366,1,2,1:2:0:0:
425,283,40674,6,0,B|475:276|475:276|523:319,2,100,4|0|2,1:1|1:2|1:2,0:2:0:0:
336,226,41597,1,2,1:1:0:0:
336,226,41751,1,2,0:2:0:0:
404,141,42058,1,2,0:2:0:0:
404,141,42212,1,2,1:2:0:0:
331,57,42520,1,2,1:2:0:0:
221,46,42828,6,0,P|177:59|111:66,1,100,2|0,1:1|1:2,0:2:0:0:
79,42,43289,1,2,0:2:0:0:
79,42,43443,1,2,1:2:0:0:
5,123,43751,1,2,1:1:0:0:
65,214,44058,2,0,P|78:259|83:317,1,100,2|0,1:1|1:2,0:2:0:0:
119,360,44520,1,2,0:1:0:0:
119,360,44674,1,2,1:1:0:0:
203,289,44982,1,2,1:2:0:0:
297,344,45289,5,2,1:1:0:0:
404,319,45597,2,0,P|418:271|425:215,1,100,2|0,1:1|1:2,0:2:0:0:
512,148,46212,2,0,P|506:124|501:91,1,50,2|2,1:2|0:2,0:0:0:0:
510,44,46520,1,2,1:1:0:0:
408,1,46828,1,2,1:2:0:0:
324,72,47135,1,2,1:2:0:0:
225,23,47443,2,0,P|205:27|175:32,1,50,2|2,1:2|0:2,0:0:0:0:
122,16,47751,6,0,P|132:73|140:128,1,100,2|2,1:1|1:1,0:2:0:0:
218,189,48366,1,2,1:1:0:0:
144,270,48674,1,2,1:1:0:0:
192,368,48982,1,2,1:1:0:0:
300,383,49289,1,2,1:1:0:0:
362,292,49597,1,2,1:1:0:0:
326,187,49905,1,2,1:1:0:0:
243,114,50212,6,0,P|170:128|87:150,1,150,4|0,1:2|0:2,0:2:0:0:
42,137,50828,1,0,1:2:0:0:
56,28,51135,1,0,1:2:0:0:
163,5,51443,2,0,P|202:14|268:23,1,100,2|0,1:1|1:2,0:2:0:0:
341,97,52058,2,0,P|397:87|442:71,1,100,0|0,1:2|1:2,0:2:0:0:
451,182,52674,6,0,P|474:228|485:291,1,100,2|0,1:1|1:2,0:2:0:0:
475,332,53135,1,0,0:2:0:0:
475,332,53289,1,0,1:2:0:0:
366,315,53597,1,2,1:1:0:0:
278,381,53905,2,0,P|247:305|233:218,1,150,2|2,1:1|0:1,0:2:0:0:
244,184,54520,2,0,P|268:174|295:169,1,50,2|2,1:1|0:2,0:0:0:0:
346,165,54828,2,0,P|371:156|399:149,1,50,2|2,1:2|0:2,0:0:0:0:
447,160,55135,6,0,P|471:117|467:68,1,100,2|2,1:1|1:1,0:2:0:0:
428,36,55597,1,0,0:2:0:0:
428,36,55751,1,0,1:2:0:0:
319,21,56058,1,0,1:2:0:0:
242,100,56366,2,0,P|189:112|141:131,1,100,2|0,1:1|1:2,0:2:0:0:
44,85,56982,1,0,1:2:0:0:
5,187,57289,1,2,1:1:0:0:
90,256,57597,6,0,P|105:305|116:354,1,100,2|0,1:1|1:2,0:2:0:0:
173,368,58058,1,0,0:2:0:0:
173,368,58212,1,0,1:2:0:0:
245,285,58520,1,2,1:1:0:0:
335,348,58828,2,0,P|409:344|490:309,1,150,2|2,1:1|0:1,0:2:0:0:
502,266,59443,2,0,P|482:219|479:156,1,100,2|2,1:1|1:2,0:0:0:0:
436,142,59905,1,2,0:2:0:0:
436,142,60058,6,0,P|376:149|328:166,1,100,6|0,1:2|1:2,0:2:0:0:
257,236,60674,1,2,1:2:0:0:
257,236,60828,2,0,P|211:226|151:215,1,100,2|2,0:2|0:2,0:2:0:0:
129,170,61289,1,2,1:1:0:0:
151,65,61597,1,2,1:2:0:0:
151,65,61751,1,2,0:2:0:0:
245,9,62058,2,0,P|283:19|346:33,1,100,2|2,0:2|0:2,0:2:0:0:
363,83,62520,6,0,P|407:93|474:111,1,100,2|2,1:1|1:2,0:2:0:0:
486,161,62982,1,2,0:2:0:0:
486,161,63135,1,2,1:2:0:0:
403,233,63443,2,0,P|405:250|414:286,1,50,2|0,1:1|0:2,0:2:0:0:
454,319,63751,2,0,P|371:336|296:358,1,150,2|2,1:1|0:1,0:2:0:0:
262,323,64366,2,0,P|252:292|248:270,1,50,2|2,1:1|0:2,0:0:0:0:
209,235,64674,2,0,P|211:206|214:178,1,50,2|2,1:2|0:2,0:0:0:0:
250,144,64982,5,2,1:1:0:0:
166,81,65289,1,2,1:1:0:0:
166,81,65443,2,0,P|109:93|57:107,1,100,2|2,0:2|0:2,0:2:0:0:
24,137,65905,1,2,1:2:0:0:
1,244,66212,2,0,L|18:311,1,50,2|2,1:1|0:2,0:0:0:0:
63,327,66520,1,2,1:2:0:0:
63,327,66674,1,2,0:2:0:0:
157,269,66982,2,0,P|202:250|251:259,1,100,2|2,0:2|0:2,0:2:0:0:
295,291,67443,5,2,1:1:0:0:
396,249,67751,1,2,1:1:0:0:
406,139,68058,1,2,1:1:0:0:
329,67,68366,1,2,1:1:0:0:
329,67,68520,1,0,1:2:0:0:
131,358,69905,6,0,L|42:374,2,89.9999972534181,2|0|0,1:1|1:2|1:2,0:2:0:0:
201,288,70828,1,0,1:2:0:0:
287,335,71135,2,0,P|329:340|383:350,1,89.9999972534181,2|0,1:1|1:2,0:2:0:0:
469,315,71751,1,0,1:2:0:0:
490,218,72058,1,0,1:2:0:0:
432,137,72366,6,0,P|375:130|331:117,1,89.9999972534181,2|0,1:1|1:2,0:2:0:0:
268,187,72982,2,0,P|215:198|173:213,1,89.9999972534181,0|0,1:2|1:2,0:0:0:0:
87,176,73597,2,0,P|68:133|62:85,1,89.9999972534181,2|0,1:1|1:2,0:2:0:0:
122,11,74212,1,0,1:2:0:0:
214,46,74520,2,0,P|240:39|268:29,1,44.999998626709,2|0,1:1|0:0,0:2:0:0:
298,5,74828,6,0,P|349:15|397:30,1,89.9999972534181,2|0,1:1|1:2,0:2:0:0:
432,113,75443,1,0,1:2:0:0:
360,182,75751,1,0,1:2:0:0:
391,275,76058,2,0,P|434:291|481:304,2,89.9999972534181,2|0|0,1:1|1:2|1:2,0:2:0:0:
303,322,76982,1,2,1:1:0:0:
214,278,77289,6,0,P|167:288|120:305,1,89.9999972534181,2|0,1:1|1:2,0:2:0:0:
28,294,77905,1,0,1:2:0:0:
26,195,78212,1,0,1:2:0:0:
126,195,78520,2,0,P|148:151|143:105,1,89.9999972534181,2|0,1:1|1:2,0:2:0:0:
110,83,78982,1,0,0:2:0:0:
110,83,79135,1,0,1:2:0:0:
175,8,79443,2,0,P|197:13|225:19,1,44.999998626709,2|0,1:1|0:0,0:2:0:0:
250,63,79751,5,6,1:2:0:0:
250,63,79905,2,0,P|300:53|347:35,1,89.9999972534181,2|0,0:2|0:2,0:2:0:0:
381,71,80366,1,2,1:2:0:0:
381,71,80520,2,0,P|395:112|399:167,1,89.9999972534181,2|0,0:2|0:2,0:0:0:0:
367,196,80982,1,2,1:1:0:0:
297,265,81289,1,2,1:2:0:0:
350,348,81597,2,0,P|393:356|449:375,1,89.9999972534181,2|2,1:2|1:2,0:2:0:0:
489,287,82212,5,2,1:1:0:0:
489,287,82366,2,0,P|502:232|516:187,1,89.9999972534181,2|0,0:2|0:2,0:2:0:0:
494,153,82828,1,2,1:2:0:0:
424,82,83135,1,2,1:2:0:0:
328,109,83443,2,0,P|282:96|233:91,1,89.9999972534181,2|2,1:1|1:2,0:0:0:0:
160,150,84058,1,2,1:2:0:0:
81,90,84366,2,0,P|60:96|36:103,1,44.999998626709,2|0,1:1|0:2,0:2:0:0:
19,151,84674,5,2,1:1:0:0:
19,151,84828,2,0,P|33:200|40:244,1,89.9999972534181,2|0,0:2|0:2,0:2:0:0:
17,282,85289,1,2,1:2:0:0:
70,365,85597,1,2,1:2:0:0:
169,365,85905,1,2,1:1:0:0:
220,280,86212,1,2,1:2:0:0:
166,196,86520,2,0,P|174:141|191:102,1,89.9999972534181,2|2,1:2|1:2,0:2:0:0:
276,67,87135,6,0,P|324:76|367:96,1,89.9999972534181,2|2,1:1|1:2,0:0:0:0:
385,142,87597,1,2,0:2:0:0:
385,142,87751,1,2,1:2:0:0:
365,238,88058,2,0,P|342:242|320:244,1,44.999998626709,2|0,1:2|0:2,0:2:0:0:
270,247,88366,2,0,P|282:276|289:347,1,89.9999972534181,2|2,1:1|1:2,0:0:0:0:
332,369,88828,1,2,0:2:0:0:
332,369,88982,1,2,1:2:0:0:
415,316,89289,1,2,1:1:0:0:
505,261,89597,5,6,1:2:0:0:
505,261,89751,2,0,P|491:210|478:157,1,94.9999974632264,2|0,0:2|0:2,0:2:0:0:
494,118,90212,1,2,1:2:0:0:
430,34,90520,1,2,1:2:0:0:
329,63,90828,1,2,1:1:0:0:
339,166,91135,1,2,1:2:0:0:
251,224,91443,2,0,P|201:211|146:203,1,94.9999974632264,2|2,1:2|1:2,0:2:0:0:
60,182,92058,5,2,1:1:0:0:
60,182,92212,2,0,P|43:131|38:79,1,94.9999974632264,2|0,0:2|0:2,0:2:0:0:
67,46,92674,1,2,1:2:0:0:
163,6,92982,1,2,1:2:0:0:
246,68,93289,2,0,P|286:63|344:46,1,94.9999974632264,2|2,1:1|1:2,0:0:0:0:
433,4,93905,1,2,1:2:0:0:
499,83,94212,2,0,P|505:105|512:139,1,47.4999987316132,2|0,1:1|0:2,0:2:0:0:
495,182,94520,5,2,1:1:0:0:
495,182,94674,2,0,P|448:193|396:212,1,94.9999974632264,2|0,0:2|0:2,0:2:0:0:
361,238,95135,1,2,1:2:0:0:
401,334,95443,1,2,1:2:0:0:
306,378,95751,1,2,1:1:0:0:
222,316,96058,1,2,1:2:0:0:
129,365,96366,2,0,P|67:348|32:348,1,94.9999974632264,2|2,1:2|1:2,0:2:0:0:
7,246,96982,6,0,P|23:184|24:149,1,94.9999974632264,2|2,1:1|1:2,0:0:0:0:
23,105,97443,1,2,0:2:0:0:
23,105,97597,1,2,1:2:0:0:
99,33,97905,2,0,P|125:37|153:45,1,47.4999987316132,2|0,1:2|0:2,0:2:0:0:
180,81,98212,2,0,P|234:77|273:54,1,94.9999974632264,2|2,1:1|1:2,0:0:0:0:
286,10,98674,1,2,0:2:0:0:
286,10,98828,1,2,1:2:0:0:
372,68,99135,1,2,1:1:0:0:
317,137,99443,6,0,L|342:271,1,120,6|0,1:2|1:2,0:2:0:0:
338,298,100058,2,0,L|416:280,1,80,8|0,0:2|0:2,0:2:0:0:
506,300,100674,1,2,1:1:0:0:
506,300,100828,2,0,L|491:212,1,80,8|0,0:2|0:0,0:0:0:0:
461,189,101289,2,0,L|473:106,1,80,0|8,1:2|0:0,0:0:0:0:
447,80,101751,1,8,0:0:0:0:
447,80,101905,5,2,1:1:0:0:
343,43,102212,1,2,1:1:0:0:
258,95,102520,1,2,1:1:0:0:
172,26,102828,1,2,1:1:0:0:
73,74,103135,1,4,1:2:0:0:
132,286,103751,6,0,B|204:287|202:312|293:319,1,150,4|2,1:2|1:2,0:2:0:0:
329,298,104366,1,0,1:2:0:0:
389,206,104674,1,0,1:2:0:0:
331,111,104982,1,0,1:2:0:0:
225,79,105289,1,0,1:2:0:0:
124,122,105597,2,0,L|112:183,1,50,2|8,1:1|0:2,0:0:0:0:
74,209,105905,2,0,L|83:266,1,50,2|8,1:1|0:2,0:0:0:0:
66,311,106212,2,0,L|166:290,1,100,2|2,1:1|1:1,0:2:0:0:
264,335,106828,6,0,L|371:358,1,100,6|2,1:2|1:2,0:2:0:0:
414,335,107289,1,10,0:2:0:0:
414,335,107443,2,0,L|428:278,1,50,2|10,1:2|0:2,0:0:0:0:
473,257,107751,2,0,L|466:204,1,50,2|10,1:2|0:2,0:0:0:0:
386,140,108212,1,2,1:3:0:0:
386,140,108366,1,2,1:3:0:0:
183,355,109597,6,0,P|120:365|70:376,1,100,4|0,1:2|1:2,0:2:0:0:
10,291,110212,2,0,L|1:241,1,50,2|2,1:2|0:2,0:0:0:0:
39,202,110520,1,2,1:1:0:0:
39,202,110674,2,0,P|96:191|150:183,1,100,2|2,0:2|0:2,0:2:0:0:
186,208,111135,1,2,1:2:0:0:
269,279,111443,1,2,1:2:0:0:
365,225,111751,6,0,P|377:168|394:119,1,100,2|0,1:1|1:2,0:2:0:0:
392,73,112212,2,0,P|339:64|286:41,1,100,2|0,0:2|0:2,0:0:0:0:
258,5,112674,1,2,1:1:0:0:
189,90,112981,2,0,P|138:93|86:111,1,100,2|0,1:1|1:2,0:2:0:0:
45,88,113443,1,2,0:1:0:0:
45,88,113597,1,2,1:1:0:0:
19,194,113904,1,2,1:2:0:0:
35,302,114212,5,2,1:1:0:0:
136,344,114520,2,0,P|191:336|241:323,1,100,2|0,1:1|1:2,0:2:0:0:
327,267,115135,2,0,P|354:268|390:283,1,50,2|2,1:2|0:2,0:0:0:0:
423,303,115443,1,2,1:1:0:0:
486,212,115751,1,2,1:2:0:0:
417,126,116058,1,2,1:2:0:0:
314,166,116366,2,0,P|292:169|263:178,1,50,2|2,1:2|0:2,0:0:0:0:
211,189,116674,6,0,B|203:118|154:127|160:39,1,150,2|2,1:1|0:1,0:2:0:0:
189,5,117289,2,0,B|262:1|258:32|359:30,1,150,2|2,1:1|0:1,0:2:0:0:
388,12,117904,2,0,P|459:27|498:89,1,150,2|2,1:1|1:2,0:2:0:0:
478,141,118520,1,2,1:1:0:0:
411,228,118827,1,2,1:2:0:0:
300,228,119135,1,2,0:2:0:0:
229,143,119443,6,0,B|222:93|222:93|265:45,2,100,4|0|2,1:1|1:2|1:2,0:2:0:0:
185,246,120366,1,2,1:1:0:0:
185,246,120520,1,2,0:2:0:0:
95,192,120827,1,2,0:2:0:0:
95,192,120981,1,2,1:2:0:0:
14,267,121289,1,2,1:2:0:0:
68,362,121597,6,0,P|120:350|165:342,1,100,2|0,1:1|1:2,0:2:0:0:
204,303,122058,1,2,0:2:0:0:
204,303,122212,1,2,1:2:0:0:
288,373,122520,1,2,1:1:0:0:
366,296,122827,2,0,P|361:246|347:198,1,100,2|0,1:1|1:2,0:2:0:0:
358,147,123289,1,2,0:1:0:0:
358,147,123443,1,2,1:1:0:0:
467,139,123751,1,2,1:2:0:0:
510,239,124058,5,2,1:1:0:0:
478,344,124366,2,0,P|421:351|380:371,1,100,2|0,1:1|1:2,0:2:0:0:
278,332,124981,2,0,P|272:308|267:275,1,50,2|2,1:2|0:2,0:0:0:0:
287,231,125289,1,2,1:1:0:0:
320,126,125597,1,2,1:2:0:0:
236,55,125904,1,2,1:2:0:0:
126,63,126212,2,0,P|106:67|76:72,1,50,2|2,1:2|0:2,0:0:0:0:
30,102,126520,6,0,P|40:159|48:214,1,100,2|2,1:1|1:1,0:2:0:0:
36,310,127135,1,2,1:1:0:0:
142,339,127443,1,2,1:1:0:0:
247,369,127751,1,2,1:1:0:0:
319,286,128058,1,2,1:1:0:0:
391,203,128366,1,2,1:1:0:0:
464,121,128674,1,2,1:1:0:0:
385,44,128981,6,0,B|313:49|314:67|229:80,1,150,6|0,1:2|0:2,0:2:0:0:
185,66,129597,1,0,1:2:0:0:
212,172,129904,1,0,1:2:0:0:
126,241,130212,2,0,P|77:227|28:216,1,100,2|0,1:1|1:2,0:2:0:0:
6,108,130827,2,0,P|62:98|107:82,1,100,0|0,1:2|1:2,0:2:0:0:
181,6,131443,6,0,P|204:52|215:115,1,100,2|0,1:1|1:2,0:2:0:0:
261,137,131904,1,0,0:2:0:0:
261,137,132058,1,0,1:2:0:0:
359,185,132366,1,2,1:1:0:0:
460,142,132674,2,0,P|490:74|479:1,1,150,2|2,1:1|0:1,0:2:0:0:
424,1,133289,2,0,P|399:5|376:15,1,50,2|2,1:1|0:2,0:0:0:0:
321,7,133597,2,0,P|296:13|273:21,1,50,0|0,1:2|0:2,0:0:0:0:
267,76,133904,6,0,P|218:87|173:109,1,100,2|2,1:1|1:1,0:2:0:0:
138,74,134366,1,0,0:2:0:0:
138,74,134520,1,0,1:2:0:0:
41,126,134827,1,0,1:2:0:0:
26,235,135135,2,0,P|40:280|54:337,1,100,2|0,1:1|1:2,0:2:0:0:
156,368,135751,1,0,1:2:0:0:
246,305,136058,1,2,1:1:0:0:
342,358,136366,6,0,P|398:342|446:335,1,100,2|0,1:1|1:2,0:2:0:0:
479,298,136827,1,0,0:2:0:0:
479,298,136981,1,0,1:2:0:0:
413,209,137289,1,2,1:1:0:0:
304,190,137597,2,0,B|229:197|238:220|148:237,1,150,2|2,1:1|0:1,0:2:0:0:
109,216,138212,2,0,P|89:169|86:106,1,100,2|2,1:1|1:2,0:0:0:0:
91,69,138674,1,2,0:2:0:0:
91,69,138827,6,0,P|151:62|199:45,1,100,6|0,1:2|1:2,0:2:0:0:
288,108,139443,1,2,1:2:0:0:
288,108,139597,2,0,P|335:93|394:87,1,100,2|2,0:2|0:2,0:2:0:0:
431,56,140058,1,2,1:1:0:0:
510,140,140366,1,2,1:2:0:0:
510,140,140520,1,2,0:2:0:0:
485,247,140827,2,0,P|433:255|387:270,1,100,2|2,0:2|0:2,0:2:0:0:
362,319,141289,6,0,P|313:306|264:295,1,100,2|2,1:1|1:2,0:0:0:0:
239,251,141751,1,2,0:2:0:0:
239,251,141904,1,2,1:2:0:0:
181,157,142212,2,0,P|183:140|192:104,1,50,2|0,1:1|0:2,0:2:0:0:
146,74,142520,2,0,P|73:83|30:142,1,150,2|2,1:1|0:1,0:2:0:0:
9,193,143135,2,0,L|21:241,1,50,2|2,1:1|0:2,0:0:0:0:
65,275,143443,2,0,P|71:296|79:333,1,50,2|2,1:2|0:2,0:0:0:0:
59,375,143751,5,2,1:1:0:0:
172,367,144058,1,2,1:1:0:0:
172,367,144212,2,0,P|229:355|281:341,1,100,2|2,0:2|0:2,0:2:0:0:
288,292,144674,1,2,1:2:0:0:
214,210,144981,2,0,L|231:143,1,50,2|2,1:1|0:2,0:0:0:0:
271,128,145289,1,2,1:2:0:0:
271,128,145443,1,2,0:2:0:0:
353,200,145751,2,0,P|409:210|461:224,1,100,2|2,0:2|0:2,0:2:0:0:
497,191,146212,5,2,1:1:0:0:
496,80,146520,1,2,1:1:0:0:
411,10,146827,1,2,1:1:0:0:
306,30,147135,1,2,1:1:0:0:
306,30,147289,1,0,1:2:0:0:
221,100,147597,6,0,P|232:145|239:201,1,100,0|0,0:2|0:2,0:2:0:0:
190,298,148212,1,0,0:2:0:0:
190,298,148366,2,0,P|149:308|110:322,1,80,0|4,0:2|0:3,0:2:0:0:
256,192,148751,12,0,153597,0:0:0:0:
