osu file format v14

[General]
AudioFilename: audio.mp3
AudioLeadIn: 0
PreviewTime: 59371
Countdown: 0
SampleSet: Soft
StackLeniency: 0.3
Mode: 0
LetterboxInBreaks: 0
WidescreenStoryboard: 0

[Editor]
Bookmarks: 510,13751,26992,40233,53475,55130,56785,58440,60095,83268,84912,86567,88222,88855
DistanceSpacing: 0.6
BeatDivisor: 4
GridSize: 8
TimelineZoom: 1.9

[Metadata]
Title:Mr. Fixer (TV Size)
TitleUnicode:ミスターフィクサー (TV Size)
Artist:Sou
ArtistUnicode:Sou
Creator:Silent Rock
Version:ID:INSANE
Source:ID:INVADED
Tags:Anime Japanese OP opening J-pop jpop pop male vocal イド:インヴェイデッド Lian2002 -Lian-
BeatmapID:2345195
BeatmapSetID:1122300

[Difficulty]
HPDrainRate:5
CircleSize:4
OverallDifficulty:7.4
ApproachRate:9
SliderMultiplier:2
SliderTickRate:1

[Events]
//Background and Video events
0,0,"ID.jpg",0,0
Video,-60,"IDInvaded-OP1-NCBD108021.mp4"
//Break Periods
//Storyboard Layer 0 (Background)
//Storyboard Layer 1 (Fail)
//Storyboard Layer 2 (Pass)
//Storyboard Layer 3 (Foreground)
//Storyboard Layer 4 (Overlay)
//Storyboard Sound Samples

[TimingPoints]
510,413.793103448276,4,2,1,50,1,0
510,-125,4,2,1,50,0,0
2992,-100,4,2,1,50,0,0
3820,-125,4,2,1,50,0,0
5475,-166.666666666667,4,2,1,50,0,0
6096,-100,4,2,1,50,0,0
6716,-125,4,2,1,50,0,0
10027,-166.666666666667,4,2,1,50,0,0
11268,-142.857142857143,4,2,1,50,0,0
11475,400,4,2,1,50,1,0
11475,-142.857142857143,4,2,1,50,0,0
12075,402.684563758389,4,2,1,50,1,0
12075,-100,4,2,1,70,0,0
12276,468.75,4,2,1,70,1,0
12276,-100,4,2,1,70,0,0
12510,413.793103448276,4,2,1,70,1,0
12510,-100,4,2,1,70,0,0
13337,-71.4285714285714,4,2,1,80,0,0
13647,-71.4285714285714,4,2,1,5,0,0
13751,413.793103448276,4,2,1,70,1,0
13751,-83.3333333333333,4,2,1,70,0,0
19544,-166.666666666667,4,2,1,70,0,0
20372,-83.3333333333333,4,2,1,70,0,0
26992,-100,4,2,1,60,0,0
53475,-100,4,2,1,70,0,0
55130,-100,4,2,1,70,0,0
56785,-100,4,2,1,70,0,0
58441,-100,4,2,1,70,0,0
59682,-166.666666666667,4,2,1,70,0,0
59992,-166.666666666667,4,2,1,5,0,0
60095,-76.9230769230769,4,2,1,80,0,1
65060,-66.6666666666667,4,2,1,80,0,1
65474,-76.9230769230769,4,2,1,80,0,1
65681,-71.4285714285714,4,2,1,80,0,1
66095,-76.9230769230769,4,2,1,80,0,1
71681,-62.5,4,2,1,80,0,1
72095,-71.4285714285714,4,2,1,80,0,1
72301,-66.6666666666667,4,2,1,80,0,1
72922,-83.3333333333333,4,2,1,80,0,1
73336,-76.9230769230769,4,2,1,80,0,1
78922,-66.6666666666667,4,2,1,80,0,1
79336,-71.4285714285714,4,2,1,80,0,1
79750,-76.9230769230769,4,2,1,80,0,1
83268,-83.3333333333333,4,2,1,70,0,0
84510,402.684563758389,4,2,1,70,1,0
84510,-83.3333333333333,4,2,1,70,0,0
84912,413.793103448276,4,2,1,70,1,0
84912,-83.3333333333333,4,2,1,70,0,0
85877,428.571428571429,4,2,1,70,1,0
85877,-83.3333333333333,4,2,1,70,0,0
85984,379.746835443038,4,2,1,70,1,0
85984,-83.3333333333333,4,2,1,70,0,0
86173,394.736842105263,4,2,1,70,1,0
86173,-83.3333333333333,4,2,1,70,0,0
86567,413.793103448276,4,2,1,70,1,0
86567,-83.3333333333333,4,2,1,70,0,0
88151,-83.3333333333333,4,2,1,50,0,0
88222,422.535211267606,4,2,1,70,1,0
88222,-100,4,2,1,70,0,0
88855,413.793103448276,4,2,1,70,1,0
88855,-100,4,2,1,70,0,0

[Colours]
Combo1 : 192,192,192
Combo2 : 250,185,150
Combo3 : 190,160,120
Combo4 : 252,236,166

[HitObjects]
133,228,510,6,0,L|123:311,1,80,2|2,0:0|0:0,0:0:0:0:
233,180,923,1,2,0:0:0:0:
228,140,1026,1,2,0:0:0:0:
223,100,1129,1,2,0:0:0:0:
344,210,1337,2,0,B|388:202|388:202|411:182|411:182|455:175,2,120,2|2|2,0:0|0:0|0:0,0:0:0:0:
454,175,2165,5,2,0:0:0:0:
344,108,2372,1,2,0:0:0:0:
378,306,2578,1,2,0:0:0:0:
428,295,2681,1,2,0:0:0:0:
480,283,2784,1,2,0:0:0:0:
258,196,2992,2,0,L|275:344,2,150,2|2|2,0:0|0:0|0:0,0:0:0:0:
275,344,3820,5,2,0:0:0:0:
138,282,4027,2,0,L|147:202,1,80,2|2,0:0|0:0,0:0:0:0:
151,162,4338,1,2,0:0:0:0:
156,122,4441,1,2,0:0:0:0:
258,196,4647,5,2,0:0:0:0:
61,322,4958,1,2,0:0:0:0:
50,88,5268,1,2,0:0:0:0:
150,162,5475,6,0,P|105:200|45:213,1,119.999996337891,2|2,0:0|0:0,0:0:0:0:
47,213,6096,6,0,B|149:206|128:279|241:266,1,200,2|2,0:0|0:0,0:0:0:0:
353,249,6716,6,0,P|290:273|291:205,1,160,2|2,0:0|0:0,0:0:0:0:
371,161,7337,5,2,0:0:0:0:
364,140,7441,1,2,0:0:0:0:
357,119,7544,1,2,0:0:0:0:
402,131,7648,1,2,0:0:0:0:
447,143,7751,1,2,0:0:0:0:
291,205,7958,2,0,L|174:173,1,120,2|2,0:0|0:0,0:0:0:0:
422,52,8578,1,2,0:0:0:0:
422,52,8682,1,2,0:0:0:0:
422,52,8785,6,0,B|468:34|468:34|447:142,1,160,2|2,0:0|0:0,0:0:0:0:
512,256,9406,2,0,P|435:239|369:281,1,160,2|2,0:0|0:0,0:0:0:0:
359,367,10027,2,0,B|384:374|384:374|369:277,1,119.999996337891,2|2,0:0|0:0,0:0:0:0:
347,123,10647,5,2,0:0:0:0:
343,134,10751,1,2,0:0:0:0:
339,145,10854,2,0,L|414:137,1,59.9999981689454,2|2,0:0|0:0,0:0:0:0:
432,113,11165,1,2,0:0:0:0:
402,116,11268,1,2,0:0:0:0:
287,231,11475,2,0,L|426:215,1,139.999995727539,2|2,0:0|3:0,0:0:0:0:
427,215,12075,5,10,0:1:0:0:
85,169,12276,1,10,0:1:0:0:
252,221,13130,5,2,3:2:0:0:
243,270,13233,1,0,3:0:0:0:
199,294,13337,2,0,L|233:76,1,209.999993591309,10|0,0:1|0:0,0:0:0:0:
246,0,13751,5,6,3:2:0:0:
344,173,13958,1,2,3:2:0:0:
94,67,14165,2,0,L|153:75,1,59.9999981689454,10|0,0:1|0:0,0:0:0:0:
232,87,14372,1,2,0:0:0:0:
53,239,14578,1,2,3:2:0:0:
15,55,14785,1,2,0:0:0:0:
15,55,14889,1,0,3:0:0:0:
15,55,14992,1,10,0:1:0:0:
159,242,15199,6,0,P|135:305|27:342,1,179.999994506836,2|8,3:2|0:1,0:0:0:0:
0,258,15613,1,2,3:2:0:0:
29,260,15716,1,2,0:0:0:0:
58,262,15820,1,10,0:1:0:0:
331,280,16027,1,2,0:0:0:0:
196,356,16234,1,0,3:0:0:0:
185,65,16441,2,0,P|201:122|204:182,1,119.999996337891,14|0,0:2|3:0,0:0:0:0:
284,147,16751,1,8,3:0:0:0:
299,145,16854,1,2,3:2:0:0:
315,143,16958,1,0,0:0:0:0:
331,141,17061,6,0,B|411:137|406:205|496:199,1,179.999994506836,6|0,3:2|0:0,0:0:0:0:
475,114,17475,1,10,0:1:0:0:
342,227,17682,1,2,0:0:0:0:
344,248,17785,1,0,0:0:0:0:
346,269,17889,1,2,3:0:0:0:
411,172,18096,1,2,0:0:0:0:
227,161,18303,1,10,0:1:0:0:
380,384,18510,6,0,P|443:335|457:240,1,179.999994506836,6|8,3:2|0:0,0:0:0:0:
411,172,18923,1,2,3:2:0:0:
359,155,19027,1,2,0:2:0:0:
305,160,19130,1,10,0:0:0:0:
265,196,19234,1,10,0:1:0:0:
228,235,19337,1,8,0:1:0:0:
175,249,19441,1,8,0:1:0:0:
124,232,19544,6,0,P|89:221|60:203,2,59.9999981689454,2|2|2,0:0|0:0|0:0,0:0:0:0:
343,259,20165,1,12,0:0:0:0:
228,235,20372,6,0,B|233:187|233:187|247:162|247:162|252:120,1,119.999996337891,2|0,3:2|3:0,0:0:0:0:
320,68,20682,1,2,0:0:0:0:
354,62,20785,1,10,0:1:0:0:
386,78,20889,1,2,0:0:0:0:
402,109,20992,2,0,P|401:133|391:170,1,59.9999981689454,2|2,0:0|0:0,0:0:0:0:
343,259,21199,1,0,3:2:0:0:
512,225,21406,1,2,0:0:0:0:
490,229,21510,1,0,0:0:0:0:
468,234,21613,1,10,0:1:0:0:
318,356,21820,6,0,P|389:321|342:258,1,179.999994506836,2|8,3:2|0:0,0:0:0:0:
253,288,22234,1,2,3:2:0:0:
204,304,22337,1,2,0:2:0:0:
155,320,22441,1,10,0:2:0:0:
158,297,22544,1,2,0:2:0:0:
161,274,22647,1,0,0:0:0:0:
164,251,22751,1,8,0:0:0:0:
167,228,22854,1,10,0:1:0:0:
32,169,23061,1,6,3:2:0:0:
32,169,23165,2,0,B|102:161|102:161|132:136|132:136|204:128,1,179.999994506836,0|2,0:0|3:2,0:0:0:0:
382,68,23682,6,0,P|324:72|292:121,1,119.999996337891,6|0,3:2|3:0,0:0:0:0:
350,307,24096,1,8,0:1:0:0:
389,319,24199,1,0,0:0:0:0:
423,293,24302,1,10,0:0:0:0:
420,250,24406,1,10,0:0:0:0:
376,229,24510,2,0,B|287:210|291:284|196:262,1,179.999994506836,2|10,3:0|0:0,0:0:0:0:
114,240,24923,1,10,0:1:0:0:
376,229,25130,1,6,3:2:0:0:
376,229,25544,5,10,3:2:0:0:
374,214,25648,1,10,3:2:0:0:
372,199,25751,1,2,3:2:0:0:
370,184,25855,1,2,3:2:0:0:
368,169,25958,1,2,3:2:0:0:
366,154,26062,1,2,3:2:0:0:
364,139,26165,1,6,0:2:0:0:
102,77,26992,6,0,L|78:225,2,150,6|2|2,3:2|3:2|3:2,0:0:0:0:
267,0,27820,2,0,L|282:98,1,100,2|2,0:0|3:0,0:0:0:0:
321,344,28234,1,10,0:2:0:0:
246,261,28441,1,2,0:0:0:0:
246,261,28544,1,0,0:0:0:0:
246,261,28647,6,0,B|286:222|286:222|379:235,1,150,2|0,3:0|3:0,0:0:0:0:
458,248,29061,1,10,0:0:0:0:
270,138,29268,1,2,3:2:0:0:
313,310,29475,1,2,0:2:0:0:
317,327,29579,1,8,0:0:0:0:
321,344,29682,1,2,3:2:0:0:
270,138,29889,1,8,0:0:0:0:
181,257,30096,2,0,L|128:251,1,50,2|8,0:0|0:0,0:0:0:0:
61,207,30303,6,0,L|210:223,2,150,2|0|0,3:2|3:0|3:0,0:0:0:0:
177,336,31130,1,2,0:2:0:0:
154,340,31234,1,8,0:0:0:0:
131,344,31337,1,0,3:0:0:0:
205,133,31544,2,0,L|220:24,1,100,10|2,0:2|0:0,0:0:0:0:
330,227,31958,5,2,3:0:0:0:
330,227,32061,2,0,L|316:326,1,100,8|0,0:0|3:0,0:0:0:0:
377,384,32372,1,10,0:2:0:0:
235,298,32578,1,2,3:2:0:0:
102,384,32785,1,0,0:0:0:0:
107,360,32889,1,8,0:0:0:0:
112,336,32992,1,2,3:2:0:0:
192,111,33199,2,0,L|212:208,1,100,10|2,0:0|0:0,0:0:0:0:
334,273,33613,6,0,B|260:255|269:314|190:297,2,150,2|2|2,3:2|3:2|3:2,0:0:0:0:
460,317,34441,1,2,3:2:0:0:
482,310,34544,1,8,0:0:0:0:
504,303,34647,1,0,0:0:0:0:
288,186,34854,1,10,0:2:0:0:
313,354,35061,1,2,0:0:0:0:
418,204,35268,5,2,3:0:0:0:
418,204,35372,2,0,P|417:153|397:109,1,100,8|2,0:0|3:0,0:0:0:0:
327,53,35682,1,10,0:2:0:0:
202,160,35889,2,0,L|212:208,1,50,2|10,3:0|0:0,0:0:0:0:
235,295,36096,1,2,0:0:0:0:
235,295,36199,1,8,0:0:0:0:
235,295,36302,1,0,3:0:0:0:
246,82,36510,2,0,P|199:71|151:85,1,100,10|2,0:0|3:2,0:0:0:0:
84,147,36820,1,10,0:0:0:0:
84,147,36923,6,0,L|114:293,2,150,2|0|0,3:0|3:0|3:0,0:0:0:0:
235,295,37751,1,2,0:0:0:0:
257,289,37854,1,8,0:0:0:0:
279,283,37958,1,2,3:0:0:0:
103,384,38165,2,0,L|3:357,1,100,10|0,0:2|0:0,0:0:0:0:
206,213,38578,6,0,B|244:189|244:189|234:294,1,150,2|0,3:2|3:0,0:0:0:0:
225,384,38992,1,12,0:0:0:0:
371,337,39199,1,2,3:0:0:0:
371,337,39303,2,0,L|360:237,1,100,8|8,0:0|0:0,0:0:0:0:
348,149,39613,1,8,0:0:0:0:
348,149,39820,1,0,3:0:0:0:
372,152,39923,1,8,0:0:0:0:
397,156,40027,1,10,0:3:0:0:
422,159,40130,1,8,0:3:0:0:
446,163,40233,5,6,3:2:0:0:
293,78,40441,1,2,0:0:0:0:
293,78,40544,1,2,3:2:0:0:
293,78,40647,1,10,0:1:0:0:
360,237,40854,1,2,3:2:0:0:
179,313,41061,2,0,L|199:267,1,50,2|8,0:0|0:1,0:0:0:0:
241,177,41268,2,0,L|262:224,1,50,0|2,3:0|0:0,0:0:0:0:
301,313,41475,1,8,0:1:0:0:
281,100,41682,1,2,3:2:0:0:
281,100,41785,1,0,0:0:0:0:
281,100,41889,6,0,P|232:89|187:107,1,100,2|2,3:2|0:0,0:0:0:0:
119,176,42199,1,2,0:0:0:0:
119,176,42303,2,0,P|73:194|25:183,1,100,10|2,0:1|3:2,0:0:0:0:
175,7,42716,1,2,3:2:0:0:
178,32,42819,1,8,0:1:0:0:
181,57,42923,1,0,3:0:0:0:
184,82,43026,1,2,3:0:0:0:
187,107,43129,1,8,0:1:0:0:
205,284,43337,1,2,3:2:0:0:
347,178,43544,5,2,3:2:0:0:
347,178,43647,2,0,L|446:184,1,100,8|0,0:1|3:0,0:0:0:0:
485,268,43958,2,0,L|385:261,1,100,10|0,0:1|3:0,0:0:0:0:
195,250,44372,1,2,0:0:0:0:
200,267,44475,1,8,0:1:0:0:
205,284,44578,1,2,3:0:0:0:
227,104,44785,1,10,0:1:0:0:
97,235,44992,2,0,L|115:293,1,50,2|0,3:2|0:0,0:0:0:0:
205,284,45199,6,0,L|175:188,1,100,2|2,3:0|0:0,0:0:0:0:
145,98,45510,1,0,0:0:0:0:
145,98,45613,1,10,0:1:0:0:
286,166,45820,2,0,P|335:178|383:167,1,100,0|2,3:3|0:0,0:0:0:0:
465,121,46130,1,8,0:1:0:0:
465,121,46234,1,0,3:0:0:0:
384,284,46441,1,10,0:1:0:0:
490,360,46647,1,2,3:0:0:0:
490,360,46751,1,8,3:1:0:0:
490,360,46854,6,0,B|431:353|431:353|401:368|401:368|337:362,1,150,6|0,3:2|3:0,0:0:0:0:
244,351,47268,1,10,0:1:0:0:
384,284,47475,1,2,3:0:0:0:
200,212,47682,1,2,3:2:0:0:
175,215,47785,1,8,0:1:0:0:
150,218,47888,1,0,3:0:0:0:
384,284,48096,1,8,0:1:0:0:
305,170,48303,2,0,L|310:120,1,50,2|0,3:2|0:0,0:0:0:0:
404,84,48510,6,0,L|393:183,1,100,2|2,3:0|0:0,0:0:0:0:
383,283,48820,1,2,0:0:0:0:
383,283,48923,2,0,P|337:266|288:272,1,100,10|2,0:1|3:2,0:0:0:0:
125,332,49337,1,2,0:0:0:0:
128,315,49440,1,8,0:1:0:0:
131,299,49543,1,0,3:0:0:0:
167,93,49751,1,8,0:1:0:0:
219,230,49958,1,2,3:2:0:0:
175,0,50165,6,0,P|105:21|74:87,1,150,2|0,3:0|3:0,0:0:0:0:
109,156,50578,2,0,P|66:132|16:136,1,100,10|0,0:1|3:0,0:0:0:0:
0,291,50992,1,2,0:0:0:0:
12,292,51095,1,8,0:1:0:0:
24,293,51198,1,2,3:0:0:0:
244,310,51406,1,10,0:1:0:0:
116,173,51613,2,0,L|111:223,1,50,2|0,3:2|0:0,0:0:0:0:
99,329,51820,6,0,B|166:292|175:348|244:309,1,150,2|0,3:0|3:0,0:0:0:0:
308,238,52234,1,10,0:1:0:0:
460,355,52441,2,0,L|453:255,1,100,4|0,3:2|0:0,0:0:0:0:
446,155,52751,1,8,0:2:0:0:
446,155,52854,1,2,3:0:0:0:
320,313,53061,1,10,3:2:0:0:
282,310,53164,1,8,0:0:0:0:
251,289,53267,1,10,0:3:0:0:
234,257,53371,1,8,0:3:0:0:
236,220,53475,6,0,L|244:164,1,50,2|2,3:2|0:0,0:0:0:0:
332,145,53682,2,0,L|324:194,1,50,2|2,0:0|0:0,0:0:0:0:
147,245,53889,1,10,0:1:0:0:
154,195,53992,1,2,0:0:0:0:
161,146,54095,1,10,0:0:0:0:
168,96,54199,1,2,3:0:0:0:
168,96,55131,6,0,L|108:105,1,50,6|2,3:2|0:0,0:0:0:0:
63,29,55337,2,0,L|112:21,1,50,2|2,0:0|0:0,0:0:0:0:
271,85,55544,1,2,3:0:0:0:
263,133,55647,1,10,0:0:0:0:
234,174,55750,1,2,3:0:0:0:
190,196,55854,1,2,3:0:0:0:
190,196,56786,6,0,L|246:202,1,50,2|2,3:2|0:0,0:0:0:0:
287,122,56992,2,0,L|237:116,1,50,2|2,0:0|0:0,0:0:0:0:
142,275,57200,1,10,0:1:0:0:
191,281,57303,1,2,0:0:0:0:
241,287,57406,1,10,0:0:0:0:
291,293,57510,2,0,L|390:304,1,100,2|0,3:0|0:0,0:0:0:0:
424,218,57820,6,0,L|374:212,1,50,2|0,3:0|0:0,0:0:0:0:
287,122,58027,2,0,L|336:127,1,50,2|8,3:0|0:0,0:0:0:0:
207,181,58234,1,10,0:3:0:0:
207,181,58337,1,2,0:0:0:0:
207,181,58441,6,0,P|188:109|223:44,1,150,2|0,3:0|0:0,0:0:0:0:
336,127,58854,2,0,L|287:122,1,50,10|0,0:1|0:0,0:0:0:0:
104,100,59061,1,2,3:0:0:0:
104,100,59475,6,0,L|128:102,3,25,0|0|0|0,3:0|3:0|3:0|3:0,0:0:0:0:
74,99,59682,6,0,L|84:197,1,89.9999972534181,8|0,0:0|0:0,0:0:0:0:
55,281,60095,6,0,P|85:271|117:270,1,64.9999970245363,6|0,1:2|0:0,0:0:0:0:
172,200,60303,2,0,P|203:205|232:221,1,64.9999970245363,2|0,3:0|0:0,0:0:0:0:
239,328,60510,2,0,P|270:322|299:306,1,64.9999970245363,10|0,0:1|0:0,0:0:0:0:
381,340,60717,2,0,P|405:318|422:291,1,64.9999970245363,2|0,3:0|2:1,0:0:0:0:
444,151,60924,2,0,P|459:219|512:219,1,129.999994049073,2|0,3:2|0:0,0:0:0:0:
490,66,61234,2,0,B|435:55|435:55|366:83,1,129.999994049073,2|0,0:0|0:0,0:0:0:0:
241,127,61545,2,0,B|293:134|293:134|313:158|313:158|358:166,1,129.999994049073,2|0,0:0|3:0,0:0:0:0:
68,356,61957,6,0,L|60:291,1,64.9999970245363,2|0,3:0|0:0,0:0:0:0:
146,235,62165,2,0,L|153:299,1,64.9999970245363,10|0,0:1|0:0,0:0:0:0:
51,184,62372,2,0,P|123:129|220:154,1,194.999991073609,2|8,0:0|0:1,0:0:0:0:
335,212,62786,2,0,P|302:216|272:227,1,64.9999970245363,2|0,3:2|0:0,0:0:0:0:
153,298,62993,2,0,B|243:278|246:365|337:335,1,194.999991073609,10|0,0:1|0:0,0:0:0:0:
442,283,63407,1,2,3:0:0:0:
442,283,63614,5,2,3:0:0:0:
423,209,63717,1,2,0:0:0:0:
405,136,63819,1,10,0:1:0:0:
212,252,64026,1,2,0:0:0:0:
230,179,64131,2,0,L|261:52,1,129.999994049073,10|8,0:1|0:1,0:0:0:0:
368,10,64441,2,0,L|352:74,1,64.9999970245363,2|0,3:2|0:0,0:0:0:0:
451,141,64648,2,0,L|466:205,1,64.9999970245363,10|0,0:1|0:0,0:0:0:0:
320,199,64855,2,0,L|304:263,1,64.9999970245363,2|0,3:2|0:0,0:0:0:0:
479,324,65062,6,0,B|376:299|372:400|266:366,1,225.000008583069,6|0,3:2|3:0,0:0:0:0:
180,231,65476,2,0,L|195:295,1,64.9999970245363,10|0,0:1|0:0,0:0:0:0:
51,349,65683,2,0,L|101:145,1,209.999993591309,2|0,3:0|2:0,0:0:0:0:
129,36,66095,1,2,3:0:0:0:
129,36,66303,1,8,0:1:0:0:
175,96,66406,1,2,3:3:0:0:
242,132,66509,1,2,3:3:0:0:
318,135,66613,1,0,3:3:0:0:
389,106,66716,1,4,3:2:0:0:
468,337,66924,6,0,P|471:303|480:273,1,64.9999970245363,2|0,3:1|0:0,0:0:0:0:
378,181,67131,2,0,P|386:212|389:244,1,64.9999970245363,10|0,0:1|0:0,0:0:0:0:
356,366,67338,2,0,P|302:294|195:267,1,194.999991073609,2|0,0:0|0:0,0:0:0:0:
74,366,67752,2,0,P|103:345|122:317,1,64.9999970245363,2|0,0:0|3:0,0:0:0:0:
157,163,67957,2,0,P|128:184|109:212,1,64.9999970245363,10|0,0:1|0:0,0:0:0:0:
14,205,68165,2,0,P|17:240|32:271,1,64.9999970245363,2|8,0:0|3:3,0:0:0:0:
74,366,68372,6,0,L|280:347,1,194.999991073609,2|0,3:2|3:0,0:0:0:0:
406,336,68786,1,14,0:1:0:0:
275,143,68993,1,10,3:0:0:0:
270,164,69096,1,8,0:3:0:0:
266,185,69199,1,0,3:0:0:0:
262,206,69303,1,8,3:0:0:0:
258,227,69406,1,2,3:0:0:0:
253,249,69510,1,0,3:0:0:0:
249,270,69614,2,0,L|319:263,1,64.9999970245363,10|0,0:1|3:0,0:0:0:0:
417,179,69819,2,0,L|352:185,1,64.9999970245363,2|0,0:3|0:0,0:0:0:0:
471,268,70026,5,6,3:2:0:0:
512,82,70234,1,2,0:0:0:0:
464,85,70337,1,2,3:0:0:0:
419,89,70441,1,14,0:1:0:0:
214,226,70648,1,2,3:0:0:0:
258,227,70752,2,0,P|327:178|283:65,1,194.999991073609,2|0,0:0|0:0,0:0:0:0:
37,73,71269,2,0,P|69:80|101:83,1,64.9999970245363,10|0,0:1|2:0,0:0:0:0:
186,152,71476,2,0,P|218:150|250:142,1,64.9999970245363,2|0,3:0|0:1,0:0:0:0:
427,46,71683,6,0,P|362:145|346:263,1,240,6|0,3:2|0:0,0:0:0:0:
374,384,72095,1,10,0:1:0:0:
172,242,72303,6,0,P|207:253|240:272,1,75.0000028610231,6|0,3:2|0:0,0:0:0:0:
244,262,72717,6,0,P|211:243|176:232,1,75.0000028610231,6|0,3:2|0:0,0:0:0:0:
68,250,72924,1,0,3:0:0:0:
139,229,73027,1,8,0:0:0:0:
152,153,73130,1,8,0:1:0:0:
87,111,73234,1,8,0:1:0:0:
23,154,73338,6,0,P|51:146|93:117,1,64.9999970245363,6|0,1:2|0:0,0:0:0:0:
196,134,73545,2,0,P|215:112|238:67,1,64.9999970245363,2|0,3:0|0:0,0:0:0:0:
337,0,73752,1,10,0:1:0:0:
328,47,73855,1,2,0:0:0:0:
349,89,73958,1,2,0:0:0:0:
393,110,74062,1,2,0:0:0:0:
439,99,74165,2,0,P|380:97|342:158,1,129.999994049073,2|0,3:2|0:0,0:0:0:0:
466,264,74476,2,0,B|484:280|484:280|480:156,1,129.999994049073,2|0,0:0|0:0,0:0:0:0:
361,232,74786,2,0,B|297:248|303:196|236:211,1,129.999994049073,2|0,0:0|3:0,0:0:0:0:
23,360,75200,6,0,L|90:352,1,64.9999970245363,2|0,3:0|0:0,0:0:0:0:
156,271,75407,2,0,L|91:263,1,64.9999970245363,10|0,0:1|0:0,0:0:0:0:
186,368,75614,2,0,P|253:302|237:210,1,194.999991073609,2|0,0:0|0:0,0:0:0:0:
79,163,76026,2,0,L|143:170,1,64.9999970245363,2|0,3:2|0:0,0:0:0:0:
296,158,76234,2,0,P|238:151|236:209,1,129.999994049073,10|0,0:1|0:0,0:0:0:0:
478,53,76648,1,2,3:0:0:0:
478,53,76855,5,2,3:0:0:0:
485,129,76958,1,2,0:0:0:0:
491,203,77062,1,10,0:1:0:0:
351,93,77269,1,2,0:0:0:0:
345,167,77371,1,10,2:1:0:0:
217,57,77579,1,10,2:1:0:0:
223,131,77683,1,2,3:0:0:0:
83,21,77888,1,10,0:1:0:0:
63,257,78095,1,2,3:2:0:0:
268,17,78303,6,0,P|240:34|216:56,1,64.9999970245363,2|0,3:2|0:0,0:0:0:0:
101,149,78510,2,0,P|129:164|160:173,1,64.9999970245363,2|0,0:0|3:0,0:0:0:0:
299,228,78717,2,0,P|297:195|290:163,1,64.9999970245363,10|0,0:1|0:0,0:0:0:0:
450,100,78924,6,0,P|416:207|399:318,1,225.000008583069,6|0,3:2|0:0,0:0:0:0:
389,307,79338,6,0,P|406:203|437:103,1,209.999993591309,6|0,3:2|0:0,0:0:0:0:
488,1,79752,5,6,3:2:0:0:
488,1,80165,6,0,P|453:13|408:16,1,64.9999970245363,6|0,3:2|0:0,0:0:0:0:
342,77,80372,2,0,P|305:69|265:49,1,64.9999970245363,10|0,0:1|0:0,0:0:0:0:
178,0,80579,2,0,P|185:63|157:121,1,129.999994049073,10|2,3:0|0:0,0:0:0:0:
71,223,80888,1,2,0:0:0:0:
71,223,80993,2,0,P|101:211|133:208,1,64.9999970245363,10|8,0:3|0:3,0:0:0:0:
239,170,81200,2,0,P|270:175|300:189,1,64.9999970245363,2|0,0:0|0:0,0:0:0:0:
385,297,81407,6,0,P|427:207|479:250,1,194.999991073609,6|0,3:2|0:0,0:0:0:0:
478,361,81819,2,0,P|445:375|413:380,1,64.9999970245363,2|0,3:0|0:0,0:0:0:0:
323,278,82026,2,0,P|354:283|384:296,1,64.9999970245363,2|0,3:0|0:0,0:0:0:0:
245,358,82234,6,0,B|206:320|206:320|220:180,1,194.999991073609,6|0,0:0|0:0,0:0:0:0:
324,116,82648,2,0,L|317:180,1,64.9999970245363,10|0,0:0|0:0,0:0:0:0:
204,90,82855,1,10,0:1:0:0:
208,43,82957,1,8,0:1:0:0:
440,189,83269,6,0,L|433:253,1,59.9999981689454,6|0,3:2|0:0,0:0:0:0:
354,249,83475,2,0,L|347:313,1,59.9999981689454,2|8,0:0|0:0,0:0:0:0:
268,309,83682,1,10,0:0:0:0:
268,309,83786,2,0,L|261:373,1,59.9999981689454,2|8,0:0|0:0,0:0:0:0:
208,223,83993,1,2,3:0:0:0:
208,223,84303,2,0,L|214:163,1,59.9999981689454,8|0,0:0|0:0,0:0:0:0:
227,77,84510,1,8,3:0:0:0:
227,77,84610,1,8,0:1:0:0:
65,338,84912,6,0,L|58:278,2,59.9999981689454,6|0|2,3:2|0:0|0:0,0:0:0:0:
152,369,85222,1,10,0:3:0:0:
152,369,85325,2,0,L|158:309,1,59.9999981689454,10|2,0:0|0:0,0:0:0:0:
251,337,85532,1,8,0:0:0:0:
245,278,85636,1,2,3:0:0:0:
245,278,85984,2,0,L|311:288,1,59.9999981689454,8|0,3:0|3:0,0:0:0:0:
347,291,86173,1,8,3:0:0:0:
352,251,86271,1,8,3:0:0:0:
357,211,86370,1,8,0:3:0:0:
362,171,86469,1,8,0:3:0:0:
367,131,86567,6,0,L|300:138,3,59.9999981689454,6|0|2|2,3:2|0:0|0:0|0:0,0:0:0:0:
407,50,86980,1,10,0:0:0:0:
407,50,87084,2,0,L|340:43,1,59.9999981689454,2|0,0:0|0:0,0:0:0:0:
457,125,87291,1,2,3:0:0:0:
457,125,87601,1,8,0:0:0:0:
154,53,87808,1,8,0:0:0:0:
239,242,88015,6,0,L|251:156,1,79.9999975585938,2|8,0:0|0:1,0:0:0:0:
262,84,88222,1,6,3:2:0:0:
88,340,88644,6,0,L|80:287,1,50,2|0,0:0|0:0,0:0:0:0:
50,111,88855,1,2,3:2:0:0:
