osu file format v14

[General]
AudioFilename: audio.mp3
AudioLeadIn: 0
PreviewTime: 59371
Countdown: 0
SampleSet: Soft
StackLeniency: 0.5
Mode: 0
LetterboxInBreaks: 0
WidescreenStoryboard: 1

[Editor]
Bookmarks: 510,13751,26992,40233,53475,55130,56785,58440,60095,83268,84912,86567,88222,88855
DistanceSpacing: 1.1
BeatDivisor: 4
GridSize: 16
TimelineZoom: 1.9

[Metadata]
Title:Mr. Fixer (TV Size)
TitleUnicode:ミスターフィクサー (TV Size)
Artist:Sou
ArtistUnicode:Sou
Creator:Silent Rock
Version:ID:HARD
Source:ID:INVADED
Tags:Anime Japanese OP opening J-pop jpop pop male vocal イド:インヴェイデッド Lian2002 -Lian-
BeatmapID:2345474
BeatmapSetID:1122300

[Difficulty]
HPDrainRate:4
CircleSize:3.8
OverallDifficulty:6
ApproachRate:7.6
SliderMultiplier:1.6
SliderTickRate:1

[Events]
//Background and Video events
0,0,"ID.jpg",0,0
Video,-60,"IDInvaded-OP1-NCBD108021.mp4"
//Break Periods
//Storyboard Layer 0 (Background)
//Storyboard Layer 1 (Fail)
//Storyboard Layer 2 (Pass)
//Storyboard Layer 3 (Foreground)
//Storyboard Layer 4 (Overlay)
//Storyboard Sound Samples

[TimingPoints]
510,413.793103448276,4,2,1,50,1,0
510,-111.111111111111,4,2,1,50,0,0
2992,-100,4,2,1,50,0,0
3820,-111.111111111111,4,2,1,50,0,0
5475,-125,4,2,1,50,0,0
6096,-100,4,2,1,50,0,0
6716,-111.111111111111,4,2,1,50,0,0
10027,-142.857142857143,4,2,1,50,0,0
11268,-125,4,2,1,50,0,0
11475,400,4,2,1,50,1,0
11475,-125,4,2,1,50,0,0
12075,402.684563758389,4,2,1,50,1,0
12075,-100,4,2,1,70,0,0
12276,468.75,4,2,1,70,1,0
12276,-100,4,2,1,70,0,0
12510,413.793103448276,4,2,1,70,1,0
12510,-100,4,2,1,70,0,0
13337,-83.3333333333333,4,2,1,80,0,0
13647,-83.3333333333333,4,2,1,5,0,0
13751,413.793103448276,4,2,1,70,1,0
13751,-83.3333333333333,4,2,1,70,0,0
26992,-100,4,2,1,60,0,0
53475,-100,4,2,1,70,0,0
59682,-142.857142857143,4,2,1,70,0,0
59992,-142.857142857143,4,2,1,5,0,0
60095,-83.3333333333333,4,2,1,80,0,1
65061,-71.4285714285714,4,2,1,80,0,1
65475,-83.3333333333333,4,2,1,80,0,1
65682,-76.9230769230769,4,2,1,80,0,1
66096,-83.3333333333333,4,2,1,80,0,1
71682,-71.4285714285714,4,2,1,80,0,1
72096,-83.3333333333333,4,2,1,80,0,1
72302,-71.4285714285714,4,2,1,80,0,1
72923,-90.9090909090909,4,2,1,80,0,1
73337,-83.3333333333333,4,2,1,80,0,1
78923,-71.4285714285714,4,2,1,80,0,1
79337,-83.3333333333333,4,2,1,80,0,1
79751,-100,4,2,1,80,0,1
80164,-83.3333333333333,4,2,1,80,0,1
83268,-90.9090909090909,4,2,1,70,0,0
84510,402.684563758389,4,2,1,70,1,0
84510,-90.9090909090909,4,2,1,70,0,0
84912,413.793103448276,4,2,1,70,1,0
84912,-90.9090909090909,4,2,1,70,0,0
85877,428.571428571429,4,2,1,70,1,0
85877,-90.9090909090909,4,2,1,70,0,0
85984,379.746835443038,4,2,1,70,1,0
85984,-90.9090909090909,4,2,1,70,0,0
86173,394.736842105263,4,2,1,70,1,0
86173,-90.9090909090909,4,2,1,70,0,0
86567,413.793103448276,4,2,1,70,1,0
86567,-90.9090909090909,4,2,1,70,0,0
88222,422.535211267606,4,2,1,70,1,0
88222,-100,4,2,1,70,0,0
88855,413.793103448276,4,2,1,70,1,0
88855,-100,4,2,1,70,0,0

[Colours]
Combo1 : 192,192,192
Combo2 : 250,185,150
Combo3 : 190,160,120
Combo4 : 252,236,166

[HitObjects]
89,259,510,6,0,P|124:258|159:268,1,71.9999978027344,2|0,0:0|0:0,0:0:0:0:
238,304,923,2,0,L|242:357,2,35.9999989013672,2|0|2,0:0|0:0|0:0,0:0:0:0:
229,218,1337,2,0,L|220:106,2,107.999996704102,2|2|2,0:0|0:0|0:0,0:0:0:0:
238,304,2165,5,2,0:0:0:0:
307,253,2372,1,0,0:0:0:0:
392,297,2578,1,2,0:0:0:0:
392,297,2682,1,0,0:0:0:0:
392,297,2785,1,2,0:0:0:0:
402,182,2992,2,0,L|414:61,2,120,2|2|2,0:0|0:0|0:0,0:0:0:0:
461,245,3820,5,2,0:0:0:0:
391,297,4027,2,0,P|356:300|320:295,1,71.9999978027344,0|2,0:0|0:0,0:0:0:0:
282,288,4337,1,0,0:0:0:0:
282,288,4441,1,2,0:0:0:0:
214,340,4647,2,0,P|159:350|104:371,2,107.999996704102,2|2|2,0:0|0:0|0:0,0:0:0:0:
281,287,5475,6,0,P|246:241|286:199,1,128,2|2,0:0|0:0,0:0:0:0:
361,140,6096,6,0,P|289:110|216:137,1,160,2|2,0:0|0:0,0:0:0:0:
162,222,6716,6,0,B|120:180|120:180|123:89,1,143.999995605469,2|2,0:0|0:0,0:0:0:0:
216,101,7337,5,0,0:0:0:0:
216,101,7441,1,0,0:0:0:0:
216,101,7544,2,0,L|216:137,2,35.9999989013672,2|0|2,0:0|0:0|0:0,0:0:0:0:
295,65,7958,2,0,P|346:50|400:56,2,107.999996704102,2|2|2,0:0|0:0|0:0,0:0:0:0:
259,86,8682,1,0,0:0:0:0:
259,86,8785,6,0,P|190:105|120:89,1,143.999995605469,2|2,0:0|0:0,0:0:0:0:
61,25,9406,2,0,L|80:167,1,143.999995605469,2|2,0:0|0:0,0:0:0:0:
51,241,10027,2,0,P|91:246|151:210,1,111.999996582031,2|2,0:0|0:0,0:0:0:0:
215,259,10647,6,0,L|209:303,2,27.9999991455078,0|0|2,0:0|0:0|0:0,0:0:0:0:
297,236,11061,1,2,0:0:0:0:
297,236,11165,1,0,0:0:0:0:
297,236,11268,1,2,0:0:0:0:
376,278,11475,2,0,P|421:291|497:246,1,128,2|0,0:0|3:0,0:0:0:0:
420,197,12075,5,10,0:1:0:0:
332,359,12276,1,10,0:1:0:0:
256,129,13130,5,2,3:2:0:0:
256,129,13234,1,0,0:0:0:0:
256,129,13337,2,0,B|181:117|201:175|121:164,1,143.999995605469,8|0,0:1|0:0,0:0:0:0:
74,156,13751,5,6,3:2:0:0:
29,241,13958,1,0,0:0:0:0:
81,322,14165,1,10,0:1:0:0:
177,318,14372,1,2,0:0:0:0:
126,237,14578,1,2,3:2:0:0:
81,322,14785,1,2,0:0:0:0:
81,322,14889,1,0,0:0:0:0:
81,322,14992,1,10,0:1:0:0:
177,318,15199,6,0,B|250:317|234:271|308:270,1,143.999995605469,2|0,3:2|0:0,0:0:0:0:
357,271,15613,1,2,3:2:0:0:
320,180,15820,2,0,P|312:131|326:88,1,95.9999970703126,10|2,0:1|0:0,0:0:0:0:
407,138,16234,1,0,0:0:0:0:
356,271,16441,2,0,P|265:260|224:178,1,191.999994140625,14|2,0:2|3:2,0:0:0:0:
233,81,17061,6,0,P|282:73|325:87,2,95.9999970703126,6|0|10,3:2|0:0|0:1,0:0:0:0:
150,123,17682,1,0,0:0:0:0:
150,123,17785,1,0,0:0:0:0:
150,123,17889,1,2,3:0:0:0:
224,178,18096,1,2,0:0:0:0:
136,218,18303,1,10,0:1:0:0:
222,308,18510,6,0,B|282:300|282:300|300:275|300:275|354:268,1,143.999995605469,6|0,3:2|0:0,0:0:0:0:
408,269,18923,1,2,3:2:0:0:
408,269,19027,1,0,0:0:0:0:
408,269,19130,2,0,L|397:320,3,47.9999985351563,10|0|0|0,0:0|0:0|0:0|0:0,0:0:0:0:
387,363,19544,1,2,0:0:0:0:
294,337,19751,1,2,0:0:0:0:
209,384,19958,1,2,0:0:0:0:
122,267,20165,1,12,0:0:0:0:
49,330,20372,6,0,B|21:298|21:298|25:245,1,95.9999970703126,2|0,3:2|0:0,0:0:0:0:
89,172,20785,2,0,P|159:174|210:222,1,143.999995605469,10|0,0:1|0:0,0:0:0:0:
221,269,21199,1,0,3:2:0:0:
299,213,21406,1,2,0:0:0:0:
307,308,21613,1,10,0:1:0:0:
385,252,21820,6,0,B|419:223|419:223|399:102,1,143.999995605469,2|0,3:2|0:0,0:0:0:0:
389,78,22234,1,2,3:2:0:0:
297,110,22441,2,0,P|250:117|204:101,1,95.9999970703126,10|0,0:2|0:0,0:0:0:0:
168,70,22751,1,0,0:0:0:0:
168,70,22854,1,10,0:1:0:0:
88,151,23061,2,0,B|94:216|94:216|75:256|75:256|84:337,1,191.999994140625,6|2,3:2|3:2,0:0:0:0:
189,384,23682,6,0,L|178:284,1,95.9999970703126,6|0,3:2|0:0,0:0:0:0:
216,201,24096,1,8,0:1:0:0:
286,267,24303,1,10,0:0:0:0:
286,267,24406,1,0,0:0:0:0:
286,266,24510,2,0,P|356:254|426:269,1,143.999995605469,2|0,3:0|0:0,0:0:0:0:
471,285,24923,1,10,0:1:0:0:
395,168,25130,1,6,3:2:0:0:
395,168,25544,5,10,3:2:0:0:
396,152,25647,1,0,0:0:0:0:
398,137,25751,2,0,L|404:80,3,47.9999985351563,2|0|0|0,3:2|0:0|0:0|0:0,0:0:0:0:
407,41,26165,1,6,0:2:0:0:
231,161,26992,6,0,B|194:183|194:183|120:161,2,120,6|2|2,3:2|3:2|3:2,0:0:0:0:
305,113,27820,2,0,P|317:150|312:189,1,80,2|0,0:0|3:0,0:0:0:0:
226,276,28234,1,10,0:2:0:0:
313,272,28441,1,2,0:0:0:0:
370,338,28647,6,0,P|420:357|480:335,1,120,0|0,3:0|3:0,0:0:0:0:
510,302,29061,1,10,0:0:0:0:
446,240,29268,1,2,3:2:0:0:
473,156,29475,2,0,L|518:150,2,40,2|8|0,0:2|0:0|3:0,0:0:0:0:
386,172,29889,2,0,L|306:161,1,80,8|2,0:0|0:0,0:0:0:0:
251,92,30303,6,0,B|218:125|218:125|222:198,2,120,2|0|0,3:2|3:0|3:0,0:0:0:0:
321,39,31130,2,0,L|316:-2,2,40,2|8|0,0:2|0:0|3:0,0:0:0:0:
393,90,31544,2,0,L|384:169,1,80,10|2,0:2|0:0,0:0:0:0:
438,250,31958,6,0,P|380:248|335:286,1,120,0|0,3:0|3:0,0:0:0:0:
313,325,32372,1,10,0:2:0:0:
235,283,32578,1,2,3:2:0:0:
172,344,32785,2,0,L|178:400,2,40,0|8|2,0:0|0:0|3:2,0:0:0:0:
97,295,33199,2,0,L|109:210,1,80,10|2,0:0|0:0,0:0:0:0:
169,152,33613,6,0,B|129:126|129:126|44:135,2,120,2|2|2,3:2|3:2|3:2,0:0:0:0:
241,203,34441,2,0,L|230:244,2,40,2|8|0,3:2|0:0|3:0,0:0:0:0:
273,96,34854,1,10,0:2:0:0:
323,168,35061,1,2,0:0:0:0:
396,118,35268,6,0,P|451:101|499:133,1,120,0|0,3:0|3:0,0:0:0:0:
511,176,35682,1,10,0:2:0:0:
464,250,35889,1,2,3:0:0:0:
480,338,36096,2,0,L|488:383,2,40,2|8|0,0:0|0:0|3:0,0:0:0:0:
393,313,36510,2,0,P|354:308|315:316,1,80,8|2,0:0|3:2,0:0:0:0:
277,339,36820,1,0,3:0:0:0:
277,339,36923,6,0,B|240:365|240:365|166:352,2,120,2|0|0,3:0|3:0|3:0,0:0:0:0:
218,273,37751,2,0,L|211:223,2,40,2|8|2,0:0|0:0|3:0,0:0:0:0:
295,230,38165,2,0,L|306:150,1,80,10|0,0:2|0:0,0:0:0:0:
240,92,38578,6,0,B|179:78|189:124|125:110,1,120,2|0,3:2|3:0,0:0:0:0:
84,94,38992,1,12,0:0:0:0:
55,177,39199,2,0,L|43:215,1,40,10|8,3:3|0:0,0:0:0:0:
128,239,39510,2,0,L|139:277,1,40,8|8,0:3|0:0,0:0:0:0:
55,301,39820,2,0,L|43:339,3,40,8|8|10|8,3:2|0:3|0:3|0:3,0:0:0:0:
28,380,40234,6,0,L|147:374,1,120,6|0,3:2|3:0,0:0:0:0:
191,371,40647,1,10,0:1:0:0:
168,285,40854,1,2,3:2:0:0:
253,307,41061,2,0,L|302:319,2,40,2|8|0,0:0|2:1|3:0,0:0:0:0:
201,197,41475,2,0,P|240:194|279:185,1,80,8|2,0:1|3:2,0:0:0:0:
362,153,41889,6,0,L|367:234,1,80,2|0,3:2|0:0,0:0:0:0:
374,280,42199,1,0,3:0:0:0:
374,280,42303,1,10,0:1:0:0:
291,316,42510,1,2,3:2:0:0:
217,268,42716,2,0,L|223:217,2,40,0|8|0,0:0|0:1|3:0,0:0:0:0:
139,309,43130,1,8,0:1:0:0:
67,257,43337,1,2,3:2:0:0:
67,257,43544,6,0,P|80:200|73:139,1,120,2|0,3:2|3:0,0:0:0:0:
61,96,43958,2,0,P|93:118|132:126,1,80,10|0,0:1|3:0,0:0:0:0:
218,105,44372,2,0,L|214:62,2,40,2|8|2,0:0|0:1|3:0,0:0:0:0:
297,143,44785,1,10,0:1:0:0:
377,101,44992,1,2,3:2:0:0:
441,160,45199,6,0,L|428:279,1,120,0|0,3:0|3:0,0:0:0:0:
422,323,45613,1,10,0:1:0:0:
341,286,45820,2,0,B|283:278|294:319|226:308,1,120,0|8,3:3|0:1,0:0:0:0:
184,292,46234,1,0,3:0:0:0:
99,349,46441,1,10,0:1:0:0:
64,251,46647,1,2,3:0:0:0:
64,251,46751,1,0,3:2:0:0:
64,251,46854,6,0,L|76:128,1,120,6|0,3:2|3:0,0:0:0:0:
82,87,47268,1,10,0:1:0:0:
160,126,47475,1,2,3:0:0:0:
238,86,47682,2,0,L|276:66,2,40,2|8|0,3:2|0:1|3:0,0:0:0:0:
212,196,48096,2,0,P|251:195|290:205,1,80,8|2,0:1|3:2,0:0:0:0:
367,246,48510,6,0,P|332:292|339:354,1,120,2|0,3:0|3:0,0:0:0:0:
365,383,48923,1,10,0:1:0:0:
425,318,49130,1,2,3:2:0:0:
367,246,49337,2,0,L|315:251,2,40,0|8|0,0:0|0:1|3:0,0:0:0:0:
427,181,49751,1,8,0:1:0:0:
359,123,49958,1,2,3:2:0:0:
359,123,50165,6,0,P|301:136|241:135,1,120,2|0,3:0|3:0,0:0:0:0:
198,127,50578,2,0,P|212:164|216:203,1,80,10|0,0:1|3:0,0:0:0:0:
165,276,50992,2,0,L|125:271,2,40,2|8|2,0:0|0:1|3:0,0:0:0:0:
239,323,51406,1,10,0:1:0:0:
312,276,51613,1,2,3:2:0:0:
391,326,51820,6,0,P|456:322|486:253,1,120,2|0,3:0|3:0,0:0:0:0:
492,236,52234,1,10,0:1:0:0:
393,148,52441,2,0,B|335:151|335:151|301:179|301:179|238:183,1,160,4|2,3:2|3:0,0:0:0:0:
169,135,53061,2,0,P|155:174|160:214,1,80,10|0,3:2|0:0,0:0:0:0:
178,303,53475,6,0,L|138:300,3,40,2|0|2|0,3:2|0:0|0:0|0:0,0:0:0:0:
212,329,53889,1,10,0:1:0:0:
238,327,53992,1,2,0:0:0:0:
265,325,54095,1,2,0:0:0:0:
292,323,54199,1,2,3:0:0:0:
291,324,55130,6,0,L|284:384,3,40,6|0|2|0,3:2|0:0|0:0|0:0,0:0:0:0:
323,292,55544,1,2,3:0:0:0:
310,268,55647,1,2,0:0:0:0:
304,242,55751,1,2,0:0:0:0:
306,216,55854,1,2,3:0:0:0:
306,216,56786,6,0,L|345:218,3,40,2|0|2|0,3:2|0:0|0:0|0:0,0:0:0:0:
272,190,57200,1,10,0:1:0:0:
246,192,57303,1,2,0:0:0:0:
219,194,57406,1,2,0:0:0:0:
193,195,57510,2,0,L|113:199,1,80,2|0,3:0|0:0,0:0:0:0:
69,203,57820,1,2,3:0:0:0:
112,121,58027,1,2,3:0:0:0:
26,85,58233,6,0,L|29:37,1,40,2|0,0:0|0:0,0:0:0:0:
72,24,58440,1,2,3:0:0:0:
256,112,58854,6,0,L|256:152,1,40,2|8,3:2|3:2,0:0:0:0:
256,197,59061,1,2,3:0:0:0:
486,85,59475,6,0,L|483:41,1,40,8|8,0:0|0:0,0:0:0:0:
440,24,59682,6,0,L|447:107,1,83.9999974365235,8|0,0:0|0:0,0:0:0:0:
456,160,60095,5,6,1:2:0:0:
353,135,60303,1,2,0:0:0:0:
286,216,60510,1,10,0:1:0:0:
183,191,60716,1,2,3:0:0:0:
115,272,60924,2,0,P|110:318|142:351,1,95.9999970703126,2|0,3:2|0:0,0:0:0:0:
195,358,61234,2,0,L|296:351,1,95.9999970703126,2|0,0:0|0:0,0:0:0:0:
344,348,61545,1,2,0:0:0:0:
301,251,61752,5,0,3:0:0:0:
358,162,61957,2,0,L|462:170,1,95.9999970703126,2|10,3:0|0:1,0:0:0:0:
498,268,62372,2,0,L|354:256,1,143.999995605469,2|8,0:0|2:1,0:0:0:0:
301,251,62785,1,2,3:2:0:0:
254,154,62993,2,0,P|289:82|358:56,1,143.999995605469,10|0,0:1|0:0,0:0:0:0:
397,51,63407,5,2,3:0:0:0:
496,87,63613,1,2,0:0:0:0:
496,87,63716,1,2,0:0:0:0:
496,87,63820,2,0,P|469:128|425:151,1,95.9999970703126,10|2,0:1|0:0,0:0:0:0:
388,191,64131,2,0,P|362:230|376:327,1,143.999995605469,2|2,3:0|3:2,0:0:0:0:
463,267,64648,1,10,0:1:0:0:
388,191,64855,1,2,3:2:0:0:
249,253,65062,6,0,B|196:275|196:275|88:250,1,167.999994873047,6|0,3:2|3:0,0:0:0:0:
38,232,65476,1,10,0:1:0:0:
102,137,65683,2,0,P|119:88|107:29,1,103.999995239258,2|0,3:0|0:0,0:0:0:0:
13,79,66095,1,2,3:0:0:0:
102,137,66303,2,0,L|173:133,3,47.9999985351563,0|0|2|0,3:3|3:3|3:3|3:3,0:0:0:0:
202,131,66717,5,4,3:2:0:0:
171,224,66924,1,0,0:0:0:0:
171,224,67131,1,10,0:1:0:0:
258,264,67338,2,0,P|327:277|395:253,1,143.999995605469,2|0,0:0|0:0,0:0:0:0:
434,226,67752,1,2,0:0:0:0:
384,143,67957,1,10,0:1:0:0:
430,59,68165,1,0,0:0:0:0:
331,21,68372,6,0,B|229:5|264:88|152:67,1,191.999994140625,2|14,3:2|0:1,0:0:0:0:
61,38,68993,1,10,3:3:0:0:
63,53,69095,1,8,0:3:0:0:
64,66,69200,2,8,L|69:114,3,47.9999985351563,0|8|10|8,3:2|0:3|3:3|0:3,0:3:0:0:
43,154,69614,1,10,0:1:0:0:
151,193,69819,1,2,0:3:0:0:
96,260,70026,5,6,3:2:0:0:
164,327,70234,1,2,0:0:0:0:
164,327,70338,1,2,0:0:0:0:
164,327,70441,2,0,P|210:337|257:327,1,95.9999970703126,14|2,0:1|3:0,0:0:0:0:
298,313,70752,2,0,P|344:303|391:313,1,95.9999970703126,2|8,2:0|0:1,0:0:0:0:
431,329,71062,1,2,0:0:0:0:
488,252,71269,1,10,0:1:0:0:
416,173,71476,1,2,3:0:0:0:
511,74,71683,6,0,P|438:37|356:49,1,167.999994873047,6|8,3:2|0:1,0:0:0:0:
315,82,72095,1,10,0:1:0:0:
208,21,72303,6,0,L|218:86,1,55.9999982910157,6|0,3:2|0:0,0:0:0:0:
108,227,72717,6,0,L|116:171,1,55.9999982910157,6|0,3:2|0:0,0:0:0:0:
148,163,72924,1,0,3:0:0:0:
144,184,73027,1,0,3:0:0:0:
141,206,73130,1,8,0:1:0:0:
137,228,73234,1,8,0:1:0:0:
134,249,73338,5,6,1:2:0:0:
203,330,73545,1,2,3:0:0:0:
298,284,73752,2,0,L|355:296,3,47.9999985351563,10|2|2|2,0:1|0:0|0:0|0:0,0:0:0:0:
395,304,74165,2,0,P|383:259|395:213,1,95.9999970703126,2|0,3:2|0:0,0:0:0:0:
425,168,74476,2,0,P|437:122|424:76,1,95.9999970703126,2|0,0:0|0:0,0:0:0:0:
390,35,74786,1,2,0:0:0:0:
334,124,74993,5,0,3:0:0:0:
270,39,75200,2,0,L|172:55,1,95.9999970703126,2|10,3:0|0:1,0:0:0:0:
141,158,75613,2,0,L|283:134,1,143.999995605469,2|8,0:0|0:1,0:0:0:0:
334,124,76027,1,2,3:2:0:0:
425,168,76234,2,0,P|383:192|360:233,1,95.9999970703126,10|0,0:1|0:0,0:0:0:0:
352,339,76648,5,2,3:0:0:0:
272,284,76855,1,2,0:0:0:0:
272,284,76958,1,2,0:0:0:0:
272,284,77062,2,0,B|224:275|224:275|180:288,1,95.9999970703126,10|2,0:1|3:0,0:0:0:0:
148,331,77372,2,0,B|104:344|104:344|55:334,1,95.9999970703126,10|10,0:1|0:1,0:0:0:0:
3,319,77683,1,2,3:0:0:0:
62,243,77888,1,10,0:1:0:0:
18,146,78095,1,2,3:2:0:0:
161,211,78303,5,2,3:2:0:0:
275,176,78510,1,2,0:0:0:0:
188,95,78717,1,10,0:1:0:0:
236,254,78924,6,0,P|316:253|361:186,1,167.999994873047,6|0,3:2|0:0,0:0:0:0:
346,179,79338,6,0,P|311:238|242:240,1,143.999995605469,6|0,3:2|0:0,0:0:0:0:
275,176,79752,5,6,3:2:0:0:
275,176,80165,1,6,3:2:0:0:
384,119,80372,1,10,0:1:0:0:
378,241,80579,2,0,B|373:329|373:329|320:360,1,143.999995605469,10|8,3:3|0:0,0:0:0:0:
283,379,80993,1,10,0:3:0:0:
202,327,81200,1,2,0:0:0:0:
107,369,81407,6,0,P|96:297|67:232,1,143.999995605469,6|0,3:2|0:0,0:0:0:0:
33,197,81819,1,2,3:0:0:0:
106,135,82026,1,2,3:0:0:0:
39,24,82234,6,0,L|230:32,1,191.999994140625,6|10,0:0|0:0,0:0:0:0:
337,56,82854,2,0,L|328:8,1,47.9999985351563,10|0,0:1|0:0,0:0:0:0:
209,172,83268,5,6,3:2:0:0:
288,226,83475,2,0,P|285:262|275:318,1,88.000002685547,2|10,0:0|0:0,0:0:0:0:
248,351,83785,1,2,0:0:0:0:
367,309,83992,1,2,3:0:0:0:
202,128,84303,5,8,0:0:0:0:
202,128,84510,2,0,L|208:171,1,44.0000013427735,8|8,3:0|0:0,0:0:0:0:
367,309,84912,6,0,L|373:265,2,44.0000013427735,6|0|2,3:2|0:0|0:0,0:0:0:0:
320,336,85222,1,2,0:0:0:0:
320,336,85325,2,0,L|327:380,2,44.0000013427735,10|2|2,0:0|0:0|0:0,0:0:0:0:
272,313,85636,1,2,3:0:0:0:
130,142,85984,6,0,L|128:186,1,44.0000013427735,8|8,3:3|0:3,0:0:0:0:
98,190,86173,1,8,3:3:0:0:
84,192,86271,1,8,0:3:0:0:
70,194,86370,1,8,0:3:0:0:
56,196,86469,1,8,0:3:0:0:
42,198,86567,6,0,L|48:241,3,44.0000013427735,6|2|2|2,3:2|0:0|0:0|0:0,0:0:0:0:
83,280,86980,1,10,0:0:0:0:
83,280,87084,2,0,L|76:323,1,44.0000013427735,2|0,0:0|0:0,0:0:0:0:
64,375,87291,1,2,3:0:0:0:
304,259,87601,5,8,0:0:0:0:
232,184,87808,1,8,0:0:0:0:
177,249,88015,2,0,L|187:308,1,44.0000013427735
196,344,88222,5,6,3:2:0:0:
139,64,88855,5,2,3:2:0:0:
