osu file format v14

[General]
AudioFilename: audio.mp3
AudioLeadIn: 0
PreviewTime: 174115
Countdown: 0
SampleSet: Soft
StackLeniency: 0.8
Mode: 0
LetterboxInBreaks: 0
EpilepsyWarning: 1
WidescreenStoryboard: 1

[Editor]
Bookmarks: 46705,80990,115276,140990,163848,175276,199562,245276
DistanceSpacing: 0.1
BeatDivisor: 8
GridSize: 32
TimelineZoom: 1.8

[Metadata]
Title:Kokoronashi
TitleUnicode:心做し
Artist:Sou
ArtistUnicode:Sou
Creator:Kalibe
Version:Arunda ne, Kokoro ga. (feat. Moecho)
Source:
Tags:深層から Shinsou Kara 2nd album Moecho beren megpoid gumi 蝶々p japanese novelty rock utaite cover collaboration vocaloid
BeatmapID:2472881
BeatmapSetID:1186471

[Difficulty]
HPDrainRate:7
CircleSize:4
OverallDifficulty:8
ApproachRate:9
SliderMultiplier:3.2
SliderTickRate:1

[Events]
//Background and Video events
0,0,"hmmm.jpg",0,0
//Break Periods
2,195276,197776
//Storyboard Layer 0 (Background)
//Storyboard Layer 1 (Fail)
//Storyboard Layer 2 (Pass)
//Storyboard Layer 3 (Foreground)
//Storyboard Layer 4 (Overlay)
//Storyboard Sound Samples

[TimingPoints]
991,714.285714285714,4,2,1,40,1,0
991,-222.222222222221,4,2,1,40,0,0
23133,-222.222222222221,4,2,1,30,0,0
23758,-100,4,2,1,60,0,0
46705,-111.111111111111,4,2,1,50,0,0
47687,-111.111111111111,4,2,1,10,0,0
47776,-111.111111111111,4,2,1,50,0,0
48758,-111.111111111111,4,2,1,10,0,0
48848,-111.111111111111,4,2,1,50,0,0
51348,-222.222222222222,4,2,1,50,0,0
51705,-74.0740740740741,4,2,1,50,0,0
52419,-111.111111111111,4,2,1,50,0,0
53401,-111.111111111111,4,2,1,10,0,0
53490,-111.111111111111,4,2,1,50,0,0
54473,-111.111111111111,4,2,1,10,0,0
54562,-111.111111111111,4,2,1,50,0,0
57062,-222.222222222222,4,2,1,50,0,0
57419,-74.0740740740741,4,2,1,50,0,0
58133,-111.111111111111,4,2,1,50,0,0
58848,-74.0740740740741,4,2,1,50,0,0
59115,-74.0740740740741,4,2,1,20,0,0
59205,-111.111111111111,4,2,1,50,0,0
60187,-111.111111111111,4,2,1,10,0,0
60276,-111.111111111111,4,2,1,50,0,0
62062,-88.8888888888889,4,2,1,50,0,0
62419,-111.111111111111,4,2,1,50,0,0
62776,-222.222222222222,4,2,1,50,0,0
63133,-74.0740740740741,4,2,1,50,0,0
63848,-111.111111111111,4,2,1,50,0,0
64830,-111.111111111111,4,2,1,10,0,0
64919,-111.111111111111,4,2,1,50,0,0
68490,-222.222222222222,4,2,1,50,0,0
68848,-74.0740740740741,4,2,1,50,0,0
69562,-111.111111111111,4,2,1,50,0,0
70901,-111.111111111111,4,2,1,10,0,0
70990,-111.111111111111,4,2,1,50,0,0
71615,-111.111111111111,4,2,1,10,0,0
71705,-111.111111111111,4,2,1,50,0,0
74205,-222.222222222222,4,2,1,50,0,0
74562,-74.0740740740741,4,2,1,50,0,0
74830,-74.0740740740741,4,2,1,10,0,0
74919,-74.0740740740741,4,2,1,50,0,0
75276,-111.111111111111,4,2,1,50,0,0
75633,-88.8888888888889,4,2,1,50,0,0
78490,-222.222222222222,4,2,1,35,0,0
79919,-111.111111111111,4,2,1,50,0,0
80276,-74.0740740740741,4,2,1,50,0,0
80321,-74.0740740740741,4,2,2,75,0,0
80544,-74.0740740740741,4,2,2,5,0,0
80633,-111.111111111111,4,2,1,50,0,0
80990,-90.9090909090909,4,2,2,60,0,0
81080,-90.9090909090909,4,2,1,70,0,1
86348,-80,4,2,1,70,0,1
86526,-66.6666666666667,4,2,1,70,0,1
86705,-83.3333333333333,4,2,1,70,0,1
87419,-76.9230769230769,4,2,1,70,0,1
88490,-90.9090909090909,4,2,1,70,0,1
92062,-333.333333333333,4,2,1,70,0,1
92330,-333.333333333333,4,2,1,5,0,1
92419,-100,4,2,1,70,0,1
93133,-86.9565217391304,4,2,1,70,0,1
93669,-76.9230769230769,4,2,1,70,0,1
93848,-83.3333333333333,4,2,1,70,0,1
94205,-100,4,2,1,70,0,1
98133,-90.9090909090909,4,2,1,70,0,1
99383,-71.4285714285714,4,2,1,70,0,1
99562,-90.9090909090909,4,2,1,70,0,1
103133,-142.857142857143,4,2,1,70,0,1
103848,-133.333333333333,4,2,1,32,0,0
108133,-100,4,2,1,32,0,0
108848,-222.222222222221,4,2,1,32,0,0
109562,-133.333333333333,4,2,1,32,0,0
115276,-133.333333333333,4,2,1,50,0,0
115812,-111.111111111111,4,2,1,50,0,0
119919,-222.222222222222,4,2,1,50,0,0
120276,-74.0740740740741,4,2,1,50,0,0
120990,-111.111111111111,4,2,1,50,0,0
125633,-222.222222222222,4,2,1,50,0,0
125990,-111.111111111111,4,2,1,50,0,0
126705,-74.0740740740741,4,2,1,50,0,0
127419,-57.1428571428571,4,2,1,50,0,0
127776,-111.111111111111,4,2,1,50,0,0
129562,-74.0740740740741,4,2,1,50,0,0
130098,-111.111111111111,4,2,1,50,0,0
132419,-74.0740740740741,4,2,1,50,0,0
132955,-111.111111111111,4,2,1,50,0,0
137062,-222.222222222222,4,2,1,50,0,0
137419,-74.0740740740741,4,2,1,50,0,0
138133,-222.222222222222,4,2,1,50,0,0
140276,-74.0740740740741,4,2,1,50,0,0
140901,-74.0740740740741,4,2,1,5,0,0
140990,-95.2380952380952,4,2,2,70,0,0
141080,-86.9565217391304,4,2,1,70,0,0
144562,-74.0740740740741,4,2,1,70,0,0
144830,-86.9565217391304,4,2,1,70,0,0
145633,-66.6666666666667,4,2,1,70,0,0
145990,-74.0740740740741,4,2,1,70,0,0
146705,-100,4,2,1,70,0,0
152062,-333.333333333333,4,2,1,70,0,0
152419,-100,4,2,1,70,0,0
163848,-111.111111111111,4,2,1,60,0,0
165901,-111.111111111111,4,2,1,5,0,0
165990,-74.0740740740741,4,2,1,60,0,0
166348,-111.111111111111,4,2,1,60,0,0
168490,-222.222222222222,4,2,1,60,0,0
168848,-74.0740740740741,4,2,1,60,0,0
169115,-74.0740740740741,4,2,1,5,0,0
169205,-74.0740740740741,4,2,1,60,0,0
169562,-88.8888888888889,4,2,1,60,0,0
172776,-222.222222222222,4,2,1,60,0,0
174205,-111.111111111111,4,2,1,50,0,0
175276,-111.111111111111,4,2,1,45,0,0
178133,-200,4,2,1,45,0,0
185990,-83.3333333333333,4,2,1,50,0,0
186258,-166.666666666667,4,2,1,5,0,0
186348,-125,4,2,1,50,0,0
186615,-166.666666666667,4,2,1,5,0,0
186705,-200,4,2,1,50,0,0
187062,-111.111111111111,4,2,1,50,0,0
187330,-111.111111111111,4,2,1,5,0,0
187419,-249.999999999999,4,2,1,50,0,0
192062,-142.857142857143,4,2,1,50,0,0
192776,-222.222222222222,4,2,1,50,0,0
193133,-114.942528735632,4,2,1,50,0,0
198848,-76.9230769230769,4,2,1,80,0,0
198937,-76.9230769230769,4,2,2,100,0,0
199473,-100,4,2,1,5,0,0
199562,-90.9090909090909,4,2,2,70,0,1
199651,-90.9090909090909,4,2,1,70,0,1
204919,-80,4,2,1,70,0,1
205098,-66.6666666666667,4,2,1,70,0,1
205276,-83.3333333333333,4,2,1,70,0,1
205990,-76.9230769230769,4,2,1,70,0,1
207062,-90.9090909090909,4,2,1,70,0,1
210990,-90.9090909090909,4,2,1,70,0,1
221705,-142.857142857143,4,2,1,70,0,1
222240,-142.857142857143,4,2,1,15,0,1
222419,-100,4,2,1,60,0,0
227062,-200,4,2,1,60,0,0
227419,-80,4,2,1,60,0,0
228133,-100,4,2,1,60,0,0
232776,-200,4,2,1,60,0,0
233133,-80,4,2,1,60,0,0
233401,-80,4,2,1,5,0,0
233490,-100,4,2,1,60,0,0
238490,-200,4,2,1,60,0,0
238848,-100,4,2,1,70,0,0
245276,-250,4,2,1,35,0,0
260990,-142.857142857143,4,2,1,35,0,0

[Colours]
Combo1 : 215,184,218
Combo2 : 209,180,118
Combo3 : 202,201,172
Combo4 : 199,139,183

[HitObjects]
68,76,991,5,0,0:0:0:0:
162,143,1348,1,0,0:0:0:0:
282,111,1705,1,2,0:0:0:0:
173,157,2419,5,0,0:0:0:0:
247,235,2776,1,0,0:0:0:0:
371,253,3133,1,2,0:0:0:0:
264,264,3490,38,0,P|251:283|247:308,1,35.9999989013672
273,368,3848,1,2,0:0:0:0:
222,316,4205,1,0,0:0:0:0:
222,316,4383,2,0,P|187:301|146:298,1,71.9999978027344
224,189,4919,2,0,P|187:197|154:218,1,71.9999978027344,0|2,0:0|0:0,0:0:0:0:
92,256,5633,1,0,0:0:0:0:
92,256,5990,5,2,0:0:0:0:
111,325,6169,1,0,0:0:0:0:
51,264,6348,1,0,0:0:0:0:
51,264,6705,38,0,L|63:186,1,71.9999978027344,2|0,0:0|0:0,0:0:0:0:
249,140,7419,1,2,0:0:0:0:
249,140,7776,2,0,L|293:150,1,35.9999989013672
512,210,8133,6,0,P|478:203|442:175,1,71.9999978027344,2|0,0:0|0:0,0:0:0:0:
353,93,8848,1,0,0:0:0:0:
353,93,9205,2,0,P|333:100|313:118,1,35.9999989013672
167,131,9562,38,0,P|144:157|127:202,1,71.9999978027344,2|0,0:0|0:0,0:0:0:0:
60,216,10098,2,0,P|74:248|97:275,1,71.9999978027344
61,340,10633,2,0,P|91:357|139:363,2,71.9999978027344,0|2|0,0:0|0:2|0:0,0:0:0:0:
246,216,11705,1,2,0:0:0:0:
296,271,11883,1,0,0:0:0:0:
214,227,12062,1,0,0:0:0:0:
214,227,12419,6,0,L|137:243,1,71.9999978027344,2|0,0:0|0:0,0:0:0:0:
0,144,13133,1,2,0:0:0:0:
144,223,13490,1,0,0:0:0:0:
77,285,13848,38,0,L|65:239,1,35.9999989013672,2|0,0:0|0:0,0:0:0:0:
151,146,14205,2,0,B|161:105|166:129|180:67,2,71.9999978027344,0|2|0,0:0|0:0|0:0,0:0:0:0:
281,349,15276,5,2,0:0:0:0:
356,330,15633,1,0,0:0:0:0:
358,322,15812,1,0,0:0:0:0:
435,306,16169,1,0,0:0:0:0:
437,299,16348,1,0,0:0:0:0:
349,319,16705,38,0,P|318:299|276:275,1,71.9999978027344,2|0,0:0|0:0,0:0:0:0:
133,176,17419,1,2,0:0:0:0:
133,176,17598,1,0,0:0:0:0:
133,176,17776,2,0,P|102:195|60:220,1,71.9999978027344,0|2,0:0|0:0,0:0:0:0:
0,249,18848,5,0,0:0:0:0:
9,257,19562,37,2,0:0:0:0:
126,224,19919,1,0,0:0:0:0:
201,311,20276,1,0,0:2:0:0:
212,324,20990,5,2,0:0:0:0:
321,384,21348,1,0,0:0:0:0:
400,304,21705,1,0,0:0:0:0:
308,315,22062,38,0,P|242:305|86:311,1,215.999993408203,2|2,0:0|1:2,0:0:0:0:
0,21,23758,5,0,1:0:0:0:
0,21,23848,2,0,P|51:33|164:47,1,160,4|2,1:0|0:3,0:0:0:0:
369,148,24562,2,0,P|424:94|385:29,1,160,8|2,1:0|0:3,0:0:0:0:
309,106,25098,37,0,1:0:0:0:
309,106,25187,1,0,3:0:0:0:
309,106,25276,2,0,P|284:127|226:134,1,80,2|8,1:2|0:0,0:0:0:0:
81,259,25633,2,0,P|127:267|173:207,1,120,2|0,1:2|0:0,0:0:0:0:
238,136,25990,2,0,B|217:145|210:101|289:67|348:161,1,160,10|0,1:2|3:0,0:0:0:0:
504,352,26705,5,2,1:3:0:0:
384,260,27062,1,0,1:0:0:0:
239,337,27419,2,0,L|79:317,1,160,8|2,1:0|0:3,0:0:0:0:
80,317,27955,37,0,1:0:0:0:
80,317,28044,1,0,3:0:0:0:
80,317,28133,1,2,1:3:0:0:
196,217,28312,1,8,1:0:0:0:
105,132,28490,2,0,L|126:226,1,80,4|0,1:3|0:0,0:0:0:0:
305,374,28848,5,10,1:2:0:0:
317,295,29205,1,0,3:0:0:0:
335,124,29383,37,8,1:0:0:0:
350,46,29562,2,0,B|436:64|407:98|494:118,2,160,4|2|8,1:0|0:3|1:0,0:0:0:0:
88,181,30633,2,0,L|181:170,1,80,2|0,0:0|1:0,0:0:0:0:
167,171,30901,1,8,0:0:0:0:
167,171,30990,1,2,1:2:0:0:
320,279,31169,5,8,1:0:0:0:
384,151,31348,2,0,P|343:139|282:245,1,160,2|8,1:3|1:0,0:0:0:0:
273,216,32062,1,0,3:0:0:0:
3,257,32419,37,4,1:2:0:0:
170,204,32776,1,0,3:0:0:0:
151,282,32955,1,0,3:0:0:0:
128,130,33133,1,8,1:0:0:0:
307,172,33312,5,2,0:0:0:0:
295,247,33490,1,2,0:0:0:0:
278,322,33669,1,2,1:2:0:0:
282,326,33758,1,0,3:0:0:0:
287,330,33848,37,2,1:3:0:0:
227,199,34026,1,8,1:0:0:0:
369,104,34205,2,0,P|440:114|478:197,1,160,4|10,1:2|1:2,0:0:0:0:
467,194,34919,5,8,1:0:0:0:
311,221,35098,37,8,1:0:0:0:
122,245,35276,5,4,1:0:0:0:
115,255,35633,2,0,P|109:214|113:72,2,160,2|8|2,0:0|1:0|0:0,0:0:0:0:
232,348,36526,37,0,1:0:0:0:
232,348,36615,1,0,3:0:0:0:
232,348,36705,1,2,1:3:0:0:
119,262,36883,1,8,1:0:0:0:
265,170,37062,2,0,P|251:204|246:258,1,80,2|0,1:3|0:0,0:0:0:0:
337,317,37419,2,0,B|432:292|393:338|499:302,1,160,8|0,1:0|3:0,0:0:0:0:
395,140,38133,6,0,P|381:106|383:12,1,120,2|0,1:2|0:0,0:0:0:0:
380,24,38490,2,0,P|340:35|289:36,1,80,0|0,3:0|0:0,0:0:0:0:
134,109,38848,2,0,B|157:72|206:85|217:126|217:126|204:180,1,160,8|2,1:0|0:3,0:0:0:0:
287,281,39383,1,0,3:0:0:0:
296,286,39473,1,8,0:0:0:0:
307,290,39562,1,2,1:2:0:0:
213,178,39740,37,8,1:0:0:0:
165,262,39919,2,0,P|84:273|-2:288,1,160,6|8,0:3|1:0,0:0:0:0:
7,286,40633,1,0,3:0:0:0:
60,146,40812,5,8,1:0:0:0:
0,81,40990,2,0,B|78:92|53:128|153:134,1,160,4|2,1:0|0:3,0:0:0:0:
340,288,41705,2,0,P|346:247|364:200,1,80,8|0,1:0|0:0,0:0:0:0:
359,211,42062,2,0,P|318:205|271:187,1,80,2|0,1:2|3:0,0:0:0:0:
216,156,42330,1,8,1:0:0:0:
213,163,42419,37,2,1:3:0:0:
341,82,42598,1,8,1:0:0:0:
165,2,42776,2,0,P|213:8|243:78,1,120
245,67,43133,2,0,P|207:78|155:98,1,80,8|0,1:0|0:0,0:0:0:0:
29,189,43490,2,0,P|40:227|60:279,1,80,2|0,1:2|0:0,0:0:0:0:
0,364,43848,5,2,1:2:0:0:
246,288,44205,1,0,1:0:0:0:
323,297,44383,1,0,3:0:0:0:
203,227,44562,1,8,1:0:0:0:
138,196,44740,37,2,0:0:0:0:
236,149,44919,1,2,1:2:0:0:
339,166,45098,1,0,1:0:0:0:
345,171,45187,1,8,1:0:0:0:
350,177,45276,5,0,3:0:0:0:
203,227,45455,1,8,0:0:0:0:
101,115,45633,1,6,1:3:0:0:
101,115,45901,1,0,1:0:0:0:
101,115,45990,1,8,1:0:0:0:
133,139,46348,37,8,1:0:0:0:
7,88,46526,1,8,1:0:0:0:
175,6,46705,22,0,P|228:52|298:61,1,143.999995605469,4|0,1:0|0:0,0:0:0:0:
462,222,47419,2,0,P|409:228|376:269,1,107.999996704102,8|0,1:0|0:0,0:0:0:0:
470,230,47776,2,0,P|490:200|489:165,1,71.9999978027344,2|0,0:3|3:0,0:0:0:0:
444,107,48044,1,8,3:0:0:0:
437,110,48133,1,2,1:0:0:0:
305,300,48312,1,8,1:0:0:0:
307,223,48490,6,0,P|273:183|221:171,1,107.999996704102,2|0,3:0|0:0,0:0:0:0:
147,251,48848,2,0,L|75:259,1,71.9999978027344,8|0,1:0|0:0,0:0:0:0:
3,273,49205,37,0,3:0:0:0:
146,325,49383,1,2,0:0:0:0:
288,377,49562,2,0,P|255:366|234:337,1,71.9999978027344,2|0,1:3|0:0,0:0:0:0:
222,264,49919,5,0,3:0:0:0:
22,194,50098,2,0,P|55:183|76:154,1,71.9999978027344,2|8,0:0|1:0,0:0:0:0:
281,149,50455,2,0,L|288:77,1,71.9999978027344,2|2,0:0|1:3,0:0:0:0:
285,73,50723,1,0,1:0:0:0:
281,69,50812,2,0,L|245:73,1,35.9999989013672,0|8,3:0|3:0,0:0:0:0:
174,40,50990,37,2,1:0:0:0:
320,226,51169,1,8,1:0:0:0:
411,156,51348,2,0,L|407:120,1,35.9999989013672,6|0,3:0|0:0,0:0:0:0:
407,120,51705,6,0,B|459:113|488:178|488:178|365:202|380:112|269:153,1,324.000001235962,10|8,1:0|0:0,0:0:0:0:
150,265,52419,38,0,P|196:212|205:142,1,143.999995605469,4|2,1:0|0:0,0:0:0:0:
281,149,52955,1,0,0:0:0:0:
236,312,53133,2,0,P|202:271|150:265,1,107.999996704102,8|0,1:0|0:0,0:0:0:0:
87,223,53490,2,0,P|60:245|51:280,1,71.9999978027344,0|8,1:0|3:0,0:0:0:0:
107,331,53758,1,0,3:0:0:0:
114,328,53847,1,2,1:0:0:0:
45,109,54026,1,8,1:0:0:0:
1,171,54205,6,0,P|35:211|87:223,1,107.999996704102,2|0,3:0|0:0,0:0:0:0:
174,183,54562,2,0,L|246:191,1,71.9999978027344,8|0,1:0|0:0,0:0:0:0:
286,285,54919,37,0,3:0:0:0:
338,142,55097,1,2,0:0:0:0:
390,0,55276,2,0,P|379:33|350:54,1,71.9999978027344,2|0,1:3|0:0,0:0:0:0:
282,87,55633,5,8,3:0:0:0:
120,143,55812,2,0,P|153:154|174:183,1,71.9999978027344,0|8,3:0|1:0,0:0:0:0:
286,285,56169,2,0,L|278:356,1,71.9999978027344,2|2,0:0|0:3,0:0:0:0:
282,361,56437,1,0,1:0:0:0:
286,365,56526,2,0,L|322:361,1,35.9999989013672,0|8,3:0|0:2,0:0:0:0:
397,355,56705,37,2,1:0:0:0:
229,235,56883,1,8,1:0:0:0:
330,184,57062,2,0,L|326:220,1,35.9999989013672,6|0,3:0|0:0,0:0:0:0:
326,220,57419,6,0,B|406:242|429:170|429:170|401:154,1,162.000000617981,10|0,1:0|0:0,0:0:0:0:
336,105,57776,37,8,0:0:0:0:
431,283,57955,1,8,0:0:0:0:
322,361,58133,6,0,P|268:315|197:307,1,143.999995605469,4|2,1:0|0:3,0:0:0:0:
16,76,58848,2,0,B|0:90|5:114|5:114|30:136|30:136|115:120,1,162.000000617981,8|0,1:0|0:0,0:0:0:0:
120,124,59205,2,0,L|128:52,1,71.9999978027344,2|0,1:3|3:0,0:0:0:0:
76,0,59473,1,8,3:0:0:0:
69,3,59562,1,2,1:0:0:0:
169,185,59740,1,8,0:0:0:0:
236,148,59919,38,0,P|287:159|322:199,1,107.999996704102,2|0,1:3|0:0,0:0:0:0:
420,173,60276,2,0,L|412:245,1,71.9999978027344,8|0,1:0|0:0,0:0:0:0:
249,363,60633,2,0,P|228:334|195:320,1,71.9999978027344,2|0,1:2|0:0,0:0:0:0:
215,242,60901,1,0,1:0:0:0:
211,246,60990,6,0,B|247:259|247:259|311:236|311:236|322:200,1,143.999995605469,2|0,1:3|3:0,0:0:0:0:
360,131,61526,1,2,0:0:0:0:
489,208,61705,1,8,1:0:0:0:
360,131,61883,2,0,L|364:96,1,35.9999989013672,2|0,0:0|0:0,0:0:0:0:
359,19,62062,2,0,P|403:26|433:58,1,90.0000034332277,2|8,0:3|3:0,0:0:0:0:
444,132,62330,1,0,3:0:0:0:
437,135,62419,37,2,1:0:0:0:
252,178,62598,1,8,1:0:0:0:
332,103,62776,2,0,L|368:99,1,35.9999989013672,6|0,3:0|0:0,0:0:0:0:
368,99,63133,6,0,B|371:57|371:57|350:25|307:21|307:21|301:121|301:121|329:156|329:156|323:216,1,324.000001235962,10|8,1:0|0:0,0:0:0:0:
388,384,63848,38,0,P|441:337|512:329,1,143.999995605469,4|2,1:0|0:3,0:0:0:0:
297,145,64562,2,0,P|256:178|249:230,1,107.999996704102,8|0,1:0|0:0,0:0:0:0:
246,347,64919,2,0,P|234:313|205:292,1,71.9999978027344,2|8,0:3|3:0,0:0:0:0:
138,257,65187,1,0,3:0:0:0:
131,260,65276,1,2,1:0:0:0:
183,109,65455,2,0,L|111:117,1,71.9999978027344,8|2,1:0|1:3,0:0:0:0:
159,186,65812,1,0,1:0:0:0:
218,0,65990,5,8,1:0:0:0:
83,194,66348,1,0,3:0:0:0:
319,214,66705,1,2,3:1:0:0:
323,210,67062,37,2,3:0:0:0:
218,235,67240,5,8,3:0:0:0:
113,260,67419,37,8,1:0:0:0:
428,335,67776,5,2,0:3:0:0:
354,303,67955,1,8,3:0:0:0:
350,307,68044,1,8,1:0:0:0:
346,311,68133,37,4,3:0:0:0:
269,384,68312,1,8,1:0:0:0:
327,214,68490,2,0,L|363:218,1,35.9999989013672,6|0,3:0|0:0,0:0:0:0:
363,218,68848,6,0,B|351:247|314:243|314:243|341:144,1,162.000000617981,10|0,1:0|0:0,0:0:0:0:
384,81,69205,37,8,0:0:0:0:
437,230,69383,1,8,0:0:0:0:
364,377,69562,6,0,P|418:330|488:322,1,143.999995605469,4|2,1:0|0:3,0:0:0:0:
436,0,70276,2,0,P|429:52|388:85,1,107.999996704102,8|0,1:0|0:0,0:0:0:0:
388,85,70633,2,0,B|450:93|419:116|485:126,1,107.999996704102,0|0,1:0|0:0,0:0:0:0:
508,54,70990,37,2,1:0:0:0:
437,230,71169,1,8,1:0:0:0:
362,217,71348,6,0,P|310:228|275:268,1,107.999996704102,2|0,1:3|0:0,0:0:0:0:
183,247,71705,2,0,L|191:319,1,71.9999978027344,8|2,1:0|0:0,0:0:0:0:
263,341,71973,1,0,1:0:0:0:
270,344,72062,37,0,3:0:0:0:
75,368,72240,1,0,3:0:0:0:
114,295,72419,5,2,1:2:0:0:
345,371,72776,1,0,3:0:0:0:
296,133,73133,37,8,1:0:0:0:
26,294,73490,2,0,P|3:265|1:230,1,71.9999978027344,6|8,0:3|3:0,0:0:0:0:
67,191,73758,1,0,3:0:0:0:
74,194,73847,5,2,1:0:0:0:
0,369,74026,1,8,1:0:0:0:
191,319,74205,2,0,L|195:283,1,35.9999989013672,6|0,3:0|0:0,0:0:0:0:
195,283,74562,38,0,B|211:297|206:321|206:321|181:343|181:343|96:327,1,162.000000617981,10|0,1:0|0:0,0:0:0:0:
187,275,74919,2,0,B|213:250|248:263|248:263|275:299|275:299|273:310|273:310|310:348|310:348|334:356|349:348,1,216.000000823975,8|6,3:0|0:3,0:0:0:0:
462,93,75633,6,0,B|548:63|520:-23|486:-26|456:4,2,180.000006866455,2|8|2,0:0|1:0|0:3,0:0:0:0:
400,139,76526,1,2,0:0:0:0:
400,139,76615,1,0,1:0:0:0:
400,139,76705,37,2,1:0:0:0:
375,244,76883,1,8,1:0:0:0:
350,348,77062,2,0,P|384:321|428:317,1,90.0000034332277,2|0,3:0|0:0,0:0:0:0:
423,14,77419,6,0,B|381:2|354:20|371:110|461:93,1,180.000006866455,8|6,1:0|1:2,0:0:0:0:
457,97,78490,37,2,0:3:0:0:
183,151,78848,1,0,0:0:0:0:
0,188,79205,2,0,P|36:204|58:232,1,71.9999978027344,2|0,0:0|0:0,0:0:0:0:
56,229,79919,5,0,3:0:0:0:
183,151,80098,1,8,1:3:0:0:
173,173,80187,1,8,1:3:0:0:
242,201,80276,2,0,B|218:101|280:144|265:47,1,162.000000617981,14|0,1:0|0:0,0:0:0:0:
202,2,80633,2,0,B|177:10|177:10|190:53,1,71.9999978027344,4|2,0:3|0:3,0:0:0:0:
304,327,80990,5,4,1:2:0:0:
440,121,81348,2,0,P|410:89|357:100,1,88.000002685547,6|0,0:3|0:0,0:0:0:0:
217,219,81705,5,8,1:0:0:0:
444,125,82062,2,0,P|412:155|423:208,1,88.000002685547,6|0,0:3|1:0,0:0:0:0:
428,222,82330,1,8,1:0:0:0:
457,241,82419,1,2,1:0:0:0:
282,152,82598,37,8,1:0:0:0:
282,152,82776,2,0,L|119:180,1,132.00000402832,4|0,0:3|0:0,0:0:0:0:
120,181,83133,2,0,B|112:166|112:166|195:186,1,88.000002685547,12|0,1:2|0:0,0:0:0:0:
328,312,83490,6,0,P|356:284|345:241,1,88.000002685547,6|0,1:3|0:0,0:0:0:0:
127,328,83848,2,0,L|267:363,1,132.00000402832,6|0,1:2|0:0,0:0:0:0:
255,360,84205,1,6,1:3:0:0:
269,191,84383,37,0,3:0:0:0:
141,331,84562,1,10,1:0:0:0:
78,156,84740,1,2,0:0:0:0:
171,243,84919,5,4,0:3:0:0:
1,326,85098,1,0,3:0:0:0:
0,295,85187,1,8,1:0:0:0:
26,273,85276,1,2,1:0:0:0:
177,247,85455,37,8,0:0:0:0:
41,139,85633,2,0,P|62:84|146:104,1,132.00000402832,4|0,1:3|0:0,0:0:0:0:
198,138,85990,5,12,1:2:0:0:
357,224,86169,1,0,3:0:0:0:
198,138,86348,38,0,P|227:127|245:98,1,50,8|0,1:0|1:0,0:0:0:0:
357,224,86526,6,0,P|379:203|387:174,1,60.0000022888184,8|8,1:0|1:0,0:0:0:0:
433,56,86705,38,0,B|419:116|419:116|406:174|341:177|325:122,1,191.999994140625,4|4,1:0|0:3,0:0:0:0:
435,50,87240,1,2,0:0:0:0:
364,229,87419,6,0,B|351:202|351:202|205:225,1,155.999992858887,12|0,1:0|0:0,0:0:0:0:
207,224,87776,2,0,P|177:193|218:137,1,103.999995239258,6|8,1:3|3:0,0:0:0:0:
273,111,88044,37,8,1:0:0:0:
293,122,88133,1,6,1:2:0:0:
162,309,88312,1,8,0:0:0:0:
49,158,88490,2,0,P|50:116|126:70,1,132.00000402832,4|0,1:3|0:0,0:0:0:0:
119,69,88848,2,0,P|77:58|29:28,1,88.000002685547,10|0,1:0|0:0,0:0:0:0:
178,193,89205,2,0,B|192:282|160:234|177:325,1,132.00000402832,4|0,0:3|0:0,0:0:0:0:
233,379,89562,6,0,B|196:307|103:318|82:383|141:387,2,176.000005371094,0|8|8,3:0|1:3|1:0,0:0:0:0:
176,323,90455,1,2,0:0:0:0:
347,227,90633,2,0,P|377:253|375:317,1,88.000002685547,4|8,1:3|0:3,0:0:0:0:
382,298,90901,1,8,1:0:0:0:
382,298,90990,37,2,1:0:0:0:
261,354,91169,1,8,1:0:0:0:
361,219,91348,5,6,1:3:0:0:
275,84,91526,37,8,1:0:0:0:
279,92,91615,1,8,1:0:0:0:
283,100,91705,1,8,3:0:0:0:
482,187,91883,1,8,3:0:0:0:
419,297,92062,6,0,P|412:316|412:333,1,35.9999989013672,12|0,3:0|0:0,0:0:0:0:
491,350,92419,38,0,B|382:335|440:378|331:354,1,160,6|4,1:0|0:3,0:0:0:0:
158,299,92955,1,2,0:0:0:0:
45,278,93133,6,0,B|67:237|124:229|124:229|76:251|77:314,1,184.000003509522,10|0,1:0|0:0,0:0:0:0:
158,299,93669,2,0,L|231:284,1,51.999997619629,0|8,3:0|1:0,0:0:0:0:
371,340,93848,38,0,P|368:297|315:273,1,95.9999970703126,6|8,1:3|0:0,0:0:0:0:
173,180,94205,2,0,P|139:190|128:244,1,80,4|0,1:3|0:0,0:0:0:0:
150,83,94562,2,0,P|160:130|264:162,2,160,12|4|2,1:2|3:0|1:2,0:0:0:0:
256,165,95455,5,0,0:0:0:0:
300,315,95633,1,6,0:3:0:0:
237,352,95812,1,0,3:0:0:0:
328,178,95990,1,8,1:0:0:0:
371,295,96169,37,2,0:3:0:0:
232,147,96348,1,4,0:3:0:0:
54,284,96526,2,0,L|-1:297,2,40,0|8|4,3:0|1:3|3:0,0:0:0:0:
205,241,96883,6,0,L|289:261,1,80,8|4,1:0|3:0,0:0:0:0:
343,313,97240,1,0,0:0:0:0:
205,241,97419,1,8,1:0:0:0:
343,313,97598,1,0,1:0:0:0:
512,132,97776,37,8,1:0:0:0:
376,204,97955,1,8,1:0:0:0:
474,263,98133,2,0,B|497:239|495:201|449:185|449:185|361:209,1,176.000005371094,6|6,1:0|0:3,0:0:0:0:
304,236,98669,1,0,0:0:0:0:
182,165,98848,1,12,1:2:0:0:
123,227,99026,5,2,0:0:0:0:
0,277,99205,1,4,0:3:0:0:
147,246,99383,1,0,1:0:0:0:
147,246,99473,1,8,1:0:0:0:
147,246,99562,1,2,1:3:0:0:
30,204,99740,37,0,1:0:0:0:
170,325,99919,1,4,1:3:0:0:
370,242,100098,5,0,3:0:0:0:
272,328,100276,2,0,P|228:326|196:289,1,88.000002685547,10|0,1:0|0:0,0:0:0:0:
199,296,100633,2,0,P|160:348|60:328,2,176.000005371094,6|2|6,3:0|1:2|0:3,0:0:0:0:
300,148,101526,37,0,3:0:0:0:
269,8,101705,1,12,1:2:0:0:
309,29,101883,1,2,0:0:0:0:
257,160,102062,1,4,0:3:0:0:
185,49,102240,5,8,3:0:0:0:
183,55,102330,1,0,3:0:0:0:
190,55,102419,1,2,1:0:0:0:
365,121,102598,1,8,1:0:0:0:
249,206,102776,37,6,0:3:0:0:
120,249,102955,1,8,1:3:0:0:
296,323,103133,6,0,P|380:339|520:381,1,223.999993164063,12|0,1:0|0:0,0:0:0:0:
347,230,105276,38,0,B|336:201|336:201|273:211|343:269,1,120.000004577637,2|0,0:0|0:3,0:0:0:0:
391,316,105812,1,2,0:0:0:0:
225,159,106705,6,0,B|264:156|251:117|196:115|173:180,1,120.000004577637,2|0,0:0|0:0,0:0:0:0:
138,239,107240,1,2,0:0:0:0:
92,42,108133,38,0,B|58:57|58:57|204:39,1,160,2|0,0:0|0:0,0:0:0:0:
258,59,108848,2,0,L|266:100,2,35.9999989013672,2|0|0,0:0|0:0|0:0,0:0:0:0:
475,162,109562,6,0,B|505:152|448:119|382:182,1,120.000004577637,2|0,0:0|0:0,0:0:0:0:
334,233,110098,1,2,0:0:0:0:
168,297,110990,38,0,B|141:305|141:305|153:277|186:262|219:283,1,120.000004577637,2|0,0:0|0:0,0:0:0:0:
280,334,111526,1,2,0:0:0:0:
66,139,112419,6,0,B|72:113|72:113|50:106|50:106|36:133|57:173,1,120.000004577637,2|0,0:0|0:0,0:0:0:0:
99,242,112955,1,2,0:0:0:0:
259,7,113848,37,2,0:0:0:0:
256,56,114205,1,0,0:0:0:0:
242,105,114383,5,0,3:0:0:0:
253,110,114473,1,0,3:0:0:0:
263,114,114562,37,8,1:0:0:0:
254,238,114740,5,8,3:0:0:0:
245,362,114919,6,0,B|310:338|276:317|342:296,2,120.000004577637,8|4|0,3:0|1:2|3:0,0:0:0:0:
135,184,115812,2,0,L|206:192,1,71.9999978027344,8|6,1:0|0:3,0:0:0:0:
135,184,116169,1,0,3:0:0:0:
84,122,116348,2,0,B|69:102|40:99|40:99|57:190,1,143.999995605469,0|2,3:0|0:3,0:0:0:0:
47,311,116883,1,0,3:0:0:0:
100,253,117062,5,4,1:3:0:0:
227,270,117240,1,2,1:2:0:0:
56,382,117419,2,0,L|47:310,1,71.9999978027344,8|2,1:0|0:3,0:0:0:0:
104,249,117776,37,0,3:0:0:0:
231,266,117954,1,8,1:0:0:0:
367,285,118133,2,0,P|356:318|327:339,1,71.9999978027344,6|0,1:3|0:0,0:0:0:0:
253,341,118490,5,0,3:0:0:0:
88,365,118669,2,0,P|77:332|48:311,1,71.9999978027344,8|6,1:0|0:3,0:0:0:0:
161,196,119026,2,0,L|168:124,2,71.9999978027344,2|2|2,3:2|0:3|3:0,0:0:0:0:
165,200,119473,1,8,1:0:0:0:
169,204,119562,2,0,L|205:200,1,35.9999989013672,0|0,3:0|1:0,0:0:0:0:
243,132,119740,37,8,1:0:0:0:
76,54,119919,2,0,L|80:18,1,35.9999989013672,6|0,3:0|0:0,0:0:0:0:
80,19,120276,6,0,B|28:12|-1:77|-1:77|122:101|107:11|218:52,1,324.000001235962,10|8,1:0|0:0,0:0:0:0:
356,0,120990,38,0,P|426:8|480:54,1,143.999995605469,4|0,1:0|3:0,0:0:0:0:
325,141,121526,2,0,L|317:70,1,71.9999978027344,8|6,1:0|0:3,0:0:0:0:
325,141,121883,1,0,3:0:0:0:
375,198,122062,2,0,B|405:202|405:202|397:220|377:226|377:226|302:216,1,143.999995605469,0|2,3:0|1:3,0:0:0:0:
250,162,122598,1,4,0:3:0:0:
190,113,122777,5,4,1:2:0:0:
207,240,122955,1,2,1:3:0:0:
314,66,123133,2,0,L|242:57,1,71.9999978027344,8|2,1:0|0:3,0:0:0:0:
186,117,123491,37,2,1:3:0:0:
203,244,123669,1,8,1:0:0:0:
220,371,123848,2,0,P|240:342|274:330,1,71.9999978027344,6|0,1:3|0:0,0:0:0:0:
355,327,124205,5,0,3:0:0:0:
396,132,124383,2,0,P|407:165|436:186,1,71.9999978027344,8|4,1:0|0:3,0:0:0:0:
503,269,124740,2,0,L|510:197,2,71.9999978027344,2|2|2,3:2|0:3|3:0,0:0:0:0:
499,273,125187,1,8,1:0:0:0:
495,277,125276,2,0,L|459:281,1,35.9999989013672,0|0,3:0|1:0,0:0:0:0:
390,251,125455,1,2,1:3:0:0:
274,330,125633,2,0,L|278:294,1,35.9999989013672,6|0,3:0|0:0,0:0:0:0:
318,232,125901,1,8,3:0:0:0:
315,225,125990,37,8,1:0:0:0:
144,136,126258,5,8,1:0:0:0:
56,275,126526,37,10,0:2:0:0:
81,269,126615,1,10,0:2:0:0:
92,271,126705,6,0,B|87:313|87:313|82:327|63:334|63:334|81:194,1,216.000000823975,4|10,1:0|1:2,0:0:0:0:
421,107,127419,2,0,B|437:121|432:145|432:145|407:167|407:167|343:154,1,140.000001335144,0|0,1:0|3:0,0:0:0:0:
297,94,127776,1,2,1:2:0:0:
144,136,127955,2,0,L|136:64,1,71.9999978027344,8|4,1:0|0:3,0:0:0:0:
71,30,128312,1,0,3:0:0:0:
254,0,128490,1,8,1:0:0:0:
136,144,128669,2,0,B|42:132|99:102|5:90,1,143.999995605469,2|0,0:1|1:0,0:0:0:0:
10,171,129115,1,0,3:0:0:0:
6,175,129205,2,0,B|28:205|28:205|62:202,1,71.9999978027344,8|0,1:0|0:0,0:0:0:0:
242,90,129562,38,0,B|216:42|216:42|110:18|110:18|135:64,1,216.000000823975,4|8,1:0|1:0,0:0:0:0:
199,199,130098,2,0,P|224:173|258:167,1,71.9999978027344,2|0,1:2|3:0,0:0:0:0:
334,182,130455,5,8,3:0:0:0:
378,47,130633,2,0,P|412:56|435:82,1,71.9999978027344,2|8,0:3|1:0,0:0:0:0:
410,152,130901,1,8,3:0:0:0:
407,159,130990,37,6,1:3:0:0:
315,109,131169,1,0,3:0:0:0:
262,243,131348,1,8,1:0:0:0:
266,247,131705,5,2,1:2:0:0:
403,163,131883,2,0,L|399:199,1,35.9999989013672,4|0,3:0|3:0,0:0:0:0:
481,328,132062,2,0,P|457:304|421:300,1,71.9999978027344,8|8,0:0|0:3,0:0:0:0:
268,341,132330,1,8,1:0:0:0:
264,345,132419,38,0,B|227:296|265:247|265:247|343:247|346:315,1,216.000000823975,6|0,1:0|1:0,0:0:0:0:
474,194,132955,2,0,L|403:202,1,71.9999978027344,8|4,1:0|0:3,0:0:0:0:
474,194,133312,1,0,3:0:0:0:
489,273,133490,2,0,B|509:288|512:317|512:317|421:300,1,143.999995605469,0|2,3:0|0:2,0:0:0:0:
345,304,134026,1,2,3:0:0:0:
292,246,134205,5,4,3:0:0:0:
165,263,134383,1,2,1:2:0:0:
336,375,134562,2,0,L|345:303,1,71.9999978027344,8|2,1:0|0:3,0:0:0:0:
288,242,134919,37,0,3:0:0:0:
332,379,135098,1,8,1:0:0:0:
169,267,135276,2,0,B|186:179|225:239|237:127,1,143.999995605469,4|2,1:3|3:0,0:0:0:0:
219,342,135812,2,0,L|148:350,1,71.9999978027344,8|4,1:0|0:3,0:0:0:0:
219,342,136169,1,0,3:0:0:0:
79,384,136348,2,0,P|55:360|51:324,1,71.9999978027344,2|0,0:3|1:0,0:0:0:0:
87,261,136615,1,8,1:0:0:0:
94,258,136704,5,2,3:1:0:0:
250,270,136883,1,8,1:0:0:0:
157,147,137062,2,0,L|121:151,1,35.9999989013672,6|0,3:0|0:0,0:0:0:0:
121,151,137419,38,0,B|113:172|85:177|85:177|122:117|122:117|262:139|168:183|308:203,1,324.000001235962,8|0,1:0|3:0,0:0:0:0:
370,238,138044,1,8,3:0:0:0:
377,234,138133,6,0,P|382:199|369:166,1,71.9999978027344,4|2,1:0|0:3,0:0:0:0:
250,270,138848,38,0,P|222:247|187:242,1,71.9999978027344,2|2,0:2|0:3,0:0:0:0:
24,221,139562,5,2,0:0:0:0:
266,345,139919,37,2,0:3:0:0:
407,274,140098,5,8,3:0:0:0:
422,282,140187,1,12,3:0:0:0:
404,351,140276,2,0,B|361:383|361:383|368:271|491:280|491:280|516:224|516:224|488:205|442:212,1,378.000001441956,12|0,1:0|0:0,0:0:0:0:
370,167,140990,5,4,1:2:0:0:
235,191,141348,1,2,0:3:0:0:
102,215,141705,2,0,P|87:170|38:165,1,92.0000017547608,8|0,1:0|0:0,0:0:0:0:
15,243,142062,5,2,0:3:0:0:
173,142,142240,2,0,P|188:126|187:74,2,46.0000008773804,0|8|2,1:0|1:0|3:1,0:0:0:0:
59,146,142598,37,8,0:0:0:0:
211,281,142776,2,0,B|162:276|111:235|111:235|140:272|137:306,1,184.000003509522,4|8,0:3|1:0,0:0:0:0:
112,235,143490,5,4,3:0:0:0:
211,281,143669,1,0,1:0:0:0:
326,245,143848,2,0,P|379:232|412:303,1,138.000002632141,6|0,1:2|0:0,0:0:0:0:
379,310,144205,1,4,3:0:0:0:
357,142,144383,37,0,1:0:0:0:
477,97,144562,2,0,B|437:52|382:62|382:62|411:65|434:97,1,162.000000617981,10|0,1:0|0:0,0:0:0:0:
357,142,144919,6,0,L|226:161,1,92.0000017547608,6|8,0:3|1:3,0:0:0:0:
266,155,145187,1,8,1:0:0:0:
266,155,145276,1,2,1:2:0:0:
134,223,145455,1,8,1:0:0:0:
15,193,145633,37,6,1:3:0:0:
15,193,145723,2,0,B|69:203|69:203|70:207|70:207|144:221,1,120.000004577637,2|0,1:3|0:0,0:0:0:0:
277,250,145990,6,0,B|291:267|291:267|281:319|208:348|194:271,1,162.000000617981,10|0,1:2|3:0,0:0:0:0:
243,184,146348,38,0,P|278:188|299:255,1,108.000000411987,12|8,1:2|1:0,0:0:0:0:
262,320,146615,1,8,1:0:0:0:
236,356,146705,2,0,B|137:340|185:384|76:356,1,160,6|6,1:0|0:3,0:0:0:0:
15,305,147240,5,2,0:0:0:0:
134,211,147419,1,8,1:0:0:0:
204,175,147598,1,2,0:0:0:0:
251,177,147776,1,4,0:3:0:0:
273,200,147955,1,0,0:0:0:0:
275,339,148133,37,6,1:3:0:0:
157,274,148312,1,8,1:0:0:0:
122,211,148490,1,6,0:3:0:0:
127,175,148669,1,0,0:0:0:0:
246,121,148848,1,8,1:2:0:0:
301,63,149026,1,2,0:0:0:0:
309,67,149205,1,4,3:0:0:0:
266,0,149383,1,2,0:0:0:0:
202,89,149562,5,4,0:3:0:0:
230,102,149740,1,2,0:3:0:0:
295,148,149919,1,4,0:3:0:0:
268,162,150098,1,2,0:3:0:0:
213,213,150276,37,12,1:2:0:0:
254,367,150455,1,2,0:3:0:0:
255,317,150633,1,4,0:3:0:0:
224,359,150812,1,2,0:0:0:0:
273,343,150990,1,6,3:0:0:0:
226,323,151169,5,8,1:3:0:0:
355,384,151348,1,4,1:3:0:0:
489,334,151526,1,8,1:0:0:0:
498,326,151615,1,8,1:0:0:0:
501,317,151705,1,8,3:0:0:0:
324,308,151883,37,8,3:0:0:0:
228,353,152062,6,0,P|213:366|203:386,1,35.9999989013672,12|0,3:0|0:0,0:0:0:0:
233,356,152419,38,0,P|146:336|137:266,1,160,4|6,1:0|0:3,0:0:0:0:
450,104,153133,2,0,P|457:144|486:183,1,80,8|2,1:0|0:0,0:0:0:0:
267,69,153490,2,0,P|276:107|311:142,1,80,4|0,0:3|1:0,0:0:0:0:
303,137,153758,1,8,1:0:0:0:
303,137,153848,2,0,P|264:149|231:182,1,80,6|8,1:3|0:0,0:0:0:0:
118,33,154205,2,0,P|92:62|82:123,1,80,6|0,1:3|0:0,0:0:0:0:
0,284,154562,5,12,1:2:0:0:
110,233,154740,1,0,0:0:0:0:
126,209,154919,1,4,0:3:0:0:
198,225,155098,1,0,1:0:0:0:
232,287,155276,1,2,1:3:0:0:
197,312,155455,1,0,0:0:0:0:
236,210,155633,1,4,0:3:0:0:
268,357,155812,37,0,1:0:0:0:
161,202,155990,2,0,P|154:167|166:61,1,120,6|0,1:3|0:0,0:0:0:0:
159,83,156348,2,0,P|161:48|153:-3,1,80,4|0,0:3|0:0,0:0:0:0:
28,86,156705,5,6,1:2:0:0:
74,269,156883,1,8,1:0:0:0:
42,244,157062,37,6,0:3:0:0:
73,179,157240,1,0,1:0:0:0:
223,226,157419,5,8,1:0:0:0:
242,318,157598,1,0,3:0:0:0:
414,360,157776,37,8,1:0:0:0:
487,199,157955,1,8,1:0:0:0:
490,157,158044,1,8,1:0:0:0:
458,115,158133,1,6,1:0:0:0:
310,205,158490,5,6,0:3:0:0:
332,219,158848,1,10,1:0:0:0:
263,137,159026,1,2,0:0:0:0:
189,117,159205,1,6,0:3:0:0:
122,138,159383,1,0,1:0:0:0:
96,169,159473,1,0,3:0:0:0:
95,208,159562,1,6,1:3:0:0:
132,253,159740,1,8,1:0:0:0:
178,265,159919,1,4,3:0:0:0:
208,254,160098,1,0,1:0:0:0:
256,192,160276,37,10,1:2:0:0:
256,192,160633,1,6,1:3:0:0:
221,0,160990,5,4,1:3:0:0:
240,99,161169,1,2,0:0:0:0:
274,114,161348,1,4,3:0:0:0:
244,196,161526,1,0,3:0:0:0:
226,201,161705,1,8,1:0:0:0:
245,279,161883,1,2,0:0:0:0:
253,283,162062,1,6,0:3:0:0:
246,359,162240,37,0,1:0:0:0:
251,364,162330,1,0,3:0:0:0:
255,370,162419,1,2,1:0:0:0:
238,298,162598,1,8,1:0:0:0:
264,226,162776,1,2,1:2:0:0:
291,119,162955,1,0,3:0:0:0:
256,8,163133,5,8,1:0:0:0:
296,75,163312,37,8,1:0:0:0:
255,191,163490,5,8,1:0:0:0:
231,265,163669,5,8,1:0:0:0:
255,370,163848,6,0,P|308:324|378:315,1,143.999995605469,6|2,1:0|0:3,0:0:0:0:
493,76,164562,2,0,P|441:83|408:124,1,107.999996704102,8|0,1:0|0:0,0:0:0:0:
408,124,164919,2,0,B|400:62|377:93|367:27,1,107.999996704102,2|0,2:3|0:0,0:0:0:0:
438,0,165276,37,2,1:0:0:0:
329,131,165455,1,8,1:0:0:0:
262,96,165633,6,0,P|210:106|175:146,1,107.999996704102,2|0,1:3|0:0,0:0:0:0:
270,104,165990,2,0,B|292:133|330:131|330:131|357:38|271:16,1,216.000000823975,8|2,1:0|1:2,0:0:0:0:
98,171,166615,1,0,3:0:0:0:
91,174,166704,37,2,1:0:0:0:
277,333,167062,1,2,0:3:0:0:
0,384,167419,5,8,1:0:0:0:
250,192,167776,2,0,P|273:221|275:256,1,71.9999978027344,2|0,0:3|1:0,0:0:0:0:
210,295,168044,1,8,3:0:0:0:
203,298,168133,37,2,1:0:0:0:
300,126,168312,1,8,1:0:0:0:
451,218,168490,2,0,L|487:222,1,35.9999989013672,6|0,3:0|0:0,0:0:0:0:
487,222,168848,6,0,B|473:238|449:233|449:233|427:208|427:208|443:123,1,162.000000617981,10|0,1:0|0:0,0:0:0:0:
495,214,169205,2,0,B|520:240|507:275|507:275|471:302|471:302|460:300|460:300|422:337|422:337|414:361|422:376,1,216.000000823975,8|6,3:0|1:3,0:0:0:0:
443,122,169919,38,0,B|357:92|385:6|419:3|449:33,2,180.000006866455,2|8|2,0:0|1:0|0:3,0:0:0:0:
428,207,170812,1,2,0:0:0:0:
428,207,170901,1,0,1:0:0:0:
428,207,170991,5,2,1:0:0:0:
323,232,171169,1,8,1:0:0:0:
219,257,171348,2,0,P|246:223|250:179,1,90.0000034332277,2|0,3:0|0:0,0:0:0:0:
482,43,171705,38,0,B|524:31|551:49|534:139|444:122,1,180.000006866455,8|6,1:0|1:2,0:0:0:0:
440,126,172776,5,2,0:3:0:0:
179,76,173134,1,0,0:0:0:0:
7,42,173491,2,0,P|43:26|65:-2,1,71.9999978027344,2|0,0:0|0:0,0:0:0:0:
59,4,174205,38,0,P|94:6|121:28,1,71.9999978027344,0|0,0:0|1:0,0:0:0:0:
179,76,174473,1,8,3:0:0:0:
176,83,174562,5,10,1:0:0:0:
84,177,174740,37,8,3:0:0:0:
140,268,174919,5,0,3:0:0:0:
66,312,175098,37,0,1:0:0:0:
58,384,175276,5,4,1:0:0:0:
512,321,176705,5,2,0:3:0:0:
412,230,177062,1,0,0:0:0:0:
287,264,177419,1,2,0:0:0:0:
279,286,178133,1,2,0:2:0:0:
135,237,178490,1,2,0:3:0:0:
153,307,178669,1,0,0:0:0:0:
158,236,178848,1,0,0:0:0:0:
128,308,179026,1,0,0:0:0:0:
232,225,179205,2,0,L|220:135,1,80,0|2,0:0|1:2,0:0:0:0:
227,151,179919,6,0,L|217:58,1,80,0|2,0:0|0:0,0:0:0:0:
319,51,180455,1,0,0:0:0:0:
423,26,180633,1,0,0:0:0:0:
445,37,180990,37,2,1:2:0:0:
414,60,181348,1,0,0:0:0:0:
377,66,181705,2,0,P|351:60|326:50,1,40
458,151,182062,2,0,P|469:185|496:230,1,80,0|2,0:0|1:2,0:0:0:0:
494,228,182776,2,0,P|469:260|458:305,2,80,0|2|0,0:0|1:2|0:0,0:0:0:0:
458,297,183848,5,2,0:0:0:0:
342,268,184205,1,0,0:0:0:0:
208,305,184562,1,0,0:0:0:0:
208,305,184740,1,0,0:0:0:0:
208,305,184919,1,0,0:3:0:0:
79,275,185276,1,2,1:2:0:0:
54,288,185990,38,0,P|6:261|58:197,1,143.999995605469,2|0,1:0|0:0,0:0:0:0:
170,142,186348,6,0,B|192:138|210:122|210:122|195:163|137:170,1,128,2|2,1:3|1:2,0:0:0:0:
146,168,187062,38,0,P|161:119|218:131,1,107.999996704102,2|0,0:2|0:0,0:0:0:0:
310,163,187419,6,0,L|376:143,2,64,2|0|2,0:3|0:0|1:2,0:0:0:0:
289,197,188490,1,0,0:0:0:0:
242,215,188848,1,2,0:0:0:0:
177,199,189205,1,0,0:0:0:0:
97,124,189562,1,2,1:2:0:0:
146,60,189919,37,0,0:0:0:0:
178,55,190098,1,0,0:0:0:0:
265,116,190276,5,2,0:2:0:0:
339,125,190455,37,0,0:0:0:0:
414,138,190633,5,0,0:0:0:0:
428,161,190990,1,2,1:2:0:0:
251,43,191348,1,0,0:0:0:0:
96,187,191705,1,2,0:2:0:0:
96,187,191883,1,0,0:0:0:0:
96,187,192062,2,0,L|106:251,1,55.9999982910157,2|0,0:3|0:0,0:0:0:0:
0,343,192419,37,2,1:2:0:0:
0,343,192776,2,0,L|46:331,1,35.9999989013672
212,317,193133,6,0,B|309:327|244:343|349:352,2,139.200001168213,2|0|2,0:3|0:0|1:2,0:0:0:0:
241,219,194205,1,0,0:0:0:0:
210,108,194562,1,2,0:0:0:0:
226,40,194740,1,0,0:0:0:0:
234,0,194919,1,0,0:0:0:0:
45,128,198848,6,2,B|32:149|0:162|0:162|168:142|83:64|150:-2|234:0,1,363.999983337403,14|0,1:0|0:0,0:2:0:0:
387,37,199562,5,4,1:2:0:0:
221,182,199919,2,0,P|190:154|192:111,1,88.000002685547,6|0,0:3|0:0,0:0:0:0:
317,0,200276,37,8,1:0:0:0:
509,153,200633,2,0,P|499:194|461:214,1,88.000002685547,6|0,0:3|1:0,0:0:0:0:
395,180,200901,1,8,1:0:0:0:
388,183,200990,5,2,1:0:0:0:
269,122,201169,1,8,1:0:0:0:
104,227,201348,2,0,P|156:188|221:182,1,132.00000402832,6|0,0:3|0:0,0:0:0:0:
295,51,201705,2,0,P|332:70|344:112,1,88.000002685547,12|0,1:2|0:0,0:0:0:0:
221,182,202062,38,0,B|167:169|188:151|144:142,1,88.000002685547,6|0,1:3|0:0,0:0:0:0:
158,0,202419,2,0,P|93:5|40:43,1,132.00000402832,6|0,1:2|0:0,0:0:0:0:
44,47,202776,1,4,1:3:0:0:
236,108,202955,1,0,3:0:0:0:
377,15,203133,5,8,1:0:0:0:
232,104,203312,1,2,0:0:0:0:
286,225,203490,1,4,0:3:0:0:
368,91,203669,1,0,3:0:0:0:
337,90,203758,1,8,1:0:0:0:
315,116,203847,1,2,1:0:0:0:
440,65,204026,37,8,1:0:0:0:
416,225,204204,2,0,P|395:187|353:182,1,88.000002685547,6|0,1:3|0:0,0:0:0:0:
157,104,204562,5,8,1:0:0:0:
286,225,204740,1,0,3:0:0:0:
157,104,204919,38,0,P|146:133|117:151,1,50,8|0,1:0|1:0,0:0:0:0:
286,225,205098,6,0,P|265:247|236:255,1,60.0000022888184,8|8,1:0|1:0,0:0:0:0:
128,149,205276,38,0,B|81:136|84:71|138:55|138:55|202:44,1,191.999994140625,4|4,1:0|0:3,0:0:0:0:
132,145,205812,1,2,0:0:0:0:
310,311,205990,6,0,B|297:338|297:338|172:318,1,155.999992858887,12|0,1:0|0:0,0:0:0:0:
114,365,206348,2,0,B|72:334|72:334|62:298|89:282,1,103.999995239258,6|0,1:3|3:0,0:0:0:0:
144,245,206615,1,8,1:0:0:0:
151,248,206704,37,6,1:2:0:0:
314,315,206883,1,8,0:0:0:0:
253,104,207062,2,0,P|200:143|135:148,1,132.00000402832,4|0,0:3|0:0,0:0:0:0:
71,114,207419,2,0,B|62:141|62:141|8:164,1,88.000002685547,10|0,1:0|0:0,0:0:0:0:
246,226,207776,2,0,B|262:136|232:180|244:95,1,132.00000402832,4|0,0:3|0:0,0:0:0:0:
143,237,208133,6,0,B|180:309|273:298|294:233|235:229,2,176.000005371094,0|8|8,3:0|1:3|1:0,0:0:0:0:
294,169,209026,1,2,0:0:0:0:
403,271,209205,2,0,P|372:239|360:197,1,88.000002685547,4|0,0:3|1:0,0:0:0:0:
355,125,209473,1,8,1:0:0:0:
362,122,209562,37,6,1:2:0:0:
326,307,209740,1,8,1:0:0:0:
429,166,209919,5,6,1:3:0:0:
282,23,210098,1,8,1:0:0:0:
273,27,210187,1,8,1:0:0:0:
281,32,210277,1,8,3:0:0:0:
446,88,210455,1,8,3:0:0:0:
294,169,210633,37,4,3:0:0:0:
133,243,210812,1,4,1:2:0:0:
223,248,210990,6,0,B|212:142|150:197|147:97,1,176.000005371094,6|6,1:0|1:3,0:0:0:0:
362,122,211526,1,0,3:0:0:0:
357,246,211705,38,0,B|334:306|267:310|267:310|301:291|301:265,1,176.000005371094,10|4,1:0|0:3,0:0:0:0:
387,50,212240,1,0,3:0:0:0:
417,57,212329,1,8,1:0:0:0:
431,87,212418,1,2,1:0:0:0:
399,186,212598,1,8,0:0:0:0:
268,128,212776,2,0,P|273:85|311:65,1,88.000002685547,4|0,1:3|0:0,0:0:0:0:
431,277,213133,2,0,P|395:200|312:188,2,176.000005371094,12|4|2,1:2|3:0|1:2,0:0:0:0:
312,188,214026,5,0,0:0:0:0:
356,338,214205,1,4,0:3:0:0:
476,175,214383,1,0,3:0:0:0:
335,264,214562,1,8,1:0:0:0:
433,353,214740,37,2,0:3:0:0:
259,246,214919,1,4,0:3:0:0:
137,340,215097,2,0,L|93:355,2,44.0000013427735,0|8|4,3:0|1:0|3:0,0:0:0:0:
179,224,215455,6,0,P|212:246|263:244,1,88.000002685547,8|4,1:0|3:0,0:0:0:0:
335,264,215812,1,2,0:0:0:0:
165,139,215991,1,8,1:0:0:0:
165,139,216170,1,0,1:0:0:0:
258,9,216348,37,8,1:0:0:0:
76,73,216527,1,8,1:0:0:0:
72,77,216615,1,8,1:0:0:0:
68,81,216705,2,0,B|45:105|47:143|93:159|93:159|181:135,1,176.000005371094,6|6,1:0|0:3,0:0:0:0:
237,166,217240,1,2,0:0:0:0:
128,19,217419,5,8,1:0:0:0:
169,143,217598,1,0,0:0:0:0:
0,244,217776,1,4,0:3:0:0:
64,152,217955,1,0,3:0:0:0:
94,159,218044,1,8,1:0:0:0:
108,189,218133,1,6,1:2:0:0:
4,240,218312,37,8,1:0:0:0:
170,232,218490,1,6,0:3:0:0:
208,377,218669,1,0,3:0:0:0:
108,189,218848,2,0,P|138:158|181:157,1,88.000002685547,10|0,1:0|0:0,0:0:0:0:
170,232,219205,2,0,P|87:211|5:240,2,176.000005371094,6|2|6,3:0|1:2|0:3,0:0:0:0:
361,151,220098,5,0,3:0:0:0:
227,279,220276,1,8,1:0:0:0:
241,205,220455,1,2,0:0:0:0:
402,373,220633,1,4,0:3:0:0:
304,251,220812,37,8,3:0:0:0:
302,257,220902,1,0,3:0:0:0:
309,257,220991,1,2,1:0:0:0:
365,147,221169,1,8,1:0:0:0:
511,129,221348,5,12,1:3:0:0:
252,33,221526,1,12,3:0:0:0:
248,37,221615,1,12,3:0:0:0:
244,41,221705,2,0,B|272:138|215:104|244:216,1,167.999994873047,14|0,1:0|0:0,0:0:0:0:
182,303,222419,38,0,P|165:224|156:145,1,160,4|2,1:0|0:3,0:0:0:0:
458,23,223133,2,0,P|492:89|437:140,1,160,8|2,1:0|0:3,0:0:0:0:
312,235,223669,5,0,1:0:0:0:
312,235,223758,1,0,3:0:0:0:
312,235,223847,2,0,P|287:214|229:207,1,80,2|8,1:2|0:0,0:0:0:0:
65,188,224205,2,0,P|122:192|156:145,1,120,2|0,1:2|0:0,0:0:0:0:
235,127,224562,37,8,1:0:0:0:
82,372,224919,1,0,3:0:0:0:
416,261,225276,5,2,1:3:0:0:
242,205,225633,1,0,3:0:0:0:
180,257,225812,1,0,1:0:0:0:
255,286,225990,2,0,L|235:126,1,160,8|2,1:0|0:3,0:0:0:0:
242,134,226526,37,0,1:0:0:0:
242,134,226615,1,0,3:0:0:0:
242,134,226704,1,2,1:3:0:0:
326,175,226883,1,8,1:0:0:0:
410,215,227062,2,0,L|418:175,1,40,4|0,1:3|0:0,0:0:0:0:
418,176,227419,6,0,B|421:226|473:255|512:232|512:232|519:195|492:169,1,200,8|0,1:0|3:0,0:0:0:0:
255,286,227954,37,8,1:0:0:0:
203,341,228133,2,0,B|117:323|146:289|59:269,2,160,4|2|8,1:0|0:3|1:0,0:0:0:0:
418,176,229204,2,0,L|429:83,1,80,2|0,0:0|1:0,0:0:0:0:
428,97,229472,1,8,0:0:0:0:
428,97,229561,1,2,1:2:0:0:
211,46,229740,5,8,1:0:0:0:
78,118,229919,2,0,P|75:42|143:7,1,160,2|8,1:3|1:0,0:0:0:0:
344,124,230633,1,0,3:0:0:0:
17,208,230990,37,4,1:2:0:0:
184,155,231347,1,0,3:0:0:0:
165,233,231526,1,0,3:0:0:0:
142,81,231704,1,8,1:0:0:0:
291,283,231883,5,2,0:0:0:0:
216,295,232061,1,2,0:0:0:0:
141,312,232240,1,2,1:2:0:0:
137,308,232329,1,0,3:0:0:0:
133,304,232419,37,2,1:3:0:0:
244,222,232597,1,8,1:0:0:0:
357,348,232776,2,0,L|365:308,1,40,4|0,1:3|0:0,0:0:0:0:
365,309,233133,6,0,B|375:360|323:361|323:361|313:325|275:312,1,150,8|0,1:0|0:0,0:0:0:0:
269,321,233490,37,8,1:0:0:0:
299,159,233669,5,8,1:0:0:0:
331,1,233847,37,4,1:0:0:0:
323,9,234205,2,0,P|402:0|482:3,2,160,2|8|2,0:0|1:0|0:0,0:0:0:0:
232,139,235097,5,0,1:0:0:0:
232,139,235186,1,0,3:0:0:0:
232,139,235276,1,2,1:3:0:0:
158,47,235454,1,8,1:0:0:0:
322,9,235633,2,0,P|314:48|310:87,1,80,2|0,1:3|0:0,0:0:0:0:
393,178,235990,2,0,B|421:81|372:122|402:18,1,160,8|0,1:0|3:0,0:0:0:0:
151,126,236705,38,0,P|95:144|35:141,1,120,2|0,1:2|0:0,0:0:0:0:
35,141,237061,2,0,P|45:179|48:219,1,80,0|0,3:0|0:0,0:0:0:0:
192,285,237419,2,0,B|229:262|216:213|175:202|175:202|125:213,1,160,8|2,1:0|0:3,0:0:0:0:
7,283,237954,1,0,3:0:0:0:
16,288,238044,1,8,0:0:0:0:
27,292,238133,1,2,1:2:0:0:
151,126,238311,5,8,1:0:0:0:
285,209,238490,2,0,L|293:169,1,40,4|0,1:3|0:0,0:0:0:0:
135,46,238848,37,8,1:0:0:0:
364,206,239204,1,0,3:0:0:0:
360,129,239383,5,8,1:0:0:0:
203,193,239561,2,0,B|213:291|250:246|262:338,1,160,4|2,1:0|0:3,0:0:0:0:
340,317,240098,1,0,0:0:0:0:
492,384,240276,2,0,P|498:343|516:296,1,80,8|0,1:0|0:0,0:0:0:0:
412,373,240633,2,0,P|417:333|430:295,1,80,2|0,1:2|3:0,0:0:0:0:
475,236,240901,1,8,1:0:0:0:
482,239,240990,37,2,1:3:0:0:
285,209,241169,1,8,1:0:0:0:
341,31,241348,2,0,P|389:37|419:107,1,120,2|0,3:2|0:0,0:0:0:0:
420,95,241704,2,0,P|382:106|330:126,1,80,8|0,1:0|0:0,0:0:0:0:
436,171,242061,2,0,P|398:182|346:202,1,80,2|0,1:2|0:0,0:0:0:0:
288,202,242330,1,0,3:0:0:0:
285,209,242419,5,2,1:3:0:0:
412,373,242776,1,0,1:0:0:0:
431,296,242954,1,0,3:0:0:0:
274,291,243133,37,8,1:0:0:0:
194,289,243311,1,2,0:0:0:0:
146,354,243490,1,2,1:2:0:0:
323,351,243669,5,0,1:0:0:0:
329,346,243758,1,8,1:0:0:0:
334,340,243847,1,0,3:0:0:0:
190,285,244026,1,8,0:0:0:0:
76,384,244204,1,6,1:3:0:0:
195,209,244383,37,0,1:0:0:0:
190,203,244472,1,8,1:0:0:0:
184,198,244561,1,0,3:0:0:0:
88,190,244740,5,0,0:0:0:0:
131,87,244919,37,8,3:0:0:0:
37,70,245097,5,0,3:0:0:0:
27,0,245276,5,2,0:2:0:0:
27,0,245633,2,0,L|15:72,1,64,0|2,0:0|0:0,0:0:0:0:
225,180,246705,5,0,0:0:0:0:
216,221,247062,1,0,0:0:0:0:
199,295,247419,1,2,0:0:0:0:
199,295,247776,2,0,L|186:333,1,32
288,236,248133,38,0,P|316:248|358:258,1,64,2|0,0:0|0:0,0:0:0:0:
427,270,248669,2,0,P|395:277|365:289,1,64,2|0,0:0|0:0,0:0:0:0:
315,346,249205,2,0,P|328:316|334:284,1,64,0|2,0:0|0:0,0:0:0:0:
334,285,249919,1,0,0:0:0:0:
456,144,250276,5,2,0:0:0:0:
446,68,250455,1,0,0:0:0:0:
440,32,250633,1,0,0:0:0:0:
275,9,250990,37,2,0:0:0:0:
275,9,251348,2,0,L|266:78,1,64,0|2,0:0|0:0,0:0:0:0:
68,201,252419,5,0,0:0:0:0:
74,235,252776,1,0,0:0:0:0:
86,311,253133,1,2,0:0:0:0:
86,311,253490,2,0,L|92:347,1,32
239,200,253848,38,0,P|211:220|175:233,1,64,2|0,0:0|0:0,0:0:0:0:
296,136,254383,2,0,P|276:108|263:72,1,64,2|0,0:0|0:0,0:0:0:0:
321,218,254919,2,0,P|350:234|377:262,1,64,2|0,0:0|0:0,0:0:0:0:
418,321,255633,1,0,0:0:0:0:
341,248,255990,5,2,0:0:0:0:
270,251,256169,1,0,0:0:0:0:
209,291,256348,1,0,0:0:0:0:
191,310,256705,37,2,0:0:0:0:
257,347,257062,1,0,0:0:0:0:
209,291,257419,1,2,0:0:0:0:
240,365,257776,1,0,0:0:0:0:
299,184,258133,2,0,L|282:115,1,64,2|0,0:0|0:0,0:0:0:0:
299,184,258848,2,0,L|237:208,1,64
299,184,259562,5,2,0:0:0:0:
226,207,259919,1,0,0:0:0:0:
223,209,260098,1,0,0:0:0:0:
149,236,260455,1,0,0:0:0:0:
146,238,260633,1,0,0:0:0:0:
32,293,260990,38,0,P|28:256|44:61,1,223.999993164063,2|2,0:0|1:2,0:0:0:0:
87,1,262419,5,2,0:0:0:0:
200,17,262776,1,0,0:0:0:0:
303,64,263133,1,2,0:0:0:0:
475,95,263848,37,2,0:0:0:0:
362,111,264205,1,0,0:0:0:0:
259,158,264562,1,2,0:0:0:0:
225,178,265276,5,2,0:0:0:0:
248,289,265633,1,0,0:0:0:0:
200,188,265990,1,0,0:0:0:0:
243,292,266348,5,2,0:0:0:0:
