osu file format v14

[General]
AudioFilename: audio.mp3
AudioLeadIn: 0
PreviewTime: 176010
Countdown: 0
SampleSet: Normal
StackLeniency: 0.7
Mode: 1
LetterboxInBreaks: 0
WidescreenStoryboard: 0

[Editor]
DistanceSpacing: 0.8
BeatDivisor: 4
GridSize: 4
TimelineZoom: 2.2

[Metadata]
Title:Kokoronashi
TitleUnicode:心做し
Artist:Sou
ArtistUnicode:Sou
Creator:Chromoxx
Version:Futsuu
Source:
Tags:蝶々P papiyon vocaloid megpoid gumi utaite cover
BeatmapID:1191037
BeatmapSetID:563241

[Difficulty]
HPDrainRate:7
CircleSize:5
OverallDifficulty:4
ApproachRate:5
SliderMultiplier:1.4
SliderTickRate:1

[Events]
//Background and Video events
0,0,"BG.jpg",0,0
//Break Periods
//Storyboard Layer 0 (Background)
//Storyboard Layer 1 (Fail)
//Storyboard Layer 2 (Pass)
//Storyboard Layer 3 (Foreground)
//Storyboard Sound Samples

[TimingPoints]
2979,357.142857142857,4,1,0,70,1,0
25836,-111.111111111111,4,1,0,80,0,0
82086,-111.111111111111,4,1,0,100,0,0
82264,-111.111111111111,4,1,0,100,0,1
82978,-100,4,1,0,90,0,1
105836,-125,4,1,0,70,0,0
116193,-117.647058823529,4,1,0,70,0,0
117264,-111.111111111111,4,1,0,80,0,0
142086,-111.111111111111,4,1,0,100,0,0
142978,-100,4,1,0,90,0,1
165836,-100,4,1,0,100,0,0
166193,-111.111111111111,4,1,0,80,0,0
177443,-111.111111111111,4,1,0,60,0,0
200657,-111.111111111111,4,1,0,100,0,0
200836,-111.111111111111,4,1,0,100,0,1
201550,-100,4,1,0,90,0,1
224407,-100,4,1,0,90,0,0
224764,-111.111111111111,4,1,0,80,0,0
247264,-111.111111111111,4,1,0,70,0,0
247443,-125,4,1,0,70,0,0

[HitObjects]
264,253,2979,5,8,0:0:0:0:
264,253,4407,1,0,0:0:0:0:
264,253,5836,1,8,0:0:0:0:
264,253,6550,1,0,0:0:0:0:
264,253,7264,1,8,0:0:0:0:
264,253,8693,1,0,0:0:0:0:
264,253,10121,1,8,0:0:0:0:
264,253,11550,1,0,0:0:0:0:
264,253,12264,1,8,0:0:0:0:
264,253,12978,1,0,0:0:0:0:
264,242,14407,1,8,0:0:0:0:
264,242,15121,1,8,0:0:0:0:
264,242,15836,1,0,0:0:0:0:
264,242,16550,1,0,0:0:0:0:
264,243,17264,1,8,0:0:0:0:
275,199,18693,1,0,0:0:0:0:
275,199,19407,1,8,0:0:0:0:
275,199,20121,1,0,0:0:0:0:
274,200,21550,1,8,0:0:0:0:
274,200,22978,1,0,0:0:0:0:
268,220,24050,1,8,0:0:0:0:
274,199,25836,1,4,0:0:0:0:
262,157,26550,1,8,0:0:0:0:
262,148,27264,1,0,0:0:0:0:
262,148,27621,1,0,0:0:0:0:
262,148,27978,1,8,0:0:0:0:
262,148,28693,1,0,0:0:0:0:
262,148,29407,1,8,0:0:0:0:
253,113,30121,1,0,0:0:0:0:
253,113,30478,1,0,0:0:0:0:
253,113,30836,1,8,0:0:0:0:
253,113,31193,1,0,0:0:0:0:
253,113,31550,1,0,0:0:0:0:
253,113,32264,1,8,0:0:0:0:
301,208,32621,1,8,0:0:0:0:
253,113,32978,1,0,0:0:0:0:
253,113,33693,1,8,0:0:0:0:
321,178,34407,1,0,0:0:0:0:
321,178,34764,1,0,0:0:0:0:
267,156,35121,1,8,0:0:0:0:
267,156,35300,1,8,0:0:0:0:
267,156,35478,1,0,0:0:0:0:
246,162,35836,1,8,0:0:0:0:
234,136,36550,1,8,0:0:0:0:
216,215,36907,1,8,0:0:0:0:
234,136,37264,1,4,0:0:0:0:
213,180,37978,1,8,0:0:0:0:
122,79,38336,1,0,0:0:0:0:
122,79,38693,1,0,0:0:0:0:
190,276,39407,1,8,0:0:0:0:
233,272,40121,1,0,0:0:0:0:
233,272,40478,1,0,0:0:0:0:
233,272,40836,1,8,0:0:0:0:
233,272,41193,1,8,0:0:0:0:
233,272,41550,1,0,0:0:0:0:
233,272,42264,1,8,0:0:0:0:
233,272,42621,1,0,0:0:0:0:
233,272,42800,1,8,0:0:0:0:
233,272,42978,1,0,0:0:0:0:
279,262,43693,1,8,0:0:0:0:
279,262,44407,1,0,0:0:0:0:
279,262,44764,1,0,0:0:0:0:
279,262,45121,1,8,0:0:0:0:
279,262,45836,1,0,0:0:0:0:
279,262,46193,1,0,0:0:0:0:
279,262,46550,1,8,0:0:0:0:
279,262,46728,1,8,0:0:0:0:
279,262,46907,1,0,0:0:0:0:
273,250,47264,1,8,0:0:0:0:
272,249,47621,1,0,0:0:0:0:
273,250,47978,1,8,0:0:0:0:
272,249,48693,1,4,0:0:0:0:
184,151,49407,1,8,0:0:0:0:
176,132,50121,1,0,0:0:0:0:
176,132,50478,1,0,0:0:0:0:
176,132,50836,1,8,0:0:0:0:
176,132,51550,1,0,0:0:0:0:
176,132,52264,1,8,0:0:0:0:
176,132,52621,1,8,0:0:0:0:
176,132,52978,1,0,0:0:0:0:
176,132,53693,1,8,0:0:0:0:
158,145,54407,1,0,0:0:0:0:
158,145,54764,1,0,0:0:0:0:
158,145,55121,1,8,0:0:0:0:
331,247,55836,1,8,0:0:0:0:
331,247,56193,1,0,0:0:0:0:
324,264,56550,1,8,0:0:0:0:
298,288,57264,1,0,0:0:0:0:
298,288,57978,1,8,0:0:0:0:
298,288,58336,1,8,0:0:0:0:
298,288,58693,1,0,0:0:0:0:
253,272,58871,1,8,0:0:0:0:
253,272,59050,1,0,0:0:0:0:
253,272,59407,1,8,0:0:0:0:
171,305,59764,1,0,0:0:0:0:
253,272,60121,1,4,0:0:0:0:
304,296,60836,1,0,0:0:0:0:
303,239,61193,1,8,0:0:0:0:
303,239,61550,1,0,0:0:0:0:
373,290,61907,1,0,0:0:0:0:
303,239,62264,1,8,0:0:0:0:
303,239,62978,1,0,0:0:0:0:
303,239,63693,1,8,0:0:0:0:
303,239,64050,1,8,0:0:0:0:
303,239,64407,1,0,0:0:0:0:
211,233,64764,1,0,0:0:0:0:
303,239,65121,1,8,0:0:0:0:
249,290,65478,1,0,0:0:0:0:
249,290,65657,1,8,0:0:0:0:
303,239,65836,1,0,0:0:0:0:
201,218,66550,1,8,0:0:0:0:
201,218,67264,1,0,0:0:0:0:
201,218,67621,1,0,0:0:0:0:
201,218,67978,1,8,0:0:0:0:
201,218,68693,1,0,0:0:0:0:
201,218,69050,1,0,0:0:0:0:
201,218,69407,1,8,0:0:0:0:
201,218,69764,1,0,0:0:0:0:
324,288,69943,1,8,0:0:0:0:
201,218,70121,1,0,0:0:0:0:
324,288,70478,1,0,0:0:0:0:
324,288,70836,1,8,0:0:0:0:
324,288,71193,1,8,0:0:0:0:
324,288,71371,1,8,0:0:0:0:
324,288,71550,1,4,0:0:0:0:
236,147,72264,1,8,0:0:0:0:
236,187,72978,1,0,0:0:0:0:
236,187,73336,1,0,0:0:0:0:
232,179,73693,1,8,0:0:0:0:
263,232,74407,1,0,0:0:0:0:
263,232,75121,1,8,0:0:0:0:
259,228,75836,1,0,0:0:0:0:
183,200,76193,1,0,0:0:0:0:
259,228,76550,1,8,0:0:0:0:
259,228,76907,1,8,0:0:0:0:
259,228,77264,1,0,0:0:0:0:
177,180,77978,1,8,0:0:0:0:
177,180,78693,1,0,0:0:0:0:
178,188,79050,1,0,0:0:0:0:
177,180,79407,1,8,0:0:0:0:
177,180,79764,1,4,0:0:0:0:
217,212,82264,1,12,0:0:0:0:
208,197,82978,1,4,0:0:0:0:
251,141,83693,1,8,0:0:0:0:
240,119,84407,1,0,0:0:0:0:
240,119,84764,1,0,0:0:0:0:
240,119,85121,1,8,0:0:0:0:
228,208,85478,1,8,0:0:0:0:
228,208,85836,1,0,0:0:0:0:
259,221,86550,1,8,0:0:0:0:
259,221,87264,1,0,0:0:0:0:
259,221,87621,1,0,0:0:0:0:
259,221,87978,1,8,0:0:0:0:
169,191,88336,1,8,0:0:0:0:
272,201,88514,1,8,0:0:0:0:
268,200,88693,1,0,0:0:0:0:
168,186,89407,1,8,0:0:0:0:
165,177,90121,1,0,0:0:0:0:
229,152,90478,1,0,0:0:0:0:
229,152,90836,1,8,0:0:0:0:
229,152,91014,1,0,0:0:0:0:
215,177,91193,1,8,0:0:0:0:
215,177,91550,1,0,0:0:0:0:
210,169,92264,1,8,0:0:0:0:
194,142,92978,1,0,0:0:0:0:
194,142,93336,1,0,0:0:0:0:
190,133,93514,1,0,0:0:0:0:
190,133,93693,1,8,0:0:0:0:
190,133,94050,1,8,0:0:0:0:
169,109,94407,1,4,0:0:0:0:
155,100,95121,1,8,0:0:0:0:
155,100,95836,1,0,0:0:0:0:
155,100,96193,1,0,0:0:0:0:
155,100,96550,1,8,0:0:0:0:
155,100,96907,1,8,0:0:0:0:
155,100,97264,1,0,0:0:0:0:
150,94,97978,1,8,0:0:0:0:
146,88,98693,1,0,0:0:0:0:
146,88,99050,1,0,0:0:0:0:
146,88,99407,1,8,0:0:0:0:
146,88,99764,1,8,0:0:0:0:
146,88,99943,1,8,0:0:0:0:
136,176,100121,1,0,0:0:0:0:
280,198,100478,1,0,0:0:0:0:
262,207,100836,1,8,0:0:0:0:
278,196,101550,1,0,0:0:0:0:
278,196,101907,1,0,0:0:0:0:
278,196,102264,1,8,0:0:0:0:
278,196,102443,1,0,0:0:0:0:
263,217,102621,1,8,0:0:0:0:
263,217,102978,1,0,0:0:0:0:
260,206,103693,1,8,0:0:0:0:
260,206,104050,1,8,0:0:0:0:
260,206,104228,1,8,0:0:0:0:
256,200,104407,1,0,0:0:0:0:
260,206,104764,1,0,0:0:0:0:
256,200,105121,1,8,0:0:0:0:
215,154,105836,1,8,0:0:0:0:
214,152,107264,1,8,0:0:0:0:
214,152,108693,1,8,0:0:0:0:
214,152,110121,1,8,0:0:0:0:
214,152,110836,1,8,0:0:0:0:
214,152,111550,1,8,0:0:0:0:
214,152,112978,1,8,0:0:0:0:
214,152,114407,1,8,0:0:0:0:
214,152,115836,1,8,0:0:0:0:
214,152,116550,1,8,0:0:0:0:
213,146,116907,1,8,0:0:0:0:
212,136,117264,1,4,0:0:0:0:
217,178,117621,1,0,0:0:0:0:
198,190,117800,1,8,0:0:0:0:
264,199,118693,1,0,0:0:0:0:
264,199,119050,1,0,0:0:0:0:
264,199,119407,1,8,0:0:0:0:
264,199,120121,1,0,0:0:0:0:
288,144,120836,1,8,0:0:0:0:
288,144,121193,1,0,0:0:0:0:
329,197,121550,1,0,0:0:0:0:
170,63,122264,1,0,0:0:0:0:
170,63,122978,1,8,0:0:0:0:
245,181,123336,1,0,0:0:0:0:
245,181,123514,1,8,0:0:0:0:
241,162,124407,1,0,0:0:0:0:
241,162,124764,1,0,0:0:0:0:
241,162,125121,1,8,0:0:0:0:
238,111,125836,1,0,0:0:0:0:
238,111,126550,1,8,0:0:0:0:
353,261,126907,1,8,0:0:0:0:
298,230,127264,1,0,0:0:0:0:
295,224,127978,1,8,0:0:0:0:
284,159,128693,1,4,0:0:0:0:
190,136,129050,1,8,0:0:0:0:
186,131,129407,1,0,0:0:0:0:
260,179,130121,1,8,0:0:0:0:
271,227,130478,1,0,0:0:0:0:
220,210,130836,1,8,0:0:0:0:
220,210,131014,1,0,0:0:0:0:
249,165,131193,1,8,0:0:0:0:
248,160,131550,1,0,0:0:0:0:
243,152,132264,1,0,0:0:0:0:
144,169,132621,1,8,0:0:0:0:
242,150,132800,1,8,0:0:0:0:
242,150,132978,1,0,0:0:0:0:
243,151,133336,1,8,0:0:0:0:
242,150,133693,1,0,0:0:0:0:
284,280,133871,1,0,0:0:0:0:
238,148,134050,1,8,0:0:0:0:
107,186,134407,1,0,0:0:0:0:
219,228,135836,1,0,0:0:0:0:
219,228,136193,1,0,0:0:0:0:
219,228,136550,1,8,0:0:0:0:
267,226,136907,1,0,0:0:0:0:
267,226,137086,1,8,0:0:0:0:
247,228,137264,1,0,0:0:0:0:
229,257,137621,1,0,0:0:0:0:
229,257,137800,1,8,0:0:0:0:
229,257,138693,1,0,0:0:0:0:
229,257,139050,1,0,0:0:0:0:
229,257,139407,1,8,0:0:0:0:
217,171,140121,1,4,0:0:0:0:
312,205,142264,1,12,0:0:0:0:
183,123,142978,1,4,0:0:0:0:
265,214,143693,1,8,0:0:0:0:
265,214,144407,1,0,0:0:0:0:
265,214,144764,1,0,0:0:0:0:
265,214,145121,1,8,0:0:0:0:
276,186,145836,1,0,0:0:0:0:
276,186,146550,1,8,0:0:0:0:
276,186,146907,1,8,0:0:0:0:
276,186,147264,1,0,0:0:0:0:
276,186,147443,1,0,0:0:0:0:
276,186,147621,1,8,0:0:0:0:
276,186,147978,1,0,0:0:0:0:
272,220,148693,1,0,0:0:0:0:
272,210,149050,1,0,0:0:0:0:
272,210,149407,1,8,0:0:0:0:
175,178,149764,1,0,0:0:0:0:
272,210,150121,1,8,0:0:0:0:
272,210,150300,1,0,0:0:0:0:
218,200,150478,1,8,0:0:0:0:
247,232,150836,1,0,0:0:0:0:
100,180,151193,1,0,0:0:0:0:
247,232,151550,1,8,0:0:0:0:
247,232,152264,1,0,0:0:0:0:
247,232,152621,1,0,0:0:0:0:
247,232,152978,1,0,0:0:0:0:
269,240,153157,1,0,0:0:0:0:
247,232,153336,1,8,0:0:0:0:
245,218,153693,1,0,0:0:0:0:
245,218,153871,1,8,0:0:0:0:
202,194,154050,1,0,0:0:0:0:
202,194,154407,1,4,0:0:0:0:
202,194,155121,1,8,0:0:0:0:
202,194,155836,1,0,0:0:0:0:
202,194,156193,1,0,0:0:0:0:
202,194,156550,1,8,0:0:0:0:
237,192,157264,1,0,0:0:0:0:
234,162,157978,1,8,0:0:0:0:
234,162,158336,1,8,0:0:0:0:
262,174,158693,1,0,0:0:0:0:
301,189,159050,1,0,0:0:0:0:
327,167,159407,1,8,0:0:0:0:
255,176,159586,1,0,0:0:0:0:
255,176,159764,1,8,0:0:0:0:
307,140,160121,1,4,0:0:0:0:
307,140,160836,1,8,0:0:0:0:
300,126,161014,1,0,0:0:0:0:
279,157,161193,1,8,0:0:0:0:
255,169,161550,1,0,0:0:0:0:
255,169,161907,1,0,0:0:0:0:
255,169,162264,1,8,0:0:0:0:
255,169,162978,1,0,0:0:0:0:
255,169,163336,1,8,0:0:0:0:
319,164,163693,1,8,0:0:0:0:
319,164,163871,1,8,0:0:0:0:
319,164,164050,1,0,0:0:0:0:
319,164,164407,1,8,0:0:0:0:
339,166,165836,1,4,0:0:0:0:
236,147,166550,1,8,0:0:0:0:
236,187,167264,1,0,0:0:0:0:
236,187,167621,1,0,0:0:0:0:
232,179,167978,1,8,0:0:0:0:
263,232,168693,1,0,0:0:0:0:
263,232,169407,1,8,0:0:0:0:
259,228,170121,1,0,0:0:0:0:
183,200,170478,1,0,0:0:0:0:
259,228,170836,1,8,0:0:0:0:
259,228,171193,1,8,0:0:0:0:
259,228,171550,1,0,0:0:0:0:
177,180,172264,1,8,0:0:0:0:
177,180,172978,1,0,0:0:0:0:
178,188,173336,1,0,0:0:0:0:
177,180,173693,1,8,0:0:0:0:
177,180,174050,1,4,0:0:0:0:
227,157,176550,1,8,0:0:0:0:
271,183,176728,1,0,0:0:0:0:
282,197,176907,1,8,0:0:0:0:
278,184,177264,1,4,0:0:0:0:
242,124,180121,1,0,0:0:0:0:
242,124,182978,1,0,0:0:0:0:
242,124,184407,1,8,0:0:0:0:
242,124,185836,1,0,0:0:0:0:
242,125,188693,1,0,0:0:0:0:
302,183,191550,1,0,0:0:0:0:
302,181,192978,1,8,0:0:0:0:
299,213,194407,1,0,0:0:0:0:
297,166,196550,1,8,0:0:0:0:
297,141,200836,1,12,0:0:0:0:
208,197,201550,1,4,0:0:0:0:
251,141,202264,1,8,0:0:0:0:
240,119,202978,1,0,0:0:0:0:
240,119,203336,1,0,0:0:0:0:
240,119,203693,1,8,0:0:0:0:
228,208,204050,1,8,0:0:0:0:
228,208,204407,1,0,0:0:0:0:
259,221,205121,1,8,0:0:0:0:
259,221,205836,1,0,0:0:0:0:
259,221,206193,1,0,0:0:0:0:
259,221,206550,1,8,0:0:0:0:
169,191,206907,1,8,0:0:0:0:
272,201,207086,1,8,0:0:0:0:
268,200,207264,1,0,0:0:0:0:
168,186,207978,1,8,0:0:0:0:
165,177,208693,1,0,0:0:0:0:
229,152,209050,1,0,0:0:0:0:
229,152,209407,1,8,0:0:0:0:
229,152,209586,1,0,0:0:0:0:
215,177,209764,1,8,0:0:0:0:
215,177,210121,1,0,0:0:0:0:
210,169,210836,1,8,0:0:0:0:
194,142,211550,1,0,0:0:0:0:
194,142,211907,1,0,0:0:0:0:
190,133,212086,1,0,0:0:0:0:
190,133,212264,1,8,0:0:0:0:
190,133,212621,1,8,0:0:0:0:
169,109,212978,1,4,0:0:0:0:
155,100,213693,1,8,0:0:0:0:
155,100,214407,1,0,0:0:0:0:
155,100,214764,1,0,0:0:0:0:
155,100,215121,1,8,0:0:0:0:
155,100,215478,1,8,0:0:0:0:
155,100,215836,1,0,0:0:0:0:
150,94,216550,1,8,0:0:0:0:
146,88,217264,1,0,0:0:0:0:
146,88,217621,1,0,0:0:0:0:
146,88,217978,1,8,0:0:0:0:
146,88,218336,1,8,0:0:0:0:
146,88,218514,1,8,0:0:0:0:
136,176,218693,1,0,0:0:0:0:
280,198,219050,1,0,0:0:0:0:
262,207,219407,1,8,0:0:0:0:
278,196,220121,1,0,0:0:0:0:
278,196,220478,1,0,0:0:0:0:
278,196,220836,1,8,0:0:0:0:
278,196,221014,1,0,0:0:0:0:
263,217,221193,1,8,0:0:0:0:
263,217,221550,1,0,0:0:0:0:
260,206,222264,1,8,0:0:0:0:
260,206,222621,1,8,0:0:0:0:
260,206,222800,1,8,0:0:0:0:
256,200,222978,1,0,0:0:0:0:
260,206,223336,1,0,0:0:0:0:
256,200,223693,1,8,0:0:0:0:
274,199,224407,1,4,0:0:0:0:
262,157,225121,1,8,0:0:0:0:
262,148,225836,1,0,0:0:0:0:
262,148,226193,1,0,0:0:0:0:
262,148,226550,1,8,0:0:0:0:
262,148,227264,1,0,0:0:0:0:
262,148,227978,1,8,0:0:0:0:
253,113,228693,1,0,0:0:0:0:
253,113,229050,1,0,0:0:0:0:
253,113,229407,1,8,0:0:0:0:
253,113,229764,1,0,0:0:0:0:
253,113,230121,1,0,0:0:0:0:
253,113,230836,1,8,0:0:0:0:
301,208,231193,1,8,0:0:0:0:
253,113,231550,1,0,0:0:0:0:
253,113,232264,1,8,0:0:0:0:
321,178,232978,1,0,0:0:0:0:
321,178,233336,1,0,0:0:0:0:
267,156,233693,1,8,0:0:0:0:
267,156,233871,1,8,0:0:0:0:
267,156,234050,1,0,0:0:0:0:
246,162,234407,1,8,0:0:0:0:
234,136,235121,1,8,0:0:0:0:
216,215,235478,1,8,0:0:0:0:
234,136,235836,1,4,0:0:0:0:
213,180,236550,1,8,0:0:0:0:
122,79,236907,1,0,0:0:0:0:
122,79,237264,1,0,0:0:0:0:
190,276,237978,1,8,0:0:0:0:
233,272,238693,1,0,0:0:0:0:
233,272,239050,1,0,0:0:0:0:
233,272,239407,1,8,0:0:0:0:
233,272,239764,1,8,0:0:0:0:
233,272,240121,1,0,0:0:0:0:
233,272,240836,1,8,0:0:0:0:
233,272,241193,1,0,0:0:0:0:
233,272,241371,1,8,0:0:0:0:
233,272,241550,1,0,0:0:0:0:
279,262,242264,1,8,0:0:0:0:
279,262,242978,1,0,0:0:0:0:
279,262,243336,1,0,0:0:0:0:
279,262,243693,1,8,0:0:0:0:
279,262,244407,1,0,0:0:0:0:
279,262,244764,1,0,0:0:0:0:
279,262,245121,1,8,0:0:0:0:
279,262,245300,1,8,0:0:0:0:
279,262,245478,1,0,0:0:0:0:
273,250,245836,1,8,0:0:0:0:
272,249,246193,1,0,0:0:0:0:
273,250,246550,1,8,0:0:0:0:
264,253,247264,1,4,0:0:0:0:
264,253,248693,1,0,0:0:0:0:
264,253,250121,1,8,0:0:0:0:
264,253,250836,1,0,0:0:0:0:
264,253,251550,1,8,0:0:0:0:
264,253,252978,1,0,0:0:0:0:
264,253,254407,1,8,0:0:0:0:
264,253,255836,1,0,0:0:0:0:
264,253,256550,1,8,0:0:0:0:
264,253,257264,1,0,0:0:0:0:
264,242,258693,1,8,0:0:0:0:
264,242,259407,1,8,0:0:0:0:
264,242,260121,1,0,0:0:0:0:
264,242,260836,1,0,0:0:0:0:
264,243,261550,1,8,0:0:0:0:
275,199,262978,1,0,0:0:0:0:
275,199,263693,1,8,0:0:0:0:
275,199,264407,1,0,0:0:0:0:
274,200,265836,1,8,0:0:0:0:
274,200,267264,1,0,0:0:0:0:
320,240,267978,1,0,0:0:0:0:
300,200,268336,1,8,0:0:0:0:
