osu file format v14

[General]
AudioFilename: audio.mp3
AudioLeadIn: 0
PreviewTime: -1
Countdown: 0
SampleSet: Soft
StackLeniency: 0.2
Mode: 0
LetterboxInBreaks: 0
WidescreenStoryboard: 1

[Editor]
Bookmarks: 109681
DistanceSpacing: 1.7
BeatDivisor: 4
GridSize: 32
TimelineZoom: 1

[Metadata]
Title:You & Idol
TitleUnicode:You & Idol
Artist:Sotaisei Riron
ArtistUnicode:Sotaisei Riron
Creator:tukamoto7km
Version:Insane
Source:
Tags:
BeatmapID:1951854
BeatmapSetID:934927

[Difficulty]
HPDrainRate:5.4
CircleSize:4
OverallDifficulty:7.4
ApproachRate:9
SliderMultiplier:3.4
SliderTickRate:1

[Events]
//Background and Video events
0,0,"DkWYZJYXoAQmGWD.jpg",0,0
//Break Periods
2,41121,45361
2,77601,78361
2,83361,88561
2,112401,135481
2,136761,147241
2,148635,155641
2,157407,162961
2,168194,169681
//Storyboard Layer 0 (Background)
//Storyboard Layer 1 (Fail)
//Storyboard Layer 2 (Pass)
//Storyboard Layer 3 (Foreground)
//Storyboard Sound Samples

[TimingPoints]
904,952.380952380952,4,2,1,50,1,0
904,-86.9565217391304,4,2,1,50,0,0
2570,-86.9565217391304,4,2,1,5,0,0
2808,-86.9565217391304,4,2,1,50,0,0
4475,-86.9565217391304,4,2,1,5,0,0
4713,-100,4,2,1,50,0,0
4951,-100,4,2,1,5,0,0
5189,-100,4,2,1,50,0,0
5427,-90.9090909090909,4,2,1,5,0,0
5665,-100,4,2,1,50,0,0
5903,-83.3333333333333,4,2,1,5,0,0
6142,-100,4,2,1,50,0,0
6380,-76.9230769230769,4,2,1,5,0,0
6618,-66.6666666666667,4,2,1,50,0,0
7808,-55.5555555555556,4,2,1,5,0,0
8046,-55.5555555555556,4,2,1,50,0,0
8281,1090.90909090909,4,2,1,50,1,0
8553,967.741935483871,4,2,1,50,1,0
8553,-66.6666666666667,4,2,1,50,0,0
8794,-181.818181818181,4,2,1,5,0,0
9036,-74.0740740740741,4,2,1,50,0,0
9278,-74.0740740740741,4,2,1,5,0,0
9520,952.380952380952,4,2,1,50,1,0
9520,-83.3333333333333,4,2,1,50,0,0
9758,-83.3333333333333,4,2,1,5,0,0
9996,-95.2380952380952,4,2,1,50,0,0
10234,-95.2380952380952,4,2,1,5,0,0
10472,-68.9655172413793,4,2,1,50,0,0
12377,-100,4,2,1,50,0,0
12615,-100,4,2,1,5,0,0
12853,-117.647058823529,4,2,1,50,0,0
13091,-50,4,2,1,5,0,0
13329,-100,4,2,1,50,0,0
13567,-40,4,2,1,5,0,0
13805,-117.647058823529,4,2,1,50,0,0
14043,-33.3333333333333,4,2,1,5,0,0
14281,-45.4545454545455,4,2,1,50,0,0
15234,967.741935483871,4,2,1,50,1,0
15234,-48.780487804878,4,2,1,50,0,0
16201,480,4,2,1,50,1,0
16681,-83.3333333333333,4,2,1,50,0,0
16921,-181.818181818181,4,2,1,50,0,0
17161,-142.857142857143,4,2,1,50,0,0
17281,-133.333333333333,4,2,1,5,0,0
17401,-142.857142857143,4,2,1,50,0,0
17521,-133.333333333333,4,2,1,5,0,0
17641,-1000,4,2,1,50,0,0
18121,-55.5555555555556,4,2,1,50,0,0
18841,-38.4615384615385,4,2,1,50,0,0
19081,-55.5555555555556,4,2,1,50,0,0
19321,-41.6666666666667,4,2,1,50,0,0
19561,-133.333333333333,4,2,1,50,0,0
20041,-55.5555555555556,4,2,1,50,0,0
20761,-66.6666666666667,4,2,1,50,0,0
21961,-60.6060606060606,4,2,1,50,0,0
22321,-62.5,4,2,1,5,0,0
22441,-100,4,2,1,50,0,0
23161,-62.5,4,2,1,50,0,0
23521,-133.333333333333,4,2,1,5,0,0
23641,-133.333333333333,4,2,1,50,0,0
23881,-52.6315789473684,4,2,1,50,0,0
24841,-55.5555555555556,4,2,1,50,0,0
25801,-55.5555555555556,4,2,1,50,0,0
26761,-58.8235294117647,4,2,1,50,0,0
27001,-133.333333333333,4,2,1,50,0,0
27241,-133.333333333333,4,2,1,50,0,0
27721,-54.054054054054,4,2,1,50,0,0
28441,-64.5161290322581,4,2,1,50,0,0
29161,-250,4,2,1,50,0,0
29281,-250,4,2,1,5,0,0
29401,-142.857142857143,4,2,1,50,0,0
29521,-142.857142857143,4,2,1,5,0,0
29641,-60.6060606060606,4,2,1,50,0,0
30001,-46.2962962962963,4,2,1,5,0,0
30121,-125,4,2,1,50,0,0
30721,-125,4,2,1,5,0,0
30841,-62.5,4,2,1,50,0,0
31561,-133.333333333333,4,2,1,50,0,0
31681,-133.333333333333,4,2,1,5,0,0
31801,-133.333333333333,4,2,1,50,0,0
31921,-133.333333333333,4,2,1,5,0,0
32041,-181.818181818182,4,2,1,50,0,0
32161,-200,4,2,1,5,0,0
32281,-181.818181818182,4,2,1,50,0,0
32401,-200,4,2,1,5,0,0
32521,-200,4,2,1,50,0,0
32761,-153.846153846153,4,2,1,50,0,0
32881,-153.846153846153,4,2,1,5,0,0
33001,-153.846153846153,4,2,1,50,0,0
33121,-133.333333333333,4,2,1,5,0,0
33241,-133.333333333333,4,2,1,50,0,0
33481,-90.9090909090909,4,2,1,50,0,0
33841,-90.9090909090909,4,2,1,5,0,0
33961,-400,4,2,1,50,0,0
34081,-333.333333333333,4,2,1,5,0,0
34201,-666.666666666667,4,2,1,50,0,0
34321,-400,4,2,1,5,0,0
34441,-90.9090909090909,4,2,1,50,0,0
34801,-90.9090909090909,4,2,1,5,0,0
34921,-153.846153846154,4,2,1,50,0,0
35041,-333.333333333333,4,2,1,5,0,0
35161,-153.846153846154,4,2,1,50,0,0
35401,-90.9090909090909,4,2,1,50,0,0
35881,-333.333333333333,4,2,1,50,0,0
36001,-333.333333333333,4,2,1,5,0,0
36121,-71.4285714285714,4,2,1,50,0,0
36481,-83.3333333333333,4,2,1,5,0,0
36601,-133.333333333333,4,2,1,50,0,0
37321,-166.666666666667,4,2,1,50,0,0
39241,-222.222222222221,4,2,1,50,0,0
40201,-90.9090909090909,4,2,1,50,0,0
41161,-100,4,2,1,50,0,0
41401,-125,4,2,1,50,0,0
41641,-166.666666666667,4,2,1,50,0,0
41881,-250,4,2,1,50,0,0
54361,-133.333333333333,4,2,1,50,0,0
54841,-153.846153846153,4,2,1,50,0,0
55321,-222.22222222222,4,2,1,50,0,0
56281,-153.846153846153,4,2,1,50,0,0
56521,-153.846153846153,4,2,1,50,0,0
57961,-222.22222222222,4,2,1,50,0,0
58201,-133.333333333333,4,2,1,50,0,0
58681,-222.222222222221,4,2,1,50,0,0
59881,-133.333333333333,4,2,1,50,0,0
60121,-100,4,2,1,50,0,0
60361,-90.9090909090909,4,2,1,50,0,0
60721,-90.9090909090909,4,2,1,5,0,0
60841,-166.666666666667,4,2,1,50,0,0
60961,-166.666666666667,4,2,1,5,0,0
61081,-166.666666666667,4,2,1,50,0,0
61201,-166.666666666667,4,2,1,5,0,0
61321,-100,4,2,1,50,0,0
62041,-125,4,2,1,50,0,0
62761,-181.818181818181,4,2,1,50,0,0
63001,-133.333333333333,4,2,1,50,0,0
63481,-222.222222222221,4,2,1,50,0,0
63961,-285.714285714282,4,2,1,50,0,0
64201,-80.0000000000001,4,2,1,50,0,0
65161,-105.263157894737,4,2,1,50,0,0
66121,-80,4,2,1,50,0,0
67081,-105.263157894737,4,2,1,50,0,0
68041,-80,4,2,1,50,0,0
69001,-105.263157894737,4,2,1,50,0,0
69961,-80,4,2,1,50,0,0
70921,-105.263157894737,4,2,1,50,0,0
76681,-55.5555555555556,4,2,1,50,0,0
79561,-100,4,2,1,50,0,0
80521,-166.666666666667,4,2,1,50,0,0
80761,-125,4,2,1,50,0,0
81001,-100,4,2,1,50,0,0
81481,-90.9090909090909,4,2,1,50,0,0
81721,-111.111111111111,4,2,1,50,0,0
81961,-142.857142857143,4,2,1,50,0,0
82441,-100,4,2,1,50,0,0
89161,-83.3333333333333,4,2,1,50,0,0
90121,-133.333333333333,4,2,1,50,0,0
90361,-66.6666666666667,4,2,1,50,0,0
90841,-133.333333333333,4,2,1,50,0,0
91081,-100,4,2,1,50,0,0
91561,-133.333333333333,4,2,1,50,0,0
93001,-83.3333333333333,4,2,1,50,0,0
93241,-90.9090909090909,4,2,1,50,0,0
93721,-1000,4,2,1,30,0,0
93841,-1000,4,2,1,20,0,0
94081,-1000,4,2,1,50,0,0
94201,-100,4,2,1,50,0,0
94921,-100,4,2,1,50,0,0
95161,-111.111111111111,4,2,1,50,0,0
95401,-125,4,2,1,50,0,0
95641,-55.5555555555556,4,2,1,50,0,0
95881,-100,4,2,1,50,0,0
96361,-125,4,2,1,50,0,0
96841,-100,4,2,1,50,0,0
97321,-90.9090909090909,4,2,1,50,0,0
97561,-83.3333333333333,4,2,1,50,0,0
97801,-76.9230769230769,4,2,1,50,0,0
98761,-55.5555555555556,4,2,1,50,0,0
99241,-52.6315789473684,4,2,1,50,0,0
99721,-50,4,2,1,50,0,0
100201,-47.6190476190476,4,2,1,50,0,0
102601,-76.9230769230769,4,2,1,50,0,0
103081,-90.9090909090909,4,2,1,50,0,0
103561,-100,4,2,1,50,0,0
104041,-76.9230769230769,4,2,1,50,0,0
104521,-83.3333333333333,4,2,1,50,0,0
105001,-100,4,2,1,50,0,0
105481,-76.9230769230769,4,2,1,50,0,0
105961,-100,4,2,1,50,0,0
108121,-117.647058823529,4,2,1,50,0,0
108361,-95.238095238095,4,2,1,50,0,0
108841,-50,4,2,1,50,0,1
109321,-50,4,2,1,50,0,0
109801,-222.222222222221,4,2,1,50,0,0
110041,-166.666666666667,4,2,1,50,0,0
110281,-181.818181818181,4,2,1,50,0,1
112201,-100,4,2,1,50,0,0
114121,-100,4,2,1,50,0,1
215881,480,4,2,1,50,1,0
216361,491.803278688525,4,2,1,50,1,0
216852,545.454545454546,4,2,1,50,1,0

[Colours]
Combo1 : 129,176,228
Combo2 : 102,198,208
Combo3 : 218,122,147
Combo4 : 157,209,105
Combo5 : 214,206,71
Combo6 : 220,133,209

[HitObjects]
378,51,904,6,0,B|405:237|550:89|432:-45|280:-21|153:78|178:241|266:257|266:257|210:227|230:163,1,684.250013051033,2|0,0:0|0:0,0:0:0:0:
378,51,2808,6,0,B|437:43|468:86|448:117|448:117|450:121|450:121|410:157|341:119|384:40|284:48|284:48|282:45|282:45|224:46|205:102|247:144|273:143|273:143|275:145|275:145|317:172|358:123|404:151|431:171|463:214,1,684.250013051033,2|0,0:0|0:0,0:0:0:0:
223,47,4713,6,0,B|259:53|259:53|260:56|260:56|322:68,1,85,2|0,0:0|0:0,0:0:0:0:
386,82,5189,2,0,B|350:76|350:76|349:73|349:73|287:61,1,85,2|0,0:0|0:0,0:0:0:0:
119,333,5665,6,0,B|106:298|106:298|108:296|108:296|87:236,1,85,2|0,0:0|0:0,0:0:0:0:
67,174,6142,2,0,B|79:208|79:208|77:210|77:210|98:270,1,85,2|0,0:0|0:0,0:0:0:0:
374,185,6618,6,0,B|261:248|167:196|167:196|172:197|172:197|257:162|391:212|429:256|429:256|426:258|426:258|467:288|450:348|450:348|452:351|452:351|431:257|348:246,1,765.000029182435,2|2,0:0|0:0,0:0:0:0:
357,322,8553,6,0,B|386:296|417:299|417:299|389:303|363:328,1,127.500004863739,2|0,0:0|0:0,0:0:0:0:
195,364,9036,2,0,B|200:328|224:313|224:313|206:332|202:364,1,114.750000437737,2|0,0:0|0:0,0:0:0:0:
69,384,9520,6,0,B|44:402|20:398|20:398|42:397|64:378,1,101.999996887207,2|0,0:0|0:0,0:0:0:0:
8,220,9996,2,0,B|3:246|-12:258|-12:258|0:244|1:219,1,89.2499972763062,2|0,0:0|0:0,0:0:0:0:
329,124,10472,6,0,B|376:206|287:220|370:318|370:318|328:218|445:195|310:25|207:2|207:2|290:25|303:100,1,739.50002256775,0|0,1:3|0:0,0:0:0:0:
13,317,12377,6,0,B|67:290|40:317|96:291,1,85,2|0,0:0|0:0,0:0:0:0:
93,292,12853,2,0,B|103:244|111:278|123:228,1,72.2500013780594,2|0,0:0|0:0,0:0:0:0:
301,93,13329,6,0,B|262:49|299:67|260:19,1,85,2|0,0:0|0:0,0:0:0:0:
193,0,13805,2,0,B|243:1|211:15|261:20,1,72.2500013780594,2|0,0:0|0:0,0:0:0:0:
424,59,14281,6,0,B|438:104|447:163|315:228|361:322|361:322|358:332|358:332|363:320|363:320|466:261|360:181|451:99,1,561.000017120362
0,292,15234,6,0,B|111:353|129:320|174:287|270:349|270:349|101:289|145:363|54:331,1,522.750007976532,2|0,0:0|0:0,0:0:0:0:
197,101,16201,5,0,1:0:0:0:
197,101,16441,1,2,3:2:0:0:
178,32,16681,2,0,B|149:11|149:11|173:99|173:99|177:102|177:102|198:177,1,203.999993774414,0|2,1:0|3:2,0:0:0:0:
511,250,17161,6,0,P|485:234|456:228,1,59.4999981842042,4|0,3:0|0:0,0:0:0:0:
433,292,17401,2,0,P|458:307|487:313,1,59.4999981842042,4|0,3:0|0:0,0:0:0:0:
473,271,17641,1,4,1:3:0:0:
181,221,17881,5,0,1:0:0:0:
173,225,18001,1,0,1:0:0:0:
168,231,18121,6,0,B|227:193|324:232|354:309|354:309|313:265|275:288,1,305.999990661621,2|0,0:1|0:0,0:0:0:0:
18,163,18601,2,0,B|15:92|97:28|178:40|178:40|121:54|121:98,1,305.999990661621,2|4,0:1|3:0,0:0:0:0:
1,273,19081,6,0,B|76:348|76:348|44:249|44:249|46:243|46:243|16:157,1,305.999990661621,2|2,0:1|0:0,0:0:0:0:
250,48,19561,6,0,B|215:23|215:23|221:47,1,63.7500024318696,6|0,0:0|0:0,0:0:0:0:
197,125,19801,1,2,0:1:0:0:
197,125,20041,6,0,B|139:90|141:36|141:36|132:29|132:29|139:37|139:37|195:58|275:123|317:214|236:348|236:348|262:299|316:289,1,611.999981323243,4|0,1:3|1:0,0:0:0:0:
470,31,20761,6,0,B|401:-25|262:-4|175:78|256:122|171:172|171:172|250:154|194:101|293:72,1,510.000019454957,0|2,1:0|0:1,0:0:0:0:
217,25,21481,1,0,1:0:0:0:
105,154,21721,1,2,0:1:0:0:
2,24,21961,6,0,B|-48:205|177:174|203:231|203:231|168:200|118:205,1,420.750004012585,0|0,1:0|0:0,0:0:0:0:
7,237,22441,6,0,B|25:195|93:183|155:231,1,170,8|4,1:2|3:0,0:0:0:0:
419,352,22921,6,0,B|395:359|366:335|364:291,1,85,2|0,0:2|0:0,0:0:0:0:
282,124,23161,6,0,B|346:83|407:185|324:215|324:215|320:215|320:215|237:244,1,272,2|8,0:0|1:2,0:0:0:0:
177,341,23641,1,0,1:0:0:0:
177,341,23881,6,0,B|176:268|140:228|140:228|154:280|197:342|246:293|281:358|281:358|241:294|231:234|264:166|319:138|319:138|289:166|298:202,1,645.999982749939,4|0,1:3|1:3,0:0:0:0:
364,299,24601,1,4,3:0:0:0:
159,64,24841,6,0,B|212:73|226:122|226:122|216:119|216:119|174:121|161:13|44:52|44:52|41:57|41:57|-40:75|-44:160|3:167|3:167|7:162|7:162|64:167|26:109|98:73,1,611.999981323243,4|0,1:3|1:3,0:0:0:0:
354,127,25561,5,2,0:0:0:0:
354,127,25681,1,2,0:0:0:0:
354,127,25801,6,0,B|375:68|346:-23|346:-23|369:70|420:110,1,305.999990661621,2|2,3:1|0:0,0:0:0:0:
224,212,26281,2,0,B|161:214|84:158|84:158|165:209|187:268,1,305.999990661621,2|2,3:1|0:0,0:0:0:0:
431,355,26761,6,0,B|511:309|511:309|424:322|424:322|416:318|416:318|312:341,1,289.000005512238,2|0,0:1|0:1,0:1:0:0:
6,309,27241,6,0,B|-21:291|-21:291|9:299,1,63.7500024318696,0|0,1:0|0:0,0:0:0:0:
73,327,27481,1,2,0:0:0:0:
293,181,27721,6,0,B|247:121|136:136|62:282|170:286|170:286|169:281|169:281|201:272|213:243|213:243|211:240|211:240|256:174|222:93|222:93|218:89|218:89|197:55|197:55|211:86|195:119,1,628.999997600556,4|0,1:3|1:0,0:0:0:0:
192,352,28441,6,0,B|258:291|176:215|127:274|127:274|124:270|124:270|77:314|-13:270|-12:204|-12:204|-16:199|-16:199|49:272|124:243,1,527.000004020691,4|0,1:3|0:0,0:0:0:0:
301,97,29161,2,0,P|316:102|333:102,1,34,0|0,1:0|0:0,1:0:0:0:
389,173,29401,2,0,P|406:150|432:137,1,59.4999981842042,2|0,3:0|0:0,1:0:0:0:
432,137,29641,6,0,B|365:117|362:53|362:53|360:49|360:49|419:73|490:161|485:233|461:251|461:251|467:225|446:202,1,420.750004012585,2|0,1:0|0:0,0:0:0:0:
345,314,30121,6,0,B|344:264|388:248|388:248|364:274|367:301,1,136,0|2,1:0|0:0,0:0:0:0:
209,373,30601,6,0,P|184:349|146:345,1,68,2|0,0:0|0:0,0:0:0:0:
43,230,30841,6,0,B|-31:175|-12:72|72:158|80:236|77:297,1,272,2|0,3:0|1:0,0:0:0:0:
254,83,31321,1,2,0:0:0:0:
254,83,31561,6,0,P|223:91|203:116,1,63.7500024318696,0|0,1:0|0:0,0:0:0:0:
81,364,31801,2,0,P|103:343|134:338,1,63.7500024318696,0|0,1:0|0:0,0:0:0:0:
151,228,32041,6,0,P|156:250|174:265,1,46.7500014266968,0|0,1:0|0:0,0:0:0:0:
209,373,32281,2,0,P|199:351|205:328,1,46.7500014266968,0|0,1:0|0:0,0:0:0:0:
246,269,32521,1,0,1:0:0:0:
473,162,32761,6,0,P|449:173|430:196,1,55.2499974708558,4|0,1:3|0:0,0:0:0:0:
314,208,33001,2,0,P|340:208|367:221,1,55.2499974708558,0|0,1:0|0:0,0:0:0:0:
425,279,33241,1,4,0:0:0:0:
157,102,33481,6,0,B|106:141|89:186|115:250|180:252|219:183|201:115,1,280.500008560181,4|0,3:0|0:0,0:0:0:0:
200,109,33961,2,0,L|190:78,1,21.25,4|0,3:0|0:0,0:0:0:0:
53,266,34201,2,0,L|74:259,1,12.7499996109009,4|0,3:0|0:0,0:0:0:0:
74,258,34441,6,0,B|48:312|48:312|49:315|49:315|30:361|30:361|111:340|111:340|115:342|115:342|193:323,1,280.500008560181,2|0,0:0|0:0,0:0:0:0:
276,328,34921,2,0,B|292:313|292:313|252:325,1,55.2499974708558,0|0,1:0|0:0,0:0:0:0:
229,233,35161,2,0,B|206:231|206:231|244:251,1,55.2499974708558,0|0,3:0|0:0,0:0:0:0:
482,261,35401,6,0,B|424:246|355:290|340:357,1,187.000005706787,4|2,1:3|0:0,0:0:0:0:
450,338,35761,1,2,0:0:0:0:
445,335,35881,2,0,P|430:341|420:356,1,25.4999992218018,4|0,1:3|0:3,1:3:0:0:
340,354,36121,6,0,B|306:205|283:339|170:139|222:73|349:173|268:286,1,356.999989105225,4|0,3:0|0:0,0:0:0:0:
203,345,36601,5,2,0:0:0:0:
198,340,36841,1,4,3:0:0:0:
22,343,37081,1,4,2:0:0:0:
88,296,37321,6,0,B|257:318|257:318|89:286|89:286|257:308,1,509.999984436036,4|2,3:0|0:0,0:0:0:0:
222,35,38761,5,0,0:0:0:0:
281,147,39001,2,0,L|305:68,1,50.9999984436036
300,263,39481,1,0,3:0:0:0:
66,114,40201,6,0,B|87:73|64:22|64:22|89:75|148:76,2,191.250007295609
159,198,40921,1,0,0:0:0:0:
41,352,45961,6,0,B|20:384|-49:362|-72:254|24:211|89:313|34:360,1,255.000009727478,2|0,1:0|1:0,0:0:0:0:
40,353,46441,2,0,B|24:379|-32:364|-55:276|22:239|77:320|34:359,1,203.999993774414,2|0,1:0|1:0,0:0:0:0:
159,198,51001,6,0,P|185:165|224:172,1,85,2|0,0:0|0:0,0:0:0:0:
233,255,51241,6,0,P|266:279|303:262,1,68,2|0,0:0|0:0,0:0:0:0:
299,194,51481,6,0,P|340:186|365:216,1,50.9999984436036,2|0,0:0|0:0,0:0:0:0:
367,264,51721,6,0,P|394:256|402:230,1,34,2|0,0:0|0:0,0:0:0:0:
93,291,54361,6,0,B|221:260|151:290|290:262,1,191.250007295609,2|0,0:0|0:0,0:0:0:0:
344,338,54841,6,0,L|360:266,1,55.2499974708558,2|0,0:0|0:0,0:0:0:0:
382,153,55081,2,0,L|366:225,1,55.2499974708558,2|0,0:0|0:0,0:0:0:0:
425,315,55321,6,0,L|433:276,1,38.2499988327027,2|0,0:0|0:0,0:0:0:0:
445,215,55561,2,0,L|436:253,1,38.2499988327027,2|0,0:0|0:0,0:0:0:0:
512,284,55801,5,0,1:0:0:0:
512,284,56041,1,4,3:0:0:0:
305,41,56281,6,0,P|318:18|344:20,1,55.2499974708558,2|0,0:0|0:0,0:0:0:0:
233,72,57721,1,2,0:0:0:0:
272,301,57961,6,0,P|261:279|234:267,1,38.2499988327027,2|0,3:0|0:0,0:0:0:0:
49,293,58201,2,0,B|162:256|129:283|251:253,1,187.000005706787,2|0,0:0|0:0,0:0:0:0:
348,228,58681,6,0,P|367:231|383:242,1,38.2499988327027,2|0,0:0|0:0,0:0:0:0:
384,204,58921,2,0,P|379:223|383:242,1,38.2499988327027,2|0,0:0|0:0,0:0:0:0:
357,332,59161,6,0,P|375:329|391:318,1,38.2499988327027,4|0,3:0|0:0,0:0:0:0:
394,355,59401,2,0,P|389:336|392:317,1,38.2499988327027,2|0,0:0|0:0,0:0:0:0:
451,271,59641,1,2,0:0:0:0:
219,18,59881,6,0,P|234:46|240:88,1,63.7500024318696
213,366,60121,6,0,P|201:329|170:287,1,85
0,281,60361,6,0,B|73:192|129:350|246:200,1,280.500008560181,2|0,1:0|0:0,0:0:0:0:
309,28,60841,6,0,P|292:52|291:92,1,50.9999984436036,0|0,1:0|0:0,0:0:0:0:
309,28,61081,2,0,P|309:53|298:76,1,50.9999984436036,2|0,0:0|0:0,0:0:0:0:
450,202,61321,6,0,B|341:248|296:128|339:95|434:176|391:285,1,255,4|0,3:0|0:0,0:0:0:0:
424,299,61801,1,0,1:0:0:0:
424,299,62041,6,0,B|191:268|413:255|166:219,1,272,2|2,0:0|0:0,0:0:0:0:
442,104,62761,6,0,L|428:57,1,46.7500014266968,2|0,0:0|0:0,0:0:0:0:
345,39,63001,2,0,L|384:182,1,127.500004863739,4|0,1:2|0:0,0:0:0:0:
0,224,63481,5,4,1:3:0:0:
480,160,63721,5,2,1:0:0:0:
0,224,63961,6,0,L|38:230,1,29.7499990921021
177,331,64201,2,0,P|206:244|172:334,1,425
137,269,64921,5,2,0:0:0:0:
423,32,65161,2,0,B|390:182|390:182|394:185|394:185|356:353,1,322.99999137497
469,170,65881,5,2,0:0:0:0:
216,33,66121,2,0,P|189:177|253:45,1,425
213,106,66841,5,2,0:0:0:0:
442,310,67081,2,0,B|288:326|288:326|286:329|286:329|115:346,1,322.99999137497
259,263,67801,5,2,0:0:0:0:
338,151,68041,2,0,P|387:12|375:159,1,425
372,85,68761,5,2,0:0:0:0:
277,355,69001,2,0,B|247:203|247:203|243:202|243:202|212:32,1,322.99999137497
185,244,69721,5,2,0:0:0:0:
303,384,69961,2,0,P|398:273|278:356,1,425
344,324,70681,5,0,0:0:0:0:
115,205,70921,2,0,B|268:188|268:188|270:185|270:185|441:168,1,322.99999137497
242,122,71641,5,0,0:0:0:0:
471,25,71881,2,0,B|433:174|433:174|436:177|436:177|393:344,1,322.99999137497
364,182,72601,5,0,0:0:0:0:
115,205,73801,6,0,B|268:188|268:188|270:185|270:185|441:168,1,322.99999137497
115,205,75721,6,0,B|268:188|268:188|270:185|270:185|441:168,1,322.99999137497
193,213,76681,6,0,B|128:158|147:47|234:9|314:13|338:192|285:242|196:162|168:212|203:321,1,458.999985992432
205,350,77161,1,0,0:0:0:0:
205,350,77401,1,0,0:0:0:0:
452,268,79561,6,0,P|411:270|369:293,1,85
336,192,79801,2,0,P|311:224|301:271,1,85
203,232,80041,2,0,P|212:272|242:309,1,85
318,369,80281,1,0,0:0:0:0:
296,10,80521,6,0,P|284:33|279:58,1,50.9999984436036
162,47,80761,2,0,P|176:78|201:101,1,68
65,133,81002,2,0,P|101:156|143:160,1,85
261,180,81241,1,0,0:0:0:0:
261,180,81481,6,0,P|273:133|302:87,1,93.5000028533936
384,0,81721,2,0,P|383:46|396:91,1,76.4999976654053
427,174,81961,2,0,P|439:129|462:89,1,59.4999981842042
458,47,82201,1,0,0:0:0:0:
352,305,82441,6,0,P|330:264|298:236,1,85
348,169,82681,2,0,P|308:144|267:136,1,85
276,53,82921,2,0,P|229:51|189:65,1,85
186,145,83161,1,0,0:0:0:0:
354,127,89161,6,0,B|227:85|368:-72|461:142|332:102|389:213,1,305.999990661621,2|0,3:1|0:0,0:0:0:0:
460,275,89641,2,0,B|460:408|653:323|478:168|476:303|389:215,1,305.999990661621,4|0,3:0|0:0,0:0:0:0:
314,212,90121,6,0,B|293:203|293:203|317:248,1,63.7500024318696,2|0,0:0|0:0,0:0:0:0:
272,342,90361,6,0,B|333:353|333:353|185:295,1,127.500004863739,2|0,0:0|0:0,0:0:0:0:
201,319,90601,1,0,1:0:0:0:
1,140,90841,6,0,P|33:113|77:112,1,63.7500024318696,4|0,3:0|0:0,0:0:0:0:
127,36,91081,6,0,B|111:147|86:78|66:196,1,170,2|0,1:0|0:0,0:0:0:0:
127,36,91561,2,0,B|115:123|86:78|66:196,1,127.500004863739,2|0,1:0|0:0,0:0:0:0:
166,51,93001,6,0,B|198:55|224:40|224:40|203:66|190:61,1,101.999996887207,4|0,3:0|2:0,2:0:0:0:
58,143,93241,6,0,P|114:206|196:165,1,187.000005706787,8|0,3:0|2:0,0:0:0:0:
410,278,93601,1,2,3:0:0:0:
410,278,93721,6,2,L|413:305,1,25.5,6|0,1:1|2:0,0:1:0:0:
401,293,94201,5,2,2:0:0:0:
328,272,94321,5,2,2:0:0:0:
239,296,94441,5,2,2:0:0:0:
165,360,94561,5,2,2:0:0:0:
74,351,94681,5,2,2:0:0:0:
512,90,94921,6,0,P|471:101|460:143,1,85,2|0,0:0|0:0,0:0:0:0:
418,39,95161,2,0,P|391:69|388:112,1,76.4999976654053,2|0,0:0|0:0,0:0:0:0:
312,47,95401,2,0,P|304:86|323:125,1,68,2|0,0:0|0:0,0:0:0:0:
512,306,95641,6,0,B|438:294|438:294|437:295|437:295|346:282,1,152.999995330811,2|0,0:1|0:0,0:0:0:0:
176,351,95881,6,0,P|199:318|240:319,1,85,2|0,0:0|0:0,0:0:0:0:
306,367,96121,2,0,P|265:367|242:334,1,85,2|0,0:0|0:0,0:0:0:0:
400,137,96361,6,0,P|401:171|414:202,1,68,2|0,0:0|0:0,0:0:0:0:
437,272,96601,2,0,P|435:238|422:207,1,68,2|0,0:0|0:0,0:0:0:0:
209,155,96841,6,0,B|167:142|131:171|131:171|208:109|293:110,1,255.000009727478,4|0,3:0|0:0,0:0:0:0:
0,353,97321,6,0,P|17:299|45:248,1,101.999996887207,2|0,0:0|0:0,0:0:0:0:
209,155,97561,6,0,P|250:109|302:80,1,110.499994941712,2|0,0:0|0:0,0:0:0:0:
407,0,97801,6,0,P|472:-13|536:-9,1,110.499994941712,2|0,0:0|0:0,0:0:0:0:
466,67,98041,5,4,1:2:0:0:
386,365,98281,1,8,3:0:0:0:
466,67,98521,1,4,3:0:0:0:
120,81,98761,6,0,B|41:102|37:187|86:253|156:219|184:201|187:125,1,305.999990661621,4|0,1:2|0:0,0:0:0:0:
0,369,99241,6,0,B|-21:349|-68:286|-56:189|1:173|64:238|77:322|63:350,1,322.99999137497,4|0,1:2|0:0,0:0:0:0:
416,27,99721,6,0,B|320:59|323:144|369:209|488:150|491:-7,1,340,4|0,1:2|0:0,0:0:0:0:
307,326,100201,6,0,B|233:305|259:178|375:135|454:289|371:363,1,356.999989105225,4|0,1:2|0:0,0:0:0:0:
372,361,100681,5,2,1:0:0:0:
75,154,102601,6,0,P|71:100|32:64,1,110.499994941712,2|0,0:0|0:0,0:0:0:0:
161,0,102841,2,0,P|114:14|62:0,1,110.499994941712,2|0,0:0|0:0,0:0:0:0:
198,59,103081,6,0,P|186:101|221:129,1,93.5000028533936,2|0,0:0|0:0,0:0:0:0:
266,40,103321,2,0,P|301:67|289:110,1,93.5000028533936,2|0,0:0|0:0,0:0:0:0:
512,296,103561,6,0,L|430:277,1,85,2|0,0:0|0:0,0:0:0:0:
357,144,103801,2,0,L|382:226,1,85,2|0,0:0|0:0,0:0:0:0:
146,360,104041,6,0,P|188:330|253:316,1,110.499994941712,2|0,0:0|0:0,0:0:0:0:
65,331,104281,2,0,P|91:286|144:247,1,110.499994941712,2|0,0:0|0:0,0:0:0:0:
0,32,104521,6,0,P|49:33|110:59,1,101.999996887207,2|0,0:0|0:0,0:0:0:0:
13,116,104761,2,0,P|60:138|105:187,1,101.999996887207,2|0,0:0|0:0,0:0:0:0:
331,383,105001,6,0,P|327:341|314:301,1,85,2|0,0:0|0:0,0:0:0:0:
382,226,105241,2,0,P|364:264|355:305,1,85,2|0,0:0|0:0,0:0:0:0:
142,268,105481,6,0,P|104:229|51:231,1,110.499994941712,2|0,0:0|0:0,0:0:0:0:
25,296,105721,2,0,P|62:334|116:333,1,110.499994941712,2|0,0:0|0:0,0:0:0:0:
292,180,105961,6,0,P|283:138|268:90,1,85,2|0,0:0|0:0,0:0:0:0:
149,63,106201,2,0,P|189:46|229:33,1,85,2|0,0:0|0:0,0:0:0:0:
419,94,106441,5,4,0:0:0:0:
419,94,106921,1,4,0:0:0:0:
419,94,107401,1,4,0:0:0:0:
419,94,107881,1,4,0:0:0:0:
315,354,108121,6,0,P|296:315|246:290,1,72.2500013780594,2|0,0:0|0:0,0:0:0:0:
197,330,108361,2,0,P|161:305|105:309,1,89.2499972763062,4|0,1:3|0:0,0:0:0:0:
29,366,108601,1,2,0:1:0:0:
29,22,108841,6,0,B|61:193|61:193|60:198|60:198|87:357,2,340,2|0|2,1:0|0:1|1:0,0:0:0:0:
32,193,109561,1,0,1:0:0:0:
409,351,109801,6,0,P|404:327|390:304,1,38.2499988327027,2|0,0:0|0:0,0:0:0:0:
440,341,110041,2,0,P|424:320|400:303,1,50.9999984436036,2|0,0:0|0:0,0:0:0:0:
7,128,110281,6,0,B|181:241|346:204|447:141|447:141|309:147|269:342,1,748.000022827149
417,158,136081,6,0,P|388:171|354:173,1,63.7500024318696,4|0,1:3|0:0,0:0:0:0:
354,163,136321,2,0,P|383:150|417:148,1,63.7500024318696,4|0,1:3|0:0,0:0:0:0:
427,154,136561,1,4,0:0:0:0:
225,287,147841,6,0,B|174:197|-131:256|13:426|187:368|119:209,1,420.750004012585,4|0,1:3|0:0,0:0:0:0:
378,51,156241,6,0,B|437:43|468:86|448:117|448:117|450:121|450:121|410:157|341:119|384:40|284:48|284:48|282:45|282:45|224:46|205:102|247:144|273:143|273:143|275:145|275:145|317:172|358:123|404:151|431:171|459:217,1,684.250013051033,2|0,0:0|0:0,0:0:0:0:
77,91,163561,6,0,B|83:49|125:32|178:46|178:46|172:45|172:45|115:22|42:49|33:142|58:186|58:186|62:187|62:187|62:189|62:189|82:247|156:288|212:303|212:303|162:298|120:238,1,684.250013051033,2|0,0:0|0:0,0:0:0:0:
228,149,166321,6,0,B|328:109|364:-32|230:-124|86:53|152:268|275:208|202:345,1,510,2|0,1:3|0:0,0:0:0:0:
452,353,167274,2,0,B|473:253|647:233|599:385|461:404|352:388|349:296|210:280,1,510,2|0,3:3|0:0,0:0:0:0:
376,185,170281,6,0,B|261:248|167:196|167:196|172:197|172:197|257:162|391:212|429:256|429:256|426:258|426:258|467:288|450:348|450:348|452:351|452:351|431:257|344:246,1,765.000029182435,2|2,0:0|0:0,0:0:0:0:
1,273,173761,6,0,B|1:286|1:286|76:348|76:348|44:249|44:249|46:243|46:243|16:157,1,305.999990661621,2|2,0:1|0:0,0:0:0:0:
159,64,178681,6,0,B|209:77|201:118|201:118|205:127|205:127|197:118|197:118|143:125|170:17|73:30|73:30|75:36|75:36|-27:66|0:235|124:208|124:208|87:211|64:241,1,611.999981323243,4|0,1:3|1:3,0:0:0:0:
82,127,184201,6,0,B|46:126|22:164|22:164|42:102|158:38|155:199|241:153|241:153|236:149|236:149|311:140|290:74|337:65|337:65|304:83|304:123,1,550.800013447266,0|0,1:0|0:0,0:0:0:0:
73,327,186601,6,0,B|16:312|-20:245|28:182|84:275|84:275|83:282|83:282|105:311|104:335|104:335|114:351|131:359|131:359|167:367|167:367|170:372|170:372|203:401|293:349|175:314|122:387,1,510.000019454957,4|2,1:3|0:1,0:0:0:0:
32,342,187921,6,0,B|-25:327|-61:260|-13:197|43:290|43:290|42:297|42:297|64:326|63:350|63:350|73:366|90:374|90:374|126:382|126:382|129:387|129:387|162:416|252:364|134:329|81:402,1,510.000019454957,4|2,1:3|0:1,0:0:0:0:
399,37,190801,6,0,B|376:122|336:116|335:172|362:204|362:204|360:209|360:209|431:188|485:100|399:36|399:36|394:66,1,418.200006381226,0|2,1:0|0:1,0:0:0:0:
144,220,192241,6,0,B|67:252|102:311|60:347|60:347|54:351|54:351|56:347|56:347|35:295|76:247|76:247|77:245|77:245|79:243|79:243|129:234|158:160|158:160|156:156|156:156|186:85|95:-23|38:-12|-4:61|90:50,1,684.250013051033,2|0,0:0|0:0,0:0:0:0:
76,27,193681,6,0,B|59:200|286:140|285:334|285:334|223:175|130:293|101:121,1,684.250013051033,2|0,0:0|0:0,0:0:0:0:
