osu file format v14

[General]
AudioFilename: GLITTER (Extended Mix).mp3
AudioLeadIn: 0
PreviewTime: 105058
Countdown: 1
SampleSet: Soft
StackLeniency: 0.7
Mode: 0
LetterboxInBreaks: 1
WidescreenStoryboard: 1

[Editor]
Bookmarks: 21900,31764,42444,56302,68531,76927,78965,81574,88340,92987,93884,105052,115161,125922,135704,149400,170270,175976,191139
DistanceSpacing: 0.5
BeatDivisor: 4
GridSize: 8
TimelineZoom: 1.376

[Metadata]
Title:GLITTER (Extended Mix)
TitleUnicode:GLITTER (Extended Mix)
Artist:Sota Fujimori 2nd Season
ArtistUnicode:Sota Fujimori 2nd Season
Creator:rs_fadeaway
Version:humanity
Source:REFLEC BEAT
Tags:
BeatmapID:723723
BeatmapSetID:309928

[Difficulty]
HPDrainRate:5
CircleSize:4
OverallDifficulty:7
ApproachRate:9.3
SliderMultiplier:1.6
SliderTickRate:1

[Events]
//Background and Video events
0,0,"bg.jpg",0,0
//Break Periods
2,126122,135150
//Storyboard Layer 0 (Background)
//Storyboard Layer 1 (Fail)
//Storyboard Layer 2 (Pass)
//Storyboard Layer 3 (Foreground)
//Storyboard Sound Samples

[TimingPoints]
705,326.086956521739,4,2,2,51,1,0
705,-100,4,2,3,51,0,0
11058,-200,4,2,1,51,0,0
20596,-125,4,2,3,51,0,0
20922,-100,4,2,3,51,0,0
21248,-83.3333333333333,4,2,1,51,0,0
26791,-66.6666666666667,4,2,1,51,0,0
32498,-58.8235294117647,4,2,1,51,0,0
32743,-66.6666666666667,4,2,1,51,0,0
37226,-100,4,2,1,61,0,0
47661,-66.6666666666667,4,2,1,70,0,0
52389,-100,4,2,1,70,0,0
52878,-66.6666666666667,4,2,1,70,0,0
58177,-125,4,2,1,51,0,0
59156,-200,4,2,1,51,0,0
60132,-125,4,2,1,51,0,0
60460,-200,4,2,1,51,0,0
61520,-125,4,2,1,51,0,0
62906,-100,4,2,1,51,0,0
63395,-125,4,2,1,51,0,0
65840,-200,4,2,1,51,0,0
66737,-125,4,2,1,51,0,0
68123,-100,4,2,1,51,0,0
68449,-100,4,2,1,80,0,0
78096,-83.3333333333333,4,2,1,51,0,0
78259,-71.4285714285714,4,2,1,51,0,0
78422,-62.5,4,2,1,51,0,0
78585,-55.5555555555556,4,2,1,51,0,0
78911,-66.6666666666667,4,1,1,70,0,0
79944,-66.6666666666667,4,1,1,51,0,0
82878,-66.6666666666667,4,1,3,30,0,0
83368,-66.6666666666667,4,1,2,40,0,0
83857,-66.6666666666667,4,1,2,60,0,0
84183,-66.6666666666667,4,1,1,80,0,0
94618,-66.6666666666667,4,1,1,80,0,0
105049,-100,4,2,1,51,0,0
106031,-55.5555555555556,4,2,1,51,0,0
106194,-66.6666666666667,4,2,1,51,0,0
106520,-100,4,2,1,51,0,0
107335,-66.6666666666667,4,2,1,51,0,0
107661,-100,4,2,1,51,0,0
108639,-66.6666666666667,4,2,1,51,0,0
109291,-100,4,2,1,51,0,0
109618,-100,4,1,1,51,0,0
110270,-100,4,2,1,51,0,0
111248,-55.5555555555556,4,2,1,51,0,0
111411,-62.5,4,2,1,51,0,0
114189,-100,4,2,1,51,0,0
114835,-100,4,1,1,61,0,0
115487,-100,4,2,1,51,0,0
118748,-66.6666666666667,4,2,1,51,0,0
119645,-100,4,2,1,51,0,0
120052,-66.6666666666667,4,1,1,51,0,0
120704,-100,4,2,1,51,0,0
121357,-100,4,2,1,51,0,0
122743,-83.3333333333333,4,2,1,51,0,0
125270,-125,4,1,1,51,0,0
125596,-100,4,1,1,51,0,0
135704,-100,4,2,1,51,0,0
136357,-100,4,2,2,51,0,0
145813,-100,4,2,2,51,0,0
146791,-76.9230769230769,4,2,2,51,0,0
147118,-71.4285714285714,4,2,2,51,0,0
147770,-100,4,2,1,51,0,0
148096,-71.4285714285714,4,2,1,51,0,0
149391,-66.6666666666667,4,1,1,60,0,0
164563,-55.5555555555556,4,2,1,60,0,0
165052,-66.6666666666667,4,2,1,60,0,0

[HitObjects]
136,296,705,5,0,0:0:0:0:
235,232,949,2,0,P|303:218|364:226,1,120
446,312,1438,1,0,0:0:0:0:
320,384,1601,2,0,L|328:328,1,40
480,104,1846,2,0,L|470:194,1,80
352,232,2253,5,0,0:0:0:0:
480,104,2498,1,0,0:0:0:0:
312,56,2742,1,0,0:0:0:0:
376,200,2906,2,0,L|348:237,1,40
179,311,3150,2,0,L|241:229,1,80
160,48,3558,5,0,0:0:0:0:
228,248,3803,1,0,0:0:0:0:
24,232,4047,1,0,0:0:0:0:
160,192,4210,2,0,L|119:159,1,40
256,128,4454,2,0,P|296:128|352:152,1,80
448,248,4862,5,0,0:0:0:0:
304,288,5107,1,0,0:0:0:0:
333,140,5351,1,0,0:0:0:0:
192,224,5514,2,0,L|160:272,1,40
216,144,5759,2,0,L|184:56,1,80
455,77,6166,5,0,0:0:0:0:
244,31,6411,1,0,0:0:0:0:
293,211,6655,1,0,0:0:0:0:
324,112,6819,2,0,L|284:104,1,40
433,175,7063,2,0,L|403:277,1,80
193,190,7470,5,0,0:0:0:0:
0,120,7715,1,0,0:0:0:0:
181,14,7959,1,0,0:0:0:0:
128,120,8123,2,0,L|112:176,1,40
256,168,8368,2,0,L|352:208,1,80
0,196,8774,5,0,0:0:0:0:
208,267,9019,1,0,0:0:0:0:
193,84,9263,1,0,0:0:0:0:
127,168,9427,2,0,L|163:214,1,40
216,328,9672,2,0,L|256:248,1,80
336,96,10079,5,0,0:0:0:0:
400,288,10324,1,0,0:0:0:0:
336,96,10568,1,0,0:0:0:0:
206,251,10732,2,0,L|168:265,1,40
33,214,10976,1,0,0:0:0:0:
33,214,11139,2,0,B|38:230|63:98|252:130|252:130|147:75|147:75,1,360,2|0,0:0|0:0,0:0:0:0:
160,82,12933,5,2,0:0:0:0:
318,90,13096,1,0,0:0:0:0:
430,183,13259,1,2,0:0:0:0:
482,32,13422,2,0,L|412:65,1,60
317,91,13748,2,0,B|163:117|114:72|114:72|163:44|213:75,1,300
200,68,15052,2,0,B|210:137|210:137|159:216|159:216|168:309,1,240
374,338,16357,6,0,B|456:404|592:276|499:147|394:162,1,360,2|0,0:0|0:0,0:0:0:0:
410,258,18150,5,2,0:0:0:0:
410,258,18314,1,0,0:0:0:0:
275,217,18477,1,2,0:0:0:0:
275,217,18639,2,0,L|296:142,1,60
291,159,18966,2,0,B|233:127|165:244|165:244|166:162,1,240
205,309,20270,6,0,L|149:341,1,60
72,328,20596,2,0,L|32:208,1,96
104,280,20922,2,0,L|96:160,1,120
144,232,21248,2,0,L|152:80,1,143.999995605469
151,88,21574,1,0,0:0:0:0:
151,88,21656,1,8,0:0:0:0:
440,176,21819,1,0,0:0:0:0:
440,176,21900,2,0,L|320:192,1,95.9999970703126,8|8,0:0|0:0,0:0:0:0:
152,224,22226,1,0,0:0:0:0:
216,312,22389,2,0,L|224:376,1,47.9999985351563,0|8,0:0|0:0,0:0:0:0:
272,200,22634,5,8,0:0:0:0:
272,200,22715,1,8,0:0:0:0:
272,200,22797,1,8,0:0:0:0:
320,96,23041,1,0,0:0:0:0:
312,64,23123,1,0,0:0:0:0:
360,240,23286,2,8,L|368:184,1,47.9999985351563
445,232,23449,2,8,L|440:280,1,47.9999985351563
225,114,23694,1,8,0:0:0:0:
225,114,23775,2,0,L|345:90|345:90,1,95.9999970703126,8|0,0:0|0:0,0:0:0:0:
446,228,24183,6,0,L|440:293,1,47.9999985351563,8|0,0:0|0:0,0:0:0:0:
280,368,24346,1,0,0:0:0:0:
280,368,24427,2,0,L|248:256,1,95.9999970703126,8|0,0:0|0:0,0:0:0:0:
120,136,24672,2,0,L|64:176,1,47.9999985351563,8|0,0:0|0:0,0:0:0:0:
176,208,24835,2,0,L|216:176,1,47.9999985351563,8|0,0:0|0:0,0:0:0:0:
330,218,24998,2,0,L|234:290,1,95.9999970703126,8|8,0:0|0:0,0:0:0:0:
344,32,25324,1,8,0:0:0:0:
253,275,25487,5,8,0:0:0:0:
253,275,25569,1,8,0:0:0:0:
253,275,25650,1,8,0:0:0:0:
384,152,25813,1,8,0:0:0:0:
384,152,25895,2,0,L|400:216,1,47.9999985351563,8|0,0:0|0:0,0:0:0:0:
416,336,26058,2,0,B|424:360|424:360|352:312,1,95.9999970703126,8|0,0:0|0:0,0:0:0:0:
288,296,26302,2,0,B|247:317|247:317|184:312,1,95.9999970703126,8|8,0:0|2:1,0:0:0:0:
86,42,26791,6,0,B|95:101|95:101|76:171,1,120.000004577637,8|0,0:0|0:0,0:0:0:0:
180,232,27036,2,0,B|161:181|161:181|177:117,1,120.000004577637,8|0,0:0|0:0,0:0:0:0:
258,39,27281,2,0,B|272:101|272:101|247:184,1,120.000004577637,8|0,0:0|0:0,0:0:0:0:
496,240,27607,6,0,B|442:228|442:228|378:236,1,120.000004577637,8|8,0:0|0:0,0:0:0:0:
235,298,27851,1,8,0:0:0:0:
247,259,27933,1,8,0:0:0:0:
302,66,28096,6,0,L|349:185,1,120.000004577637,8|0,0:0|0:0,0:0:0:0:
457,115,28340,2,0,L|366:132,1,60.0000022888184,8|0,0:0|0:0,0:0:0:0:
328,248,28585,6,0,L|448:224,1,120.000004577637,8|8,0:0|0:0,0:0:0:0:
389,308,28911,1,8,0:0:0:0:
328,248,28993,2,0,L|288:296,1,60.0000022888184,8|0,0:0|0:0,0:0:0:0:
56,314,29237,5,8,0:0:0:0:
160,192,29400,2,0,L|136:128,1,60.0000022888184,8|0,0:0|0:0,0:0:0:0:
312,24,29563,1,0,0:0:0:0:
312,24,29645,2,0,P|288:88|288:160,1,120.000004577637,8|0,0:0|0:0,0:0:0:0:
400,232,29889,1,8,0:0:0:0:
400,232,30215,6,0,P|343:214|283:217,1,120.000004577637,8|0,0:0|0:0,0:0:0:0:
168,344,30460,1,8,0:0:0:0:
168,344,30541,2,0,L|192:264,1,60.0000022888184
49,133,30704,2,0,B|119:132|170:188,1,120.000004577637,8|0,0:0|0:0,0:0:0:0:
271,149,30949,2,0,B|199:139|148:183,1,120.000004577637,8|0,0:0|0:0,0:0:0:0:
82,287,31194,1,8,0:0:0:0:
312,377,31357,1,8,0:0:0:0:
241,261,31520,1,0,0:0:0:0:
241,261,31601,2,0,B|219:234|219:234|320:256,1,120.000004577637,8|0,0:0|0:0,0:0:0:0:
400,272,31846,1,0,0:0:0:0:
464,40,32009,6,0,L|432:160,1,120.000004577637,12|0,0:0|0:0,0:0:0:0:
344,184,32253,2,0,L|352:48,1,120.000004577637,8|0,0:0|0:0,0:0:0:0:
256,168,32498,2,0,L|264:288,1,68.0000012969971,8|0,0:0|0:0,0:0:0:0:
260,235,32824,5,8,0:0:0:0:
184,352,32987,1,8,0:0:0:0:
184,352,33069,1,8,0:0:0:0:
184,352,33150,1,8,0:0:0:0:
408,344,33313,2,0,L|392:272,1,60.0000022888184,8|0,0:0|0:0,0:0:0:0:
304,218,33558,2,0,B|283:198|283:198|378:187,1,120.000004577637,8|0,0:0|0:0,0:0:0:0:
480,176,33802,2,0,B|464:112|464:112,1,60.0000022888184,8|0,0:0|0:0,0:0:0:0:
373,187,33965,1,8,0:0:0:0:
313,91,34128,1,0,0:0:0:0:
313,91,34210,2,0,L|241:99,1,60.0000022888184,8|0,0:0|0:0,0:0:0:0:
67,55,34454,2,0,L|106:135,1,60.0000022888184,8|0,0:0|0:0,0:0:0:0:
64,272,34618,5,8,0:0:0:0:
187,231,34781,1,0,0:0:0:0:
187,231,34862,2,0,B|221:220|221:220|180:312,1,120.000004577637,8|0,0:0|0:0,0:0:0:0:
64,272,35107,2,0,L|136:248,1,60.0000022888184,8|0,0:0|0:0,0:0:0:0:
120,253,35433,1,8,0:0:0:0:
23,75,35596,1,8,0:0:0:0:
23,75,35677,1,8,0:0:0:0:
23,75,35759,1,8,0:0:0:0:
173,121,35922,6,0,B|248:104|288:176,1,120.000004577637,8|0,0:0|0:0,0:0:0:0:
273,338,36166,2,0,L|288:280,1,60.0000022888184,8|0,0:0|0:0,0:0:0:0:
408,176,36411,2,0,L|488:160,1,60.0000022888184,8|0,0:0|0:0,0:0:0:0:
288,280,36574,2,0,L|228:290,1,60.0000022888184
81,363,36737,1,0,0:0:0:0:
81,363,36819,2,0,L|119:243,1,120.000004577637,8|0,0:0|0:0,0:0:0:0:
150,167,37063,1,8,0:0:0:0:
320,360,37226,5,4,0:0:0:0:
424,216,37389,1,2,0:0:0:0:
424,216,37471,1,0,0:0:0:0:
424,216,37552,1,2,0:0:0:0:
256,280,37715,1,0,0:0:0:0:
440,336,37878,1,2,0:0:0:0:
322,155,38041,2,0,L|321:112,1,40,0|2,0:0|0:0,0:0:0:0:
215,83,38204,2,0,L|175:123,1,40,0|2,0:0|0:0,0:0:0:0:
294,29,38449,1,0,0:0:0:0:
322,195,38612,6,0,L|322:155,1,40,0|2,0:0|0:0,0:0:0:0:
186,111,38775,2,0,L|137:154,1,40,0|2,0:0|0:0,0:0:0:0:
294,29,39020,1,0,0:0:0:0:
195,246,39183,5,2,0:0:0:0:
238,137,39346,1,0,0:0:0:0:
223,123,39427,1,0,0:0:0:0:
205,112,39509,1,2,0:0:0:0:
186,105,39590,1,0,0:0:0:0:
166,101,39672,1,2,0:0:0:0:
112,264,39835,5,0,0:0:0:0:
78,105,39998,2,0,L|93:68,1,40,2|0,0:0|0:0,0:0:0:0:
95,186,40161,1,2,0:0:0:0:
260,283,40324,1,0,0:0:0:0:
57,320,40487,1,2,0:0:0:0:
222,176,40650,1,0,0:0:0:0:
210,192,40732,1,2,0:0:0:0:
199,208,40813,1,0,0:0:0:0:
187,224,40895,1,2,0:0:0:0:
176,240,40976,1,2,0:0:0:0:
266,293,41221,6,0,L|293:335,1,40
350,152,41465,1,2,0:0:0:0:
263,200,41628,1,2,0:0:0:0:
428,112,41791,1,0,0:0:0:0:
311,106,41954,1,0,0:0:0:0:
292,97,42036,1,2,0:0:0:0:
272,93,42118,1,0,0:0:0:0:
252,90,42199,1,2,0:0:0:0:
231,88,42281,2,0,L|172:84,1,40,0|2,0:0|0:0,0:0:0:0:
118,179,42444,5,0,0:0:0:0:
92,44,42607,2,0,L|99:4,2,40,2|0|2,0:0|0:0|0:0,0:0:0:0:
119,182,42933,1,0,0:0:0:0:
209,303,43096,1,2,0:0:0:0:
37,339,43259,2,0,L|50:290,1,40,0|2,0:0|0:0,0:0:0:0:
119,182,43422,2,0,L|107:238,1,40,0|2,0:0|0:0,0:0:0:0:
209,303,43666,5,2,0:0:0:0:
264,168,43829,2,0,L|303:162,1,40,0|2,0:0|0:0,0:0:0:0:
400,285,43993,2,0,L|360:290,1,40,0|2,0:0|0:0,0:0:0:0:
209,303,44237,1,0,0:0:0:0:
213,102,44400,5,0,0:0:0:0:
385,176,44563,1,2,0:0:0:0:
371,190,44645,1,0,0:0:0:0:
357,204,44726,1,2,0:0:0:0:
342,218,44808,1,0,0:0:0:0:
328,232,44889,1,0,0:0:0:0:
218,102,45052,5,0,0:0:0:0:
369,83,45215,2,0,L|394:52,2,40,2|0|2,0:0|0:0|0:0,0:0:0:0:
358,158,45541,1,2,0:0:0:0:
289,40,45704,1,0,0:0:0:0:
260,172,45868,1,0,0:0:0:0:
240,176,45949,1,2,0:0:0:0:
220,180,46031,1,0,0:0:0:0:
200,185,46112,1,2,0:0:0:0:
180,190,46194,1,0,0:0:0:0:
67,102,46438,6,0,L|106:91,1,40,0|2,0:0|0:0,0:0:0:0:
142,200,46683,1,0,0:0:0:0:
129,13,46846,1,2,0:0:0:0:
142,200,47009,1,0,0:0:0:0:
319,129,47172,1,0,0:0:0:0:
269,143,47253,1,0,0:0:0:0:
226,142,47335,5,8,0:0:0:0:
260,25,47498,1,0,0:0:0:0:
407,83,47661,2,0,P|429:146|416:207,1,120.000004577637
420,197,47906,1,0,0:0:0:0:
420,197,47987,1,0,0:0:0:0:
325,259,48150,1,0,0:0:0:0:
217,231,48313,5,0,0:0:0:0:
176,366,48476,1,0,0:0:0:0:
176,366,48558,1,0,0:0:0:0:
176,366,48639,2,0,L|196:303,1,60.0000022888184
244,159,48884,1,0,0:0:0:0:
363,327,49047,5,0,0:0:0:0:
363,327,49128,1,0,0:0:0:0:
386,157,49291,1,0,0:0:0:0:
213,73,49454,1,0,0:0:0:0:
201,257,49618,1,0,0:0:0:0:
164,372,49781,1,0,0:0:0:0:
164,372,49862,1,0,0:0:0:0:
164,372,49944,2,0,L|203:253,1,120.000004577637
82,116,50270,6,0,P|59:193|73:257,1,120.000004577637
63,231,50514,1,0,0:0:0:0:
63,231,50596,1,0,0:0:0:0:
202,257,50759,1,0,0:0:0:0:
63,231,50922,1,0,0:0:0:0:
170,130,51085,1,0,0:0:0:0:
170,130,51166,1,0,0:0:0:0:
170,130,51248,2,0,B|200:72|200:72|172:25,1,120.000004577637
304,95,51656,5,0,0:0:0:0:
304,95,51737,2,0,L|423:74,1,120.000004577637
304,95,52063,1,0,0:0:0:0:
360,217,52226,1,0,0:0:0:0:
452,301,52389,2,0,L|466:349,1,40
448,165,52552,2,0,L|492:211,1,40
304,95,52715,2,0,L|360:89,1,40
460,59,52878,5,0,0:0:0:0:
360,206,53041,1,0,0:0:0:0:
360,206,53123,1,0,0:0:0:0:
360,206,53204,1,0,0:0:0:0:
353,100,53368,1,0,0:0:0:0:
245,250,53531,1,0,0:0:0:0:
88,320,53694,1,0,0:0:0:0:
64,296,53775,1,0,0:0:0:0:
40,264,53857,2,0,P|91:230|111:159,1,120.000004577637
104,112,54101,1,0,0:0:0:0:
254,27,54264,5,0,0:0:0:0:
254,27,54346,1,0,0:0:0:0:
190,137,54509,1,0,0:0:0:0:
27,133,54671,1,0,0:0:0:0:
105,38,54835,1,0,0:0:0:0:
180,181,54998,1,0,0:0:0:0:
191,185,55079,1,0,0:0:0:0:
201,190,55160,2,0,B|263:186|263:186|328:168,1,120.000004577637
401,151,55487,5,0,0:0:0:0:
368,36,55650,2,0,L|299:62,1,60.0000022888184
440,19,55813,1,0,0:0:0:0:
376,224,55976,5,0,0:0:0:0:
424,85,56139,1,0,0:0:0:0:
347,288,56302,1,0,0:0:0:0:
341,288,56384,1,0,0:0:0:0:
335,289,56465,1,0,0:0:0:0:
329,289,56547,1,0,0:0:0:0:
323,290,56628,1,0,0:0:0:0:
417,61,56873,5,0,0:0:0:0:
422,59,56954,1,0,0:0:0:0:
332,197,57118,1,0,0:0:0:0:
186,100,57281,1,0,0:0:0:0:
195,268,57444,1,0,0:0:0:0:
65,350,57607,1,0,0:0:0:0:
60,308,57688,1,0,0:0:0:0:
76,268,57770,1,0,0:0:0:0:
105,238,57851,1,0,0:0:0:0:
111,196,57933,1,0,0:0:0:0:
103,154,58014,1,0,0:0:0:0:
75,120,58096,5,0,0:0:0:0:
228,68,58259,2,0,P|178:55|144:58,1,64
316,214,58585,2,0,P|352:228|394:228,1,64
495,202,58911,1,0,0:0:0:0:
428,114,59074,1,0,0:0:0:0:
315,128,59237,2,0,B|246:132|214:219|214:219|200:189|192:154,1,200
67,201,60215,1,0,0:0:0:0:
37,56,60378,1,0,0:0:0:0:
144,108,60541,2,0,P|255:104|264:183,1,200
36,171,61520,6,0,B|67:178|99:163,1,64
191,169,61846,2,0,P|187:235|214:289,1,128
348,207,62335,1,0,0:0:0:0:
381,293,62498,2,0,P|391:332|387:374,1,64
488,148,62824,1,0,0:0:0:0:
388,99,62987,2,0,P|318:97|272:187,1,160
87,319,63476,5,0,0:0:0:0:
97,134,63639,1,0,0:0:0:0:
208,298,63802,1,0,0:0:0:0:
22,226,63965,1,0,0:0:0:0:
194,195,64128,2,0,B|242:187|271:156,1,64
323,89,64454,6,0,B|323:44|298:6,1,64
347,170,64781,1,0,0:0:0:0:
478,139,64944,1,0,0:0:0:0:
229,93,65107,2,0,L|156:81|156:81,1,64
382,69,65433,2,0,L|307:95|307:95,1,64
82,117,65759,1,0,0:0:0:0:
56,256,65922,6,0,B|120:264|142:337|142:337|160:296|160:296,1,160
289,204,66737,6,0,L|357:177,1,64
174,218,67063,2,0,B|246:239|242:327,1,128
289,204,67552,1,0,0:0:0:0:
431,157,67715,2,0,L|511:129|511:129,1,64
360,184,68041,1,0,0:0:0:0:
456,48,68204,2,0,L|338:91|338:91,1,120
194,137,68531,5,0,0:0:0:0:
163,144,68612,1,0,0:0:0:0:
132,134,68694,1,0,0:0:0:0:
107,114,68775,1,0,0:0:0:0:
88,87,68857,6,0,L|57:51,1,40
258,144,69020,2,0,L|205:120,1,40
456,47,69264,2,0,L|402:69,1,40
258,144,69509,5,0,0:0:0:0:
256,151,69590,1,0,0:0:0:0:
253,158,69672,1,0,0:0:0:0:
296,48,69835,1,0,0:0:0:0:
303,48,69916,1,0,0:0:0:0:
311,48,69998,1,0,0:0:0:0:
318,48,70079,2,0,L|340:88,1,40
406,185,70324,5,0,0:0:0:0:
406,185,70406,2,0,L|433:237,1,40
477,330,70569,1,0,0:0:0:0:
477,330,70650,2,0,L|384:330,1,80
276,285,70895,1,0,0:0:0:0:
304,272,70976,1,0,0:0:0:0:
400,167,71139,6,0,L|353:136,1,40
205,318,71302,2,0,L|259:296,1,40
263,133,71465,2,0,L|220:135,1,40
59,300,71628,2,0,L|108:319,1,40
242,302,71873,5,0,0:0:0:0:
237,282,71954,1,0,0:0:0:0:
228,264,72036,1,0,0:0:0:0:
214,249,72118,1,0,0:0:0:0:
79,180,72281,1,0,0:0:0:0:
85,189,72362,1,0,0:0:0:0:
90,199,72444,2,0,L|96:260,1,40
231,149,72607,2,0,L|227:102,1,40
348,232,72851,1,0,0:0:0:0:
348,232,72933,2,0,L|353:280,1,40
476,146,73096,2,0,L|471:86,1,40
480,292,73259,6,0,L|464:249,1,40
269,107,73422,2,0,L|212:95,1,40
395,171,73585,2,0,L|351:142,1,40
130,100,73748,2,0,L|79:113,1,40
5,193,73911,5,0,0:0:0:0:
7,204,73993,1,0,0:0:0:0:
10,215,74074,2,0,L|25:263,1,40
202,163,74237,2,0,L|183:120,1,40
169,310,74400,2,0,L|214:334,1,40
239,178,74563,2,0,L|185:156,1,40
24,158,74726,2,0,L|68:180,1,40
269,60,74889,2,0,L|318:81,1,40
373,202,75052,5,0,0:0:0:0:
392,196,75134,1,0,0:0:0:0:
411,191,75215,1,0,0:0:0:0:
430,186,75297,1,0,0:0:0:0:
444,29,75460,1,0,0:0:0:0:
444,29,75541,1,0,0:0:0:0:
444,29,75623,1,0,0:0:0:0:
444,29,75704,1,0,0:0:0:0:
444,29,75786,1,0,0:0:0:0:
444,29,75868,6,0,L|419:85,1,40
424,195,76031,2,0,L|463:185,1,40
313,100,76194,2,0,L|289:141,1,40
207,260,76357,2,0,L|261:242,2,40
207,260,76764,5,0,0:0:0:0:
248,104,76927,1,0,0:0:0:0:
64,106,77091,1,0,0:0:0:0:
57,126,77172,6,0,L|44:164,1,40
248,104,77335,2,0,L|211:127,1,40
447,98,77498,2,0,L|388:112,1,40
216,29,77661,2,0,P|314:67|323:144,1,186.666666666667
313,167,78150,6,0,L|293:208,1,31.9999990234375
300,149,78313,6,0,L|248:182,1,37.3333321940105
285,132,78476,6,0,L|218:151,1,42.6666666666667
280,112,78639,6,0,P|346:77|443:110,1,143.999995605469
426,214,78965,6,0,B|441:273|441:273|399:333,1,120.000004577637,8|0,0:3|2:0,0:0:0:0:
60,157,79210,2,0,B|48:98|48:98|80:28,1,120.000004577637,8|0,0:1|0:0,0:0:0:0:
424,88,79454,2,0,B|369:106|369:106|297:80,1,120.000004577637,8|0,0:3|2:0,0:0:0:0:
34,288,79699,2,0,B|93:268|93:268|164:296,1,120.000004577637,8|0,0:1|2:0,0:0:0:0:
194,44,79944,5,0,0:0:0:0:
179,70,80025,1,0,0:0:0:0:
164,96,80107,1,0,0:0:0:0:
151,123,80188,1,0,0:0:0:0:
141,151,80270,2,0,L|267:127,1,120.000004577637,8|0,2:3|2:0,0:0:0:0:
288,125,80514,2,0,L|407:104,1,120.000004577637,8|0,2:1|2:0,2:0:0:0:
464,96,80759,1,0,0:0:0:0:
332,21,80922,1,0,0:0:0:0:
326,196,81085,1,0,0:0:0:0:
392,114,81248,1,8,2:3:0:0:
383,299,81411,1,8,2:3:0:0:
463,254,81574,6,0,P|467:337|436:373,1,120.000004577637,8|0,0:3|0:0,0:0:0:0:
245,195,81819,2,0,P|236:108|269:66,1,120.000004577637,8|0,0:1|0:0,0:0:0:0:
512,98,82063,2,0,P|459:82|391:123,1,120.000004577637,8|0,0:3|0:0,0:0:0:0:
319,356,82308,2,0,P|263:366|182:353,1,120.000004577637,8|0,0:1|0:0,0:0:0:0:
85,301,82552,1,0,0:0:0:0:
85,301,82634,1,0,0:0:0:0:
85,301,82715,1,0,0:0:0:0:
37,178,82878,5,0,0:0:0:0:
96,160,82960,1,0,0:0:0:0:
152,176,83041,1,0,0:0:0:0:
200,216,83123,1,0,0:0:0:0:
216,272,83204,1,0,0:0:0:0:
173,383,83368,5,0,0:0:0:0:
195,327,83449,1,0,0:0:0:0:
216,272,83531,1,0,0:0:0:0:
240,217,83612,1,0,0:0:0:0:
263,159,83694,1,0,0:0:0:0:
374,145,83857,6,0,P|353:161|254:153,1,120.000004577637,4|0,0:0|0:0,0:0:0:0:
4,78,84183,1,0,0:0:0:0:
4,78,84264,2,0,P|45:93|61:123,1,60.0000022888184
86,181,84427,2,0,B|122:227|207:205,1,120.000004577637
257,144,84672,1,0,0:0:0:0:
257,144,84753,2,0,P|247:109|228:80,1,60.0000022888184
169,16,84916,2,0,P|148:74|149:132,1,120.000004577637
149,131,85161,1,0,0:0:0:0:
180,269,85324,1,0,0:0:0:0:
322,318,85487,5,0,0:0:0:0:
322,318,85569,2,0,L|353:402,1,60.0000022888184
421,263,85732,2,0,B|425:213|425:213|401:168|401:168|404:120,1,120.000004577637
294,152,85976,1,0,0:0:0:0:
294,152,86058,2,0,L|222:199,1,60.0000022888184
158,257,86221,2,0,B|114:251|114:251|82:238|82:238|28:234,1,120.000004577637
41,235,86465,1,0,0:0:0:0:
175,148,86628,1,0,0:0:0:0:
60,309,86791,5,0,0:0:0:0:
60,309,86873,2,0,L|-20:301,1,60.0000022888184
203,264,87036,2,0,L|275:280,1,60.0000022888184
92,167,87199,6,0,L|41:93,1,60.0000022888184
208,129,87362,2,0,L|196:69,1,60.0000022888184
334,123,87525,1,0,0:0:0:0:
334,123,87607,2,0,L|352:64,1,60.0000022888184
489,203,87770,2,0,P|430:194|373:212,1,120.000004577637
168,360,88096,5,0,0:0:0:0:
168,360,88177,2,0,P|175:328|173:284,1,60.0000022888184
24,241,88340,2,0,B|100:257|100:257,1,60.0000022888184
81,252,88666,2,0,L|145:222,1,60.0000022888184
256,224,88829,2,0,B|292:220|292:220|329:230|329:230|373:220,1,120.000004577637
472,128,89074,1,0,0:0:0:0:
472,128,89156,1,0,0:0:0:0:
194,56,89319,5,0,0:0:0:0:
194,56,89400,1,0,0:0:0:0:
194,56,89482,2,0,L|255:113,1,60.0000022888184
318,163,89645,2,0,P|364:180|437:134,1,120.000004577637
389,24,89890,1,0,0:0:0:0:
389,24,89971,2,0,L|364:78,1,60.0000022888184
237,96,90134,1,0,0:0:0:0:
237,96,90215,1,0,0:0:0:0:
145,200,90378,1,0,0:0:0:0:
145,200,90460,1,0,0:0:0:0:
145,200,90541,1,0,0:0:0:0:
86,68,90704,5,0,0:0:0:0:
86,68,90786,2,0,L|47:4,1,60.0000022888184
60,247,90949,1,0,0:0:0:0:
60,247,91031,2,0,L|52:175,1,60.0000022888184
211,92,91275,2,0,L|361:98,1,120.000004577637
330,96,91520,1,0,0:0:0:0:
479,42,91683,1,0,0:0:0:0:
285,167,91846,1,0,0:0:0:0:
438,127,92009,5,0,0:0:0:0:
438,127,92090,2,0,L|494:187,1,60.0000022888184
365,258,92253,1,0,0:0:0:0:
365,258,92335,2,0,L|394:331,1,60.0000022888184
122,358,92579,2,0,B|123:264,1,60.0000022888184
244,261,92743,1,0,0:0:0:0:
244,261,92824,2,0,L|233:190,1,60.0000022888184
369,166,92987,2,0,L|338:37,1,120.000004577637
244,261,93313,5,0,0:0:0:0:
244,261,93395,2,0,L|268:189,1,60.0000022888184
414,142,93558,2,0,B|376:111|376:111|376:98|376:98|359:110|359:110|359:97|359:97|319:56,1,120.000004577637
61,183,93884,1,0,0:0:0:0:
61,183,93965,1,0,0:0:0:0:
61,183,94047,2,0,B|95:134|181:125,1,120.000004577637
197,32,94291,1,0,0:0:0:0:
251,57,94373,1,0,0:0:0:0:
275,111,94454,1,0,0:0:0:0:
265,170,94536,1,0,0:0:0:0:
219,209,94618,5,0,0:0:0:0:
219,209,94699,2,0,P|228:253|256:274,1,60.0000022888184
287,366,94863,2,0,P|340:299|344:245,1,120.000004577637
364,138,95107,1,0,0:0:0:0:
364,138,95188,2,0,P|335:157|325:204,1,60.0000022888184
345,267,95351,2,0,B|290:272|250:239|250:239|236:268,1,120.000004577637
117,348,95596,1,0,0:0:0:0:
88,310,95677,1,0,0:0:0:0:
80,259,95759,1,0,0:0:0:0:
185,124,95922,5,0,0:0:0:0:
185,124,96003,2,0,P|220:113|263:121,1,60.0000022888184
30,114,96166,1,0,0:0:0:0:
30,114,96248,2,0,P|67:132|102:138,1,60.0000022888184
341,100,96493,2,0,P|400:94|457:114,1,120.000004577637
456,113,96737,1,0,0:0:0:0:
278,228,96900,1,0,0:0:0:0:
425,175,97063,1,0,0:0:0:0:
245,290,97226,5,0,0:0:0:0:
245,290,97308,2,0,L|233:360,1,60.0000022888184
393,233,97471,1,0,0:0:0:0:
393,233,97552,2,0,L|383:300,1,60.0000022888184
108,227,97797,2,0,P|63:210|44:181,1,60.0000022888184
28,138,97960,1,0,0:0:0:0:
46,77,98041,2,0,P|59:54|92:35,1,60.0000022888184
160,24,98204,2,0,P|224:32|280:72,1,120.000004577637
202,193,98449,1,0,0:0:0:0:
202,193,98531,5,0,0:0:0:0:
202,193,98612,2,0,L|187:130,1,60.0000022888184
313,126,98775,2,0,L|303:201,1,60.0000022888184
202,193,99101,2,0,L|185:126,1,60.0000022888184
305,185,99264,2,0,L|281:321,1,120.000004577637
366,304,99509,2,0,L|508:311,1,120.000004577637
209,293,99835,5,0,0:0:0:0:
209,293,99916,2,0,L|135:291,1,60.0000022888184
60,384,100079,2,0,L|47:260,1,120.000004577637
31,111,100406,2,0,L|111:133,1,60.0000022888184
222,159,100569,1,0,0:0:0:0:
222,159,100650,2,0,L|174:233,1,60.0000022888184
268,95,100813,1,0,0:0:0:0:
268,95,100895,1,0,0:0:0:0:
268,95,100976,1,0,0:0:0:0:
122,56,101139,5,0,0:0:0:0:
122,56,101221,2,0,L|197:77,1,60.0000022888184
110,196,101384,2,0,L|125:331,1,120.000004577637
385,311,101710,1,0,0:0:0:0:
379,270,101791,1,0,0:0:0:0:
375,231,101873,2,0,L|364:161,1,60.0000022888184
475,110,102118,1,0,0:0:0:0:
297,63,102281,1,0,0:0:0:0:
420,35,102444,6,0,L|390:87,1,60.0000022888184
372,173,102607,1,0,0:0:0:0:
327,197,102688,1,0,0:0:0:0:
274,218,102770,2,0,L|194:210,1,60.0000022888184
18,88,103014,2,0,L|104:98,1,60.0000022888184
193,155,103177,1,0,0:0:0:0:
193,155,103258,2,0,L|221:229,1,60.0000022888184
212,333,103421,2,0,L|72:336,1,120.000004577637
24,225,103748,5,0,0:0:0:0:
78,177,103829,2,0,L|104:261,1,60.0000022888184
161,121,103993,1,0,0:0:0:0:
218,79,104074,2,0,L|235:136,1,60.0000022888184
241,293,104237,6,0,L|321:326,1,60.0000022888184
472,268,104400,2,0,L|494:203,2,60.0000022888184
328,40,104726,1,0,0:0:0:0:
277,91,104808,1,0,0:0:0:0:
227,142,104889,1,0,0:0:0:0:
99,232,105052,6,0,P|171:265|237:246,1,120
166,180,105378,2,0,P|158:101|109:53,1,120
86,150,105704,2,0,P|21:195|4:262,1,120
123,243,106031,2,0,P|109:273|111:331,1,71.9999978027344
205,307,106194,2,0,P|219:338|252:375,1,60.0000022888184
233,358,106520,6,0,P|261:332|286:278,1,80
457,136,106846,2,0,P|468:174|469:214,1,80
390,69,107172,1,0,0:0:0:0:
362,186,107335,2,0,B|348:202|356:219|377:216|379:196|362:186|362:186|377:311,1,180.000006866455
451,367,107661,5,0,0:0:0:0:
387,384,107743,1,0,0:0:0:0:
322,377,107824,1,0,0:0:0:0:
107,298,107987,2,0,L|248:289,1,120
204,160,108313,2,0,L|347:173,1,120
408,39,108639,2,0,B|490:188|490:188|419:182,1,240.000009155274
420,182,109291,5,0,0:0:0:0:
372,178,109454,1,0,0:0:0:0:
322,173,109536,1,0,0:0:0:0:
268,167,109618,5,0,0:0:0:0:
262,98,109726,5,0,0:0:0:0:
153,165,109835,5,0,0:0:0:0:
164,234,109944,5,0,0:0:0:0:
38,182,110052,5,0,0:0:0:0:
28,113,110161,5,0,0:0:0:0:
93,136,110270,6,0,P|130:99|206:118,1,120
143,121,110596,2,0,P|180:84|256:103,1,120
193,106,110922,2,0,P|230:69|306:88,1,120
337,150,111248,2,0,P|366:185|410:205,1,71.9999978027344
471,224,111411,2,0,P|491:258|496:286,1,64
148,268,111737,6,0,P|87:307|53:351,1,128
232,131,112063,2,0,P|247:185|294:266,1,128
380,148,112389,2,0,P|428:124|474:44,2,128
270,173,112878,5,0,0:0:0:0:
261,80,113041,1,0,0:0:0:0:
164,54,113204,1,0,0:0:0:0:
101,135,113368,1,0,0:0:0:0:
167,209,113531,2,0,L|121:265,1,64
126,258,113857,6,0,L|210:267,1,64
344,324,114183,2,0,P|320:340|284:347,5,42.6666666666667
385,287,114509,5,0,0:0:0:0:
405,239,114590,1,0,0:0:0:0:
393,179,114672,1,0,0:0:0:0:
361,132,114753,1,0,0:0:0:0:
314,100,114835,5,0,0:0:0:0:
263,147,114944,5,0,0:0:0:0:
248,79,115052,5,0,0:0:0:0:
195,131,115161,5,0,0:0:0:0:
187,147,115215,5,0,0:0:0:0:
179,164,115270,5,0,0:0:0:0:
172,181,115324,5,0,0:0:0:0:
164,197,115378,5,0,0:0:0:0:
112,296,115487,6,0,L|74:385,1,80
22,255,115732,1,0,0:0:0:0:
22,255,115813,1,0,0:0:0:0:
193,253,115976,1,0,0:0:0:0:
193,253,116058,1,0,0:0:0:0:
193,253,116139,2,0,B|265:228|294:293|294:293,1,120
266,315,116465,2,0,B|249:273|194:283|194:283,1,80
199,284,116954,5,0,0:0:0:0:
201,285,117281,1,0,0:0:0:0:
201,285,117607,1,0,0:0:0:0:
348,246,117770,2,0,L|457:220,1,80
296,338,118096,5,0,0:0:0:0:
244,194,118259,1,0,0:0:0:0:
244,194,118340,1,0,0:0:0:0:
244,194,118422,1,0,0:0:0:0:
244,194,118503,1,0,0:0:0:0:
244,194,118585,1,0,0:0:0:0:
99,104,118748,6,0,B|62:237|62:237|35:190,1,180.000006866455
32,176,119074,2,0,L|1:113,3,60.0000022888184
99,104,119400,2,0,L|142:105,4,30.0000011444092
375,116,119726,6,0,B|400:102|424:103,1,40
270,118,119889,2,0,B|272:146|257:165,1,40
324,54,120052,6,0,P|297:38|225:47,1,80.0000030517579
159,142,120270,6,0,P|158:173|204:232,1,80.0000030517579
309,242,120487,6,0,P|336:226|364:157,1,80.0000030517579
271,107,120704,6,0,B|253:188|253:188,1,80
361,186,120949,1,0,0:0:0:0:
361,186,121031,2,0,L|363:297|363:297,1,80
361,72,121357,2,0,B|428:62|467:131,1,120
427,154,121683,2,0,P|396:124|346:118,1,80
361,116,122172,5,0,0:0:0:0:
361,116,122498,1,0,0:0:0:0:
361,116,122824,1,0,0:0:0:0:
199,68,122987,2,0,P|126:54|86:54,1,95.9999970703126
144,184,123313,1,0,0:0:0:0:
289,25,123476,1,0,0:0:0:0:
290,58,123558,1,0,0:0:0:0:
285,91,123639,1,0,0:0:0:0:
269,126,123721,1,0,0:0:0:0:
239,150,123802,1,0,0:0:0:0:
43,243,123965,6,0,P|35:172|59:105,1,143.999995605469
323,358,124291,2,0,P|251:334|171:342,1,143.999995605469
89,351,124618,6,0,L|6:368,2,63.9999980468751
226,363,124944,1,0,0:0:0:0:
222,315,125025,1,0,0:0:0:0:
202,270,125107,1,0,0:0:0:0:
165,239,125188,1,0,0:0:0:0:
121,219,125270,2,0,L|64:209,2,42.6666666666667
202,270,125596,5,0,0:0:0:0:
209,269,125650,5,0,0:0:0:0:
216,268,125704,5,0,0:0:0:0:
223,266,125759,5,0,0:0:0:0:
230,264,125813,5,0,0:0:0:0:
237,262,125868,5,0,0:0:0:0:
244,260,125922,5,0,0:0:0:0:
344,325,135704,5,0,0:0:0:0:
407,250,135868,1,0,0:0:0:0:
344,325,136031,1,0,0:0:0:0:
407,250,136194,1,0,0:0:0:0:
497,209,136357,2,0,B|387:212|365:266|365:266|417:273|412:214,1,200
408,248,136846,2,0,B|408:189|408:189|386:137|386:137|386:91,1,160
307,86,137335,1,0,0:0:0:0:
232,80,137498,1,0,0:0:0:0:
156,70,137661,2,0,P|212:168|110:216,1,240
77,128,138314,5,0,0:0:0:0:
149,145,138476,1,0,0:0:0:0:
218,161,138639,1,0,0:0:0:0:
413,226,138965,2,0,B|444:213|462:233|462:233|390:261|310:252,1,200
319,252,139454,2,0,B|272:244|272:244|216:263|216:263|136:259,1,160
280,328,139943,1,0,0:0:0:0:
196,174,140106,1,0,0:0:0:0:
131,329,140269,2,0,P|190:253|273:360,1,240
209,365,140922,5,0,0:0:0:0:
45,293,141085,1,0,0:0:0:0:
208,368,141248,1,0,0:0:0:0:
45,293,141411,1,0,0:0:0:0:
192,186,141574,5,0,0:0:0:0:
130,236,141683,5,0,0:0:0:0:
202,264,141791,5,0,0:0:0:0:
192,186,141900,5,0,0:0:0:0:
61,102,142063,6,0,P|123:84|175:36,1,120
166,50,142389,2,0,L|168:73,2,20
192,186,142552,1,0,0:0:0:0:
170,63,142715,1,0,0:0:0:0:
299,105,142878,5,0,0:0:0:0:
234,85,142987,5,0,0:0:0:0:
250,152,143096,5,0,0:0:0:0:
299,105,143204,5,0,0:0:0:0:
68,139,143531,5,0,0:0:0:0:
68,139,143694,1,0,0:0:0:0:
299,105,144020,1,0,0:0:0:0:
447,85,144182,5,0,0:0:0:0:
398,31,144291,5,0,0:0:0:0:
371,94,144400,5,0,0:0:0:0:
447,85,144508,5,0,0:0:0:0:
416,206,144672,2,0,B|352:224|328:311,1,120
339,292,144998,2,0,L|364:313,2,23.9999992675781
227,198,145161,1,0,0:0:0:0:
339,291,145324,1,0,0:0:0:0:
193,341,145487,5,0,0:0:0:0:
213,275,145596,5,0,0:0:0:0:
262,320,145704,5,0,0:0:0:0:
193,341,145813,2,0,B|178:325|160:331|161:352|181:356|193:341|193:341|39:336,1,200
64,317,146302,2,0,L|90:260,1,47.9999985351563
140,228,146465,2,0,L|184:208,3,31.9999990234375
244,199,146791,6,0,P|319:186|419:205,1,155.999992858887
402,207,147118,6,0,P|314:198|220:219,1,167.999994873047
236,212,147444,1,0,0:0:0:0:
236,212,147525,1,0,0:0:0:0:
236,212,147607,1,0,0:0:0:0:
292,351,147770,2,0,L|267:280,1,40
202,116,147933,2,0,L|260:96,1,40
433,38,148096,6,0,L|459:109,1,55.9999982910157
512,281,148259,1,0,0:0:0:0:
512,281,148340,1,0,0:0:0:0:
512,281,148422,1,0,0:0:0:0:
511,279,148503,2,0,P|464:271|405:224,1,111.999996582031
274,41,148748,1,0,0:0:0:0:
238,101,148829,1,0,0:0:0:0:
182,139,148911,1,0,0:0:0:0:
114,149,148993,1,0,0:0:0:0:
50,122,149074,1,0,0:0:0:0:
135,22,149400,5,0,0:0:0:0:
135,22,149481,2,0,B|139:60|139:60|130:95,1,60.0000022888184
40,168,149644,2,0,B|32:208|32:208|40:240|40:240|43:302,1,120.000004577637
183,361,149889,1,0,0:0:0:0:
183,361,149970,2,0,B|176:322|176:322|194:284,1,60.0000022888184
296,256,150133,2,0,B|299:220|299:220|287:193|287:193|289:118,1,120.000004577637
173,185,150378,1,0,0:0:0:0:
174,130,150460,1,0,0:0:0:0:
196,81,150541,1,0,0:0:0:0:
239,47,150623,6,0,B|311:39|311:39|367:55,1,120.000004577637
388,149,150868,1,0,0:0:0:0:
397,183,150949,1,0,0:0:0:0:
260,277,151112,1,0,0:0:0:0:
260,277,151194,1,0,0:0:0:0:
260,277,151275,2,0,B|291:217|291:217|283:158|283:158|315:101,1,180.000006866455
207,191,151683,6,0,L|152:144,1,60.0000022888184
384,186,151846,2,0,L|436:256,1,60.0000022888184
312,349,152009,1,0,0:0:0:0:
258,349,152090,2,0,B|194:324|194:324|126:300,1,120.000004577637
255,208,152416,2,0,L|327:192,2,60.0000022888184
20,240,152743,1,0,0:0:0:0:
20,240,152824,2,0,B|85:247|85:247|148:232,1,120.000004577637
98,115,153150,5,0,0:0:0:0:
121,85,153232,1,0,0:0:0:0:
143,58,153313,2,0,B|199:42|199:42|279:58|279:58,1,120.000004577637
306,68,153558,1,0,0:0:0:0:
425,157,153721,2,0,L|497:141,2,60.0000022888184
221,199,154047,2,0,L|367:167|367:167,1,120.000004577637
498,217,154291,5,0,0:0:0:0:
468,262,154373,1,0,0:0:0:0:
432,301,154454,1,0,0:0:0:0:
393,339,154536,1,0,0:0:0:0:
340,323,154618,2,0,L|281:309,1,60.0000022888184
84,257,154862,1,0,0:0:0:0:
223,294,155025,2,0,L|287:310,2,60.0000022888184
136,357,155351,1,0,0:0:0:0:
112,141,155514,2,0,L|128:69,2,60.0000022888184
17,284,155840,6,0,L|161:284,1,120.000004577637
276,283,156085,1,0,0:0:0:0:
316,247,156166,1,0,0:0:0:0:
460,217,156329,1,0,0:0:0:0:
445,164,156411,1,0,0:0:0:0:
410,122,156493,2,0,B|349:85|349:85|297:86|297:86|233:70,1,180.000006866455
346,219,156900,1,0,0:0:0:0:
346,219,156982,1,0,0:0:0:0:
346,219,157063,1,0,0:0:0:0:
346,219,157145,1,0,0:0:0:0:
346,219,157226,6,0,L|421:240,1,60.0000022888184
220,183,157471,1,0,0:0:0:0:
84,143,157634,1,0,0:0:0:0:
84,143,157715,1,0,0:0:0:0:
84,143,157797,2,0,L|77:212,1,60.0000022888184
66,335,157960,1,0,0:0:0:0:
135,343,158041,2,0,L|207:351,1,60.0000022888184
369,366,158204,2,0,L|364:237,1,120.000004577637
360,184,158449,5,0,0:0:0:0:
256,280,158612,1,0,0:0:0:0:
480,248,158775,1,0,0:0:0:0:
352,88,158938,1,0,0:0:0:0:
352,88,159020,1,0,0:0:0:0:
352,88,159101,1,0,0:0:0:0:
256,280,159264,2,0,L|197:240,1,60.0000022888184
0,208,159509,5,0,0:0:0:0:
16,176,159590,1,0,0:0:0:0:
33,144,159672,1,0,0:0:0:0:
51,113,159753,1,0,0:0:0:0:
70,82,159835,2,0,L|150:58,1,60.0000022888184
270,93,160079,1,0,0:0:0:0:
436,140,160243,1,0,0:0:0:0:
436,140,160324,1,0,0:0:0:0:
436,140,160406,1,0,0:0:0:0:
189,67,160569,1,0,0:0:0:0:
347,116,160732,1,0,0:0:0:0:
347,116,160813,1,0,0:0:0:0:
347,116,160895,1,0,0:0:0:0:
232,208,161058,6,0,B|197:260|197:260|192:328|192:328,1,120.000004577637
304,280,161302,1,0,0:0:0:0:
335,270,161384,1,0,0:0:0:0:
54,296,161547,1,0,0:0:0:0:
68,260,161628,1,0,0:0:0:0:
80,224,161710,2,0,B|96:192|96:192|160:224|160:224|264:208,1,180.000006866455
362,266,162118,5,0,0:0:0:0:
354,210,162199,1,0,0:0:0:0:
346,154,162281,1,0,0:0:0:0:
338,98,162362,1,0,0:0:0:0:
330,50,162444,2,0,L|410:74,1,60.0000022888184
210,146,162688,1,0,0:0:0:0:
450,82,162851,2,0,L|514:98,2,60.0000022888184
171,91,163177,1,0,0:0:0:0:
210,146,163259,2,0,L|330:170,1,120.000004577637
429,333,163585,5,0,0:0:0:0:
360,320,163666,2,0,L|208:296,1,120.000004577637
75,337,163911,1,0,0:0:0:0:
90,269,163993,2,0,L|114:141,1,120.000004577637
126,85,164237,5,0,0:0:0:0:
138,22,164319,1,0,0:0:0:0:
256,64,164482,1,0,0:0:0:0:
256,64,164563,2,0,B|228:13|272:-24|312:8|304:56|256:64|176:120|272:208,1,287.999991210938
375,137,165052,5,0,0:0:0:0:
385,130,165134,1,0,0:0:0:0:
221,255,165297,1,0,0:0:0:0:
425,224,165460,1,0,0:0:0:0:
433,232,165541,1,0,0:0:0:0:
441,240,165623,1,0,0:0:0:0:
265,64,165786,1,0,0:0:0:0:
348,247,165949,1,0,0:0:0:0:
349,235,166031,1,0,0:0:0:0:
349,223,166112,1,0,0:0:0:0:
490,86,166275,5,0,0:0:0:0:
304,178,166438,1,0,0:0:0:0:
293,184,166520,1,0,0:0:0:0:
283,190,166601,1,0,0:0:0:0:
486,316,166764,1,0,0:0:0:0:
467,316,166846,1,0,0:0:0:0:
449,317,166927,1,0,0:0:0:0:
372,145,167090,1,0,0:0:0:0:
365,128,167172,1,0,0:0:0:0:
278,314,167335,2,0,L|206:286,1,60.0000022888184
40,59,167498,2,0,L|120:83,1,60.0000022888184
193,108,167661,5,0,0:0:0:0:
220,84,167743,1,0,0:0:0:0:
49,246,167906,1,0,0:0:0:0:
242,165,168069,1,0,0:0:0:0:
274,150,168150,1,0,0:0:0:0:
307,137,168232,1,0,0:0:0:0:
80,30,168395,1,0,0:0:0:0:
96,61,168476,1,0,0:0:0:0:
181,210,168639,1,0,0:0:0:0:
289,30,168802,5,0,0:0:0:0:
319,74,168884,1,0,0:0:0:0:
128,159,169047,1,0,0:0:0:0:
96,336,169210,1,0,0:0:0:0:
122,209,169373,1,0,0:0:0:0:
128,159,169454,1,0,0:0:0:0:
137,105,169536,2,0,L|216:206,1,120.000004577637
249,350,169862,5,0,0:0:0:0:
295,294,169944,1,0,0:0:0:0:
337,236,170025,1,0,0:0:0:0:
383,180,170107,1,0,0:0:0:0:
426,123,170188,1,0,0:0:0:0:
469,65,170270,6,0,L|349:89,1,120.000004577637
192,128,170596,1,0,0:0:0:0:
16,288,170922,2,0,L|152:256,1,120.000004577637
320,224,171248,1,0,0:0:0:0:
464,48,171574,6,0,L|344:80,1,120.000004577637
192,128,171900,1,0,0:0:0:0:
312,232,172063,1,0,0:0:0:0:
120,112,172226,1,0,0:0:0:0:
344,304,172389,1,0,0:0:0:0:
348,78,172552,1,0,0:0:0:0:
120,264,172878,6,0,L|0:288,1,120.000004577637
120,264,173204,1,0,0:0:0:0:
384,264,173531,6,0,L|544:304,1,120.000004577637
384,264,173857,1,0,0:0:0:0:
256,120,174102,1,0,0:0:0:0:
256,192,174183,12,4,174835,0:0:0:0:
302,221,175161,5,0,0:0:0:0:
302,221,175243,1,0,0:0:0:0:
302,221,175324,1,0,0:0:0:0:
144,136,175487,2,0,L|24:168,1,120.000004577637
272,104,175813,1,0,0:0:0:0:
180,250,176139,2,0,L|142:125,1,120.000004577637
232,0,176465,1,0,0:0:0:0:
320,232,176791,1,0,0:0:0:0:
145,135,176954,1,0,0:0:0:0:
384,272,177118,1,0,0:0:0:0:
81,95,177281,1,0,0:0:0:0:
168,184,177444,2,0,P|113:207|29:214,1,120.000004577637
331,137,177770,2,0,P|388:119|448:120,1,120.000004577637
136,304,178096,6,0,P|197:304|253:280,1,120.000004577637
331,137,178422,1,0,0:0:0:0:
144,48,178748,6,0,P|134:104|153:170,1,120.000004577637
242,282,179074,1,0,0:0:0:0:
183,107,179319,1,0,0:0:0:0:
140,221,179482,5,0,0:0:0:0:
209,43,179645,1,0,0:0:0:0:
209,43,179971,1,0,0:0:0:0:
350,171,180134,1,0,0:0:0:0:
225,141,180378,1,0,0:0:0:0:
225,141,180460,1,0,0:0:0:0:
225,141,180541,1,0,0:0:0:0:
296,352,180704,6,0,L|254:224,1,120.000004577637
258,237,181030,1,0,0:0:0:0:
469,199,181357,2,0,L|387:102,1,120.000004577637
328,43,181683,1,0,0:0:0:0:
328,43,181764,1,0,0:0:0:0:
101,68,181927,1,0,0:0:0:0:
101,68,182009,2,0,L|229:51,1,120.000004577637
38,243,182335,1,0,0:0:0:0:
188,327,182498,1,0,0:0:0:0:
188,327,182661,2,0,L|308:263,1,120.000004577637
456,80,182987,2,0,L|337:138,1,120.000004577637
121,69,183313,5,0,0:0:0:0:
77,251,183476,1,0,0:0:0:0:
252,200,183639,1,0,0:0:0:0:
108,358,183802,1,0,0:0:0:0:
140,147,183965,1,0,0:0:0:0:
297,305,184128,1,0,0:0:0:0:
188,247,184291,2,0,L|302:309,1,120.000004577637
395,185,184536,2,0,L|259:192,1,120.000004577637
365,75,184781,2,0,L|501:122,1,120.000004577637
298,93,185107,5,0,0:0:0:0:
124,108,185270,1,0,0:0:0:0:
124,108,185351,1,0,0:0:0:0:
124,108,185433,1,0,0:0:0:0:
43,249,185596,1,0,0:0:0:0:
216,252,185759,5,0,0:0:0:0:
216,252,185840,1,0,0:0:0:0:
216,252,185922,2,0,L|288:252,1,60.0000022888184
445,326,186166,1,0,0:0:0:0:
447,107,186411,1,0,0:0:0:0:
447,107,186493,1,0,0:0:0:0:
389,225,186656,1,0,0:0:0:0:
321,36,186819,1,0,0:0:0:0:
321,36,186900,1,0,0:0:0:0:
321,36,186982,1,0,0:0:0:0:
197,160,187145,2,0,B|182:150|182:150|205:254,1,120.000004577637
107,322,187389,1,0,0:0:0:0:
107,322,187471,1,0,0:0:0:0:
313,142,187715,5,0,0:0:0:0:
313,142,187797,1,0,0:0:0:0:
96,206,187960,1,0,0:0:0:0:
265,333,188123,1,0,0:0:0:0:
265,333,188204,1,0,0:0:0:0:
196,52,188531,5,0,0:0:0:0:
196,52,188612,1,0,0:0:0:0:
334,289,188775,2,0,L|230:217,1,120.000004577637
235,220,189101,1,0,0:0:0:0:
371,102,189264,1,0,0:0:0:0:
371,102,189346,1,0,0:0:0:0:
126,10,189672,5,0,0:0:0:0:
126,10,189753,1,0,0:0:0:0:
276,120,189916,1,0,0:0:0:0:
77,195,190079,1,0,0:0:0:0:
77,195,190161,1,0,0:0:0:0:
323,234,190324,1,0,0:0:0:0:
161,113,190487,1,0,0:0:0:0:
106,315,190650,1,0,0:0:0:0:
292,309,190813,5,0,0:0:0:0:
248,258,190895,1,0,0:0:0:0:
254,192,190976,1,0,0:0:0:0:
309,155,191058,1,0,0:0:0:0:
373,167,191139,1,4,0:0:0:0:
