osu file format v14

[General]
AudioFilename: audio.mp3
AudioLeadIn: 0
PreviewTime: 77609
Countdown: 0
SampleSet: Soft
StackLeniency: 0.3
Mode: 0
LetterboxInBreaks: 0
WidescreenStoryboard: 0

[Editor]
DistanceSpacing: 0.6
BeatDivisor: 8
GridSize: 4
TimelineZoom: 2.000005

[Metadata]
Title:polygon
TitleUnicode:polygon
Artist:Sota Fujimori
ArtistUnicode:Sota Fujimori
Creator:Sebu
Version:trigon
Source:jubeat copious
Tags:REFLEC BEAT CXu -GN -PC
BeatmapID:1032853
BeatmapSetID:422136

[Difficulty]
HPDrainRate:5
CircleSize:3.8
OverallDifficulty:6
ApproachRate:8
SliderMultiplier:1.76
SliderTickRate:1

[Events]
//Background and Video events
0,0,"polygonal_space_by_kanman142-d92loa3.jpg",0,0
//Break Periods
//Storyboard Layer 0 (Background)
//Storyboard Layer 1 (Fail)
//Storyboard Layer 2 (Pass)
//Storyboard Layer 3 (Foreground)
//Storyboard Sound Samples

[TimingPoints]
368,344.827586206897,4,2,1,40,1,0
368,-133.333333333333,4,2,1,40,0,0
3126,-100,4,2,1,60,0,0
25195,-133.333333333333,4,2,1,60,0,0
25885,-100,4,2,1,60,0,0
26919,-133.333333333333,4,2,1,60,0,0
27264,-100,4,2,1,60,0,0
27609,-133.333333333333,4,2,1,60,0,0
27954,-133.333333333333,4,2,1,60,0,0
28643,-100,4,2,1,60,0,0
30109,-133.333333333333,4,2,1,60,0,0
30712,-100,4,2,1,60,0,0
32178,-133.333333333333,4,2,1,60,0,0
32781,-100,4,2,1,60,0,0
36230,-133.333333333333,4,2,1,60,0,0
36919,-100,4,2,1,60,0,0
38988,-133.333333333333,4,2,1,60,0,0
42436,-100,4,2,1,60,0,0
44505,-133.333333333333,4,2,1,60,0,0
69333,-133.333333333333,4,2,1,40,0,0
74850,-133.333333333333,4,2,1,60,0,0
77609,-133.333333333333,4,2,1,80,0,0
80368,-100,4,2,1,70,0,1
102436,-133.333333333333,4,2,1,60,0,0

[Colours]
Combo1 : 141,40,223
Combo2 : 215,19,68
Combo3 : 180,95,216
Combo4 : 81,47,217

[HitObjects]
196,246,368,5,0,1:0:0:0:
196,246,540,1,2,1:2:0:0:
93,105,885,1,0,1:0:0:0:
258,158,1230,1,0,1:0:0:0:
196,71,1574,1,0,1:0:0:0:
196,71,1747,5,0,1:0:0:0:
93,212,2092,1,8,0:2:0:0:
162,350,2436,1,8,0:0:0:0:
171,272,2609,1,2,0:0:0:0:
171,272,2695,1,2,0:0:0:0:
171,272,2781,2,0,L|262:275,1,66.0000025177003,2|0,0:0|0:0,0:0:0:0:
316,336,3126,6,0,P|340:276|304:200,2,132,4|2|2,3:2|1:2|1:2,0:0:0:0:
412,356,3902,1,2,1:2:0:0:
468,272,4161,2,0,P|428:256|400:200,1,88,8|2,3:1|1:2,0:0:0:0:
488,104,4505,6,0,L|476:196,1,88,2|0,3:2|0:0,0:0:0:0:
408,144,4764,2,0,B|388:44|388:44|436:52,1,132,2|2,1:2|1:2,0:0:0:0:
488,104,5195,1,0,3:0:0:0:
488,104,5281,1,2,0:0:0:0:
488,104,5368,2,0,L|496:28,2,44,0|2|8,0:0|0:0|3:1,0:0:0:0:
388,44,5885,6,0,B|348:64|348:64|260:48,2,132,2|2|2,3:2|1:2|1:2,0:0:0:0:
408,144,6661,1,2,1:2:0:0:
372,228,6919,2,0,P|332:200|320:144,1,88,8|2,3:1|1:2,0:0:0:0:
201,184,7264,6,0,B|221:164|221:164|280:163,1,88,2|0,3:2|0:0,0:0:0:0:
264,242,7523,2,0,B|240:266|240:266|128:266,1,132,2|2,1:2|1:2,0:0:0:0:
324,320,8126,1,2,1:2:0:0:
248,356,8299,1,8,3:1:0:0:
248,356,8385,1,0,1:0:0:0:
248,356,8471,1,2,3:2:0:0:
130,359,8643,6,0,B|166:259|166:259|122:271,2,132,4|2|2,3:2|1:2|1:2,0:0:0:0:
52,292,9419,1,2,1:2:0:0:
160,216,9678,2,0,B|116:228|116:228|72:212,1,88,8|2,3:1|1:2,0:0:0:0:
36,100,10023,6,0,L|124:132,1,88,2|0,3:2|0:0,0:0:0:0:
202,143,10281,2,0,P|240:190|226:264,1,132,2|2,1:2|1:2,0:0:0:0:
177,341,10712,2,0,P|159:327|147:310,3,44,0|2|0|2,3:0|0:0|0:0|0:0,0:0:0:0:
135,286,11057,1,8,3:1:0:0:
52,124,11402,6,0,B|48:168|48:168|64:208|64:208|56:264,2,132,2|2|2,3:2|1:2|1:2,0:0:0:0:
108,32,12178,1,2,1:2:0:0:
132,152,12436,2,0,B|148:192|148:192|143:245,1,88,8|2,3:1|3:2,0:0:0:0:
156,312,12781,5,4,3:2:0:0:
224,160,13040,1,4,3:2:0:0:
132,236,13299,2,0,B|192:212|200:260|260:232,1,132,4|0,3:2|0:0,0:0:0:0:
296,212,13643,2,0,B|299:234|299:234|295:258,4,44,2|2|2|0|0,1:2|1:2|3:2|3:2|3:2,0:0:0:0:
380,236,14161,6,0,B|368:296|368:296|336:336,1,88,4|0,3:2|0:0,0:0:0:0:
468,236,14505,2,0,L|380:236,1,88,10|2,3:1|0:0,0:0:0:0:
357,159,14850,1,2,3:1:0:0:
436,159,15023,1,2,1:2:0:0:
476,91,15195,1,10,3:1:0:0:
397,91,15368,1,2,1:2:0:0:
436,22,15540,6,0,B|412:2|412:2|352:2,1,88,2|2,3:1|1:2,0:0:0:0:
297,70,15885,2,0,B|321:90|321:90|378:90,1,88,10|2,3:1|1:0,0:0:0:0:
450,168,16230,2,0,L|494:188,2,44,0|0|2,3:0|0:0|0:0,0:0:0:0:
424,270,16574,2,0,L|452:309,2,44,8|0|2,3:1|0:0|0:0,0:0:0:0:
319,280,16919,6,0,L|370:356,1,88,0|0,3:0|0:0,0:0:0:0:
235,281,17264,2,0,B|277:293|277:293|335:276,1,88,10|2,3:1|0:0,0:0:0:0:
286,373,17609,1,2,3:1:0:0:
209,355,17781,1,2,1:2:0:0:
133,331,17954,1,10,3:1:0:0:
159,256,18126,1,2,1:2:0:0:
81,272,18299,6,0,L|21:180,1,88,2|2,3:1|1:2,0:0:0:0:
59,121,18643,2,0,B|89:140|89:140|118:185,1,88,10|2,3:1|1:0,0:0:0:0:
221,203,18988,2,0,L|259:224,2,44,2|0|2,3:2|0:0|0:2,0:0:0:0:
220,103,19333,2,0,L|264:123,2,44,8|0|2,3:1|0:0|3:2,0:0:0:0:
122,55,19678,6,0,B|110:87|110:87|118:195,1,132,0|0,3:0|0:0,0:0:0:0:
117,184,20023,2,0,L|42:247,1,88,10|2,3:1|0:0,0:0:0:0:
28,326,20368,1,2,3:1:0:0:
100,375,20540,1,2,1:0:0:0:
182,346,20712,2,0,L|223:257,1,88,8|2,3:1|1:2,0:0:0:0:
219,177,21057,5,2,3:1:0:0:
308,176,21230,1,2,1:0:0:0:
309,265,21402,2,0,L|346:344,1,88,8|2,3:1|1:2,0:0:0:0:
451,339,21747,2,0,L|483:379,2,44,0|0|2,3:0|0:0|0:0,0:0:0:0:
468,234,22092,2,0,L|518:242,2,44,8|0|2,3:1|0:0|0:0,0:0:0:0:
384,219,22436,6,0,B|397:177|397:177|367:64,1,132,0|0,3:0|0:0,0:0:0:0:
374,91,22781,2,0,L|286:114,1,88,12|0,0:2|0:0,0:0:0:0:
218,158,23126,2,0,B|205:113|205:113|225:43,2,88,0|0|12,3:0|0:0|0:0,0:0:0:0:
289,193,23643,1,0,3:0:0:0:
288,113,23816,5,12,0:0:0:0:
216,73,23988,1,0,3:0:0:0:
301,99,24161,1,12,0:0:0:0:
229,59,24333,1,0,3:0:0:0:
157,19,24505,2,0,B|129:50|129:50|80:54,2,88,4|0|4,3:2|3:0|3:2,0:0:0:0:
263,80,25195,5,4,3:2:0:0:
251,100,25281,2,0,L|197:159,1,66.0000025177003,0|2,0:0|0:0,0:0:0:0:
179,176,25540,2,0,L|95:186,1,66.0000025177003,0|2,3:0|0:0,0:0:0:0:
63,272,25885,2,0,B|163:260|163:260|195:308,1,132,0|0,3:0|0:0,0:0:0:0:
180,312,26230,2,0,L|284:299,1,88,0|2,3:0|0:0,0:0:0:0:
364,373,26574,5,0,3:0:0:0:
376,352,26660,2,0,B|394:318|394:318|390:269,1,88,0|0,0:0|0:0,0:0:0:0:
389,248,26919,2,0,L|380:164,1,66.0000025177003,0|2,3:0|0:0,0:0:0:0:
476,128,27264,2,0,B|383:88|383:88|379:30,1,132,0|2,3:0|0:0,0:0:0:0:
388,32,27609,2,0,B|320:16,1,66.0000025177003,0|2,3:0|0:0,0:0:0:0:
136,88,27954,6,0,B|204:72,1,66.0000025177003,0|0,3:0|0:0,0:0:0:0:
352,160,28299,2,0,B|284:144,1,66.0000025177003,0|2,3:0|0:0,0:0:0:0:
108,200,28643,2,0,B|176:184|176:184|168:232,1,88,0|2,3:0|0:0,0:0:0:0:
324,272,28988,2,0,B|256:256|256:256|264:304,1,88,0|2,3:0|0:0,0:0:0:0:
31,355,29333,6,0,P|88:356|142:306,2,132.000005035401,0|0|2,3:0|0:0|0:0,0:0:0:0:
64,276,30023,1,2,3:2:0:0:
60,264,30109,2,0,L|76:176,1,66.0000025177003,0|2,0:0|0:0,0:0:0:0:
80,164,30368,2,0,L|64:76,1,66.0000025177003,0|2,3:0|3:2,0:0:0:0:
16,16,30712,6,0,P|69:52|133:41,1,132.000005035401,0|2,3:0|0:0,0:0:0:0:
144,32,31057,2,0,L|159:118,1,88,0|2,3:0|0:0,0:0:0:0:
152,208,31402,1,0,3:0:0:0:
172,208,31488,2,0,P|224:180|244:112,1,132,0|0,0:0|3:0,0:0:0:0:
252,24,31919,1,2,0:0:0:0:
332,76,32092,5,0,3:0:0:0:
336,88,32178,2,0,L|320:176,1,66.0000025177003,0|0,0:0|0:0,0:0:0:0:
316,188,32437,1,0,3:0:0:0:
313,199,32523,2,0,L|329:287,1,66.0000025177003,0|2,0:0|0:0,0:0:0:0:
320,296,32781,2,0,P|388:292|436:352,1,132,0|0,3:0|0:0,0:0:0:0:
440,352,33126,2,0,L|455:265,1,88,0|2,3:0|0:0,0:0:0:0:
352,380,33471,6,0,B|305:380|305:380|265:368|265:368|221:368,1,132,0|2,3:0|0:0,0:0:0:0:
208,380,33816,2,0,P|224:332|212:292,1,88,0|2,3:0|0:0,0:0:0:0:
100,324,34161,2,0,L|148:336,2,44,0|0|2,3:0|0:0|0:0,0:0:0:0:
132,220,34505,1,0,3:0:0:0:
120,224,34592,1,0,0:0:0:0:
108,228,34678,1,2,3:2:0:0:
96,232,34764,1,0,3:0:0:0:
84,236,34850,5,4,3:2:0:0:
53,148,35109,1,4,3:2:0:0:
20,61,35368,1,4,3:2:0:0:
194,190,36230,6,0,L|270:202,1,66.0000025177003,4|2,3:2|0:0,0:0:0:0:
290,186,36488,1,0,0:0:0:0:
322,170,36574,2,0,L|398:182,1,66.0000025177003,8|2,3:1|1:2,0:0:0:0:
431,262,36919,2,0,P|473:214|471:142,1,132,0|2,3:0|1:2,0:0:0:0:
467,133,37264,1,0,0:0:0:0:
387,180,37436,1,2,1:2:0:0:
307,137,37609,5,0,0:0:0:0:
314,122,37695,2,0,P|369:88|438:103,2,132,2|8|2,1:2|3:1|1:2,0:0:0:0:
464,224,38816,1,2,1:2:0:0:
464,224,38988,6,0,L|452:304,1,66.0000025177003,0|2,3:0|0:0,0:0:0:0:
464,312,39247,1,0,0:0:0:0:
476,336,39333,2,0,L|412:380,1,66.0000025177003,8|2,3:1|1:2,0:0:0:0:
312,348,39678,2,0,L|376:308,1,66.0000025177003,0|2,3:0|1:2,0:0:0:0:
284,364,40023,1,8,3:1:0:0:
284,364,40195,1,2,0:0:0:0:
180,352,40368,5,0,3:0:0:0:
192,344,40454,2,0,P|220:324|240:276,1,66.0000025177003,0|0,0:0|0:0,0:0:0:0:
243,269,40712,2,0,P|230:223|198:196,1,66.0000025177003,8|2,3:1|1:2,0:0:0:0:
160,268,41057,2,0,L|112:244,2,33.0000012588501,0|0|2,3:0|1:0|3:2,0:0:0:0:
112,344,41402,1,8,3:1:0:0:
24,328,41574,1,2,1:2:0:0:
24,208,41747,6,0,L|104:240,1,66.0000025177003,0|2,3:0|0:0,0:0:0:0:
116,228,42005,1,0,0:0:0:0:
148,220,42092,2,0,L|228:252,1,66.0000025177003,8|2,3:1|1:2,0:0:0:0:
232,340,42436,2,0,P|220:300|244:244,1,88,0|2,3:0|1:2,0:0:0:0:
377,298,42781,1,8,3:1:0:0:
376,382,42954,1,2,1:2:0:0:
323,241,43126,5,2,3:2:0:0:
330,226,43212,2,0,P|394:214|458:270,2,132,2|8|2,1:2|3:1|1:2,0:0:0:0:
164,352,44333,1,0,1:0:0:0:
92,284,44505,6,0,L|128:208,1,66.0000025177003,0|2,3:0|0:0,0:0:0:0:
108,192,44764,1,0,0:0:0:0:
96,160,44850,2,0,L|132:84,1,66.0000025177003,8|2,3:1|1:2,0:0:0:0:
228,48,45195,1,0,3:0:0:0:
228,48,45368,1,2,1:2:0:0:
216,164,45540,1,8,3:1:0:0:
216,164,45713,1,0,1:0:0:0:
104,96,45885,6,0,B|40:84|40:84|-4:108,2,99.0000037765504,2|2|2,3:1|0:1|0:1,0:0:0:0:
19,188,46747,2,0,L|48:172,2,33.0000012588501,0|0|12,3:0|0:0|3:2,0:0:0:0:
136,196,47264,6,0,B|118:231|118:231|56:268,1,99.0000037765504,4|0,3:2|0:0,0:0:0:0:
52,260,47609,2,0,P|92:296|100:360,1,99.0000037765504,8|0,3:1|0:0,0:0:0:0:
121,331,47954,2,0,P|156:324|197:329,2,66.0000025177003,0|0|8,3:0|1:2|3:1,0:0:0:0:
252,276,48643,6,0,P|268:327|243:386,1,99.0000037765504,0|0,3:0|1:0,0:0:0:0:
275,374,48988,2,0,P|311:374|351:362,2,66.0000025177003,8|0|0,3:1|1:0|3:0,0:0:0:0:
382,296,49505,2,0,P|406:320|421:361,2,66.0000025177003,2|8|2,1:0|3:1|1:0,0:0:0:0:
289,294,50023,6,0,P|303:246|352:208,1,99.0000037765504,0|0,3:0|1:0,0:0:0:0:
356,212,50368,2,0,B|417:211|417:211|450:195,1,99.0000037765504,8|0,3:1|0:0,0:0:0:0:
464,186,50712,2,0,L|458:120,2,66.0000025177003,0|2|8,3:0|1:2|3:1,0:0:0:0:
404,40,51402,6,0,B|377:94|377:94|379:138,1,99.0000037765504,0|0,3:0|1:0,0:0:0:0:
381,149,51747,2,0,B|383:184|383:184|358:230,2,66.0000025177003,8|0|2,3:1|1:0|3:2,0:0:0:0:
337,175,52178,1,2,0:0:0:0:
309,174,52264,2,0,B|273:174|273:174|248:158,2,66.0000025177003,2|8|2,1:0|3:1|3:1,0:0:0:0:
298,86,52781,6,0,B|268:65|268:65|203:65,1,99.0000037765504,0|0,3:0|0:0,0:0:0:0:
180,66,53126,2,0,L|180:154,1,66.0000025177003,8|2,3:1|0:0,0:0:0:0:
88,66,53471,2,0,L|88:154,2,66.0000025177003,0|0|8,3:0|1:0|3:1,0:0:0:0:
43,210,54161,6,0,L|167:210,1,99.0000037765504,0|0,3:0|1:0,0:0:0:0:
164,210,54505,2,0,B|197:210|197:210|229:195,2,66.0000025177003,8|0|0,3:1|1:0|3:0,0:0:0:0:
165,246,54936,1,2,0:0:0:0:
163,282,55023,2,0,B|130:282|130:282|98:297,2,66.0000025177003,2|8|2,1:0|3:1|1:0,0:0:0:0:
162,364,55540,6,0,B|203:364|203:364|251:332,1,99.0000037765504,0|0,3:0|1:0,0:0:0:0:
252,311,55885,2,0,L|252:239,2,66.0000025177003,8|0|0,3:1|1:0|3:0,0:0:0:0:
359,187,56574,1,8,3:1:0:0:
446,158,56747,1,2,3:2:0:0:
446,158,56833,1,2,3:2:0:0:
446,158,56919,5,4,3:2:0:0:
304,112,57178,5,0,0:0:0:0:
446,66,57436,5,4,3:2:0:0:
359,37,57609,1,4,3:2:0:0:
304,112,57781,2,0,L|279:123,4,16.5000006294251,0|0|0|0|0,1:0|0:0|1:0|0:0|1:0,0:0:0:0:
164,32,58299,6,0,L|188:80,3,33.0000012588501,0|0|2|0,3:0|1:0|0:2|1:0,0:0:0:0:
128,164,58816,1,2,0:2:0:0:
128,164,58902,1,0,1:0:0:0:
128,164,58988,2,0,B|120:116|120:116|92:64,1,99.0000037765504,0|2,3:0|0:0,0:0:0:0:
96,71,59333,1,8,3:1:0:0:
48,144,59505,1,2,1:2:0:0:
48,144,59592,1,2,1:2:0:0:
44,164,59678,6,0,L|56:196,4,33.0000012588501,0|0|0|0|8,3:0|1:0|0:0|0:0|3:1,0:0:0:0:
136,184,60195,1,2,1:2:0:0:
136,184,60281,1,0,1:0:0:0:
136,204,60368,2,0,L|124:236,4,33.0000012588501,0|0|0|0|8,3:0|1:0|0:0|0:0|3:1,0:0:0:0:
100,354,61057,6,0,P|79:304|40:266,1,99.0000037765504,0|0,3:0|0:2,0:0:0:0:
64,264,61402,2,0,B|124:236|124:236|140:192,1,99.0000037765504,8|2,3:1|0:0,0:0:0:0:
139,190,61747,2,0,P|180:163|245:173,1,99.0000037765504,0|2,3:0|0:0,0:0:0:0:
234,178,62092,2,0,B|245:213|245:213|225:271,1,99.0000037765504,8|2,3:1|0:0,0:0:0:0:
221,284,62436,6,0,P|183:298|140:355,1,99.0000037765504,0|0,3:0|0:0,0:0:0:0:
139,355,62781,2,0,B|167:375|167:375|231:375,1,99.0000037765504,8|2,3:1|0:0,0:0:0:0:
264,374,63126,2,0,L|274:343,3,33.0000012588501,0|8|0|0,3:0|0:2|1:0|0:0,0:0:0:0:
335,291,63471,2,0,L|325:260,3,33.0000012588501,8|0|0|0,3:1|3:0|3:0|0:0,0:0:0:0:
408,368,63816,6,0,L|398:337,3,33.0000012588501,0|0|2|0,3:0|1:0|0:0|1:0,0:0:0:0:
448,272,64333,1,2,0:0:0:0:
448,272,64419,1,0,1:0:0:0:
448,272,64505,2,0,B|468:208|468:208|456:168,1,99.0000037765504,0|0,3:0|0:0,0:0:0:0:
458,177,64850,1,8,3:1:0:0:
364,148,65023,1,2,1:2:0:0:
364,148,65109,1,2,1:2:0:0:
376,168,65195,6,0,L|388:212,4,33.0000012588501,0|0|0|0|8,3:0|1:0|0:0|0:0|3:1,0:0:0:0:
428,104,65712,1,2,1:2:0:0:
428,104,65798,1,0,1:0:0:0:
439,83,65885,2,0,L|471:50,4,33.0000012588501,0|0|0|0|8,3:0|1:0|0:0|0:0|3:1,0:0:0:0:
352,72,66574,5,4,3:2:0:0:
272,136,66833,5,4,3:2:0:0:
248,36,67092,5,8,0:1:0:0:
248,36,67264,1,4,3:2:0:0:
352,72,67523,5,4,3:2:0:0:
272,136,67781,5,8,3:1:0:0:
192,200,67954,5,0,3:0:0:0:
188,192,68040,1,2,0:0:0:0:
184,184,68126,1,0,1:0:0:0:
180,176,68212,1,0,3:0:0:0:
176,168,68299,1,2,0:0:0:0:
172,160,68385,1,0,1:0:0:0:
168,152,68471,2,0,L|182:125,4,16.5000006294251,0|0|0|0|0,3:0|0:0|0:0|0:0|3:0,0:0:0:0:
96,103,68816,1,0,3:0:0:0:
96,103,68988,2,0,B|80:143|80:143|80:223,1,99.0000037765504,4|0,3:2|0:0,0:0:0:0:
72,207,69333,6,0,L|144:263,2,66.0000025177003,4|0|0,0:2|0:0|0:0,0:0:0:0:
23,282,69850,1,0,0:0:0:0:
23,282,70023,2,0,L|87:338,1,66.0000025177003,0|0,0:0|0:0,0:0:0:0:
160,336,70368,2,0,L|236:320,1,66.0000025177003,2|2,0:0|0:0,0:0:0:0:
224,248,70712,2,0,L|288:261,1,66.0000025177003,0|2,0:0|0:0,0:0:0:0:
320,348,71057,2,0,L|396:332,1,66.0000025177003,2|2,0:0|0:0,0:0:0:0:
384,260,71401,2,0,L|448:273,1,66.0000025177003,0|2,0:0|0:0,0:0:0:0:
472,360,71747,1,2,0:0:0:0:
384,336,71919,1,0,0:0:0:0:
384,336,72092,6,0,L|320:323,2,66.0000025177003,2|0|0,0:2|0:0|0:0,0:0:0:0:
454,296,72609,1,0,0:0:0:0:
454,296,72781,2,0,L|474:371,1,66.0000025177003,0|0,0:0|0:0,0:0:0:0:
382,255,73126,2,0,L|400:192,1,66.0000025177003,2|2,0:0|0:0,0:0:0:0:
476,152,73471,2,0,L|496:227,1,66.0000025177003,2|2,0:0|0:0,0:0:0:0:
404,111,73816,2,0,L|421:47,1,66.0000025177003,2|2,0:0|0:0,0:0:0:0:
493,88,74161,2,0,L|476:152,1,66.0000025177003,0|0,0:0|0:0,0:0:0:0:
400,192,74505,1,2,0:0:0:0:
324,152,74678,1,2,0:0:0:0:
324,152,74850,6,0,L|324:224,2,66.0000025177003,2|0|2,0:0|0:0|0:0,0:0:0:0:
388,96,75368,1,2,0:0:0:0:
388,96,75540,2,0,L|324:77,1,66.0000025177003,10|0,0:0|0:0,0:0:0:0:
308,4,75885,2,0,L|244:22,1,66.0000025177003,2|10,0:0|0:0,0:0:0:0:
231,110,76230,6,0,L|167:128,1,66.0000025177003,2|2,0:0|0:0,0:0:0:0:
248,184,76575,2,0,L|311:202,1,66.0000025177003,0|2,0:0|0:0,0:0:0:0:
240,268,76919,2,0,L|176:286,1,66.0000025177003,8|0,0:2|0:0,0:0:0:0:
257,342,77264,2,0,L|320:360,1,66.0000025177003,2|8,0:0|0:2,0:0:0:0:
400,324,77609,1,0,1:2:0:0:
256,192,77954,12,8,80023,0:0:0:0:
380,192,80368,6,0,B|412:220|412:220|408:316,2,132,4|0|0,3:1|1:0|0:0,0:0:0:0:
356,368,81057,2,0,B|324:340|324:340|328:244,2,132,0|2|10,3:0|0:0|1:2,0:0:0:0:
269,351,81747,6,0,L|363:369,1,88,0|2,3:0|0:0,0:0:0:0:
196,280,82092,2,0,L|282:263,1,88,8|0,3:1|1:0,0:0:0:0:
170,376,82436,2,0,L|84:360,1,88,2|0,3:2|1:0,0:0:0:0:
11,289,82781,2,0,L|97:272,1,88,8|10,3:1|1:2,0:0:0:0:
96,171,83126,6,0,B|117:271|117:271|139:290,2,132,0|0|0,3:0|1:0|1:0,0:0:0:0:
202,223,83816,2,0,B|182:123|182:123|159:104,2,132,0|2|10,3:0|0:0|1:2,0:0:0:0:
102,200,84505,6,0,P|134:228|177:235,1,88,0|2,3:0|0:0,0:0:0:0:
221,311,84850,2,0,P|253:282|264:240,1,88,8|0,3:1|1:0,0:0:0:0:
304,160,85195,2,0,P|262:146|220:158,1,88,2|0,3:2|1:0,0:0:0:0:
125,159,85540,2,0,P|136:117|168:88,1,88,8|10,3:1|1:2,0:0:0:0:
272,64,85885,6,0,B|180:56|180:56|124:20,2,132,0|0|0,3:0|1:0|1:0,0:0:0:0:
364,80,86574,2,0,B|348:124|348:124|316:148|316:148|298:189,2,132,0|2|10,3:0|0:0|1:2,0:0:0:0:
436,132,87264,6,0,B|424:172|424:172|376:212,1,88,0|2,3:0|0:0,0:0:0:0:
456,256,87609,2,0,B|420:285|420:285|408:325,1,88,8|0,3:1|1:0,0:0:0:0:
304,348,87954,2,0,L|336:248,1,88,2|0,3:2|1:0,0:0:0:0:
256,192,88299,2,0,L|229:275,1,88,8|10,3:1|1:2,0:0:0:0:
208,368,88643,6,0,P|150:330|134:262,2,132,0|0|0,3:0|1:0|1:0,0:0:0:0:
355,265,89333,2,0,B|259:257|259:257|219:281,2,132,0|2|10,3:0|0:0|1:2,0:0:0:0:
500,204,90023,6,0,B|448:220|448:220|436:252,1,88,0|2,3:0|0:0,0:0:0:0:
316,140,90368,2,0,B|368:156|368:156|380:188,1,88,8|0,3:1|1:0,0:0:0:0:
444,132,90712,2,0,L|488:56,1,88,2|0,3:2|1:0,0:0:0:0:
368,24,91057,1,2,3:2:0:0:
344,144,91402,5,4,3:2:0:0:
338,162,91488,1,10,0:0:0:0:
332,180,91574,1,0,0:0:0:0:
248,104,91747,1,8,3:1:0:0:
254,86,91833,1,2,0:0:0:0:
260,68,91919,1,0,1:0:0:0:
221,214,92092,2,0,L|208:256,2,44,0|0|0,3:0|1:0|0:0,0:0:0:0:
304,292,92436,2,0,L|290:333,2,44,8|2|10,3:1|0:0|1:2,0:0:0:0:
360,376,92781,6,0,B|388:288|388:288|368:228,2,132,0|2|0,3:0|1:2|1:0,0:0:0:0:
476,276,93471,2,0,L|448:364,1,88,2|0,3:2|1:0,0:0:0:0:
449,192,93816,2,0,L|477:280,1,88,8|10,3:1|1:2,0:0:0:0:
412,64,94161,5,0,3:0:0:0:
406,46,94247,1,10,0:0:0:0:
400,28,94333,1,0,0:0:0:0:
316,104,94506,1,8,3:1:0:0:
322,122,94592,1,2,0:0:0:0:
328,140,94678,1,0,1:0:0:0:
216,96,94850,2,0,L|203:54,2,44,0|0|0,3:0|1:0|0:0,0:0:0:0:
256,216,95195,2,0,L|269:258,2,44,8|2|10,3:1|0:0|1:2,0:0:0:0:
140,188,95540,6,0,B|84:168|84:168|56:88,2,132,0|2|0,3:0|1:2|1:0,0:0:0:0:
256,215,96230,2,0,L|228:299,1,88,2|0,3:2|1:0,0:0:0:0:
88,348,96574,2,0,L|116:264,1,88,8|10,3:1|1:2,0:0:0:0:
144,108,96919,5,0,3:0:0:0:
150,90,97005,1,10,0:0:0:0:
156,72,97091,1,0,0:0:0:0:
264,40,97264,1,8,3:1:0:0:
258,58,97350,1,2,0:0:0:0:
252,76,97436,1,0,1:0:0:0:
349,194,97609,2,0,L|336:152,2,44,0|0|0,3:0|1:0|0:0,0:0:0:0:
412,100,97954,2,0,L|399:58,2,44,8|2|10,3:1|0:0|1:2,0:0:0:0:
468,204,98299,6,0,B|456:252|456:252|388:320,2,132,0|2|0,3:0|1:2|1:0,0:0:0:0:
412,100,98988,2,0,B|380:112|380:112|320:104,1,88,2|0,3:2|1:0,0:0:0:0:
264,204,99333,2,0,B|296:192|296:192|349:199,1,88,8|10,3:1|1:2,0:0:0:0:
410,347,99678,5,0,3:0:0:0:
404,329,99764,1,10,0:0:0:0:
398,311,99850,1,0,0:0:0:0:
290,279,100023,1,8,3:1:0:0:
296,297,100109,1,2,0:0:0:0:
302,315,100195,1,0,1:0:0:0:
220,384,100368,2,0,L|207:342,2,44,0|0|0,3:0|1:0|0:0,0:0:0:0:
176,252,100712,2,0,L|163:210,2,44,8|2|10,3:1|0:0|1:2,0:0:0:0:
56,256,101057,6,0,B|92:272|92:272|132:384,2,132,0|8|2,3:0|1:2|3:2,0:0:0:0:
33,80,101747,1,0,3:0:0:0:
92,146,101919,1,4,3:2:0:0:
120,62,102092,1,2,3:2:0:0:
120,62,102178,1,2,3:2:0:0:
120,62,102264,1,2,3:2:0:0:
208,32,102436,6,0,B|109:32|109:32|121:64,1,132.000005035401,4|8,3:2|3:1,0:0:0:0:
33,80,102954,1,0,0:0:0:0:
33,80,103126,2,0,P|66:135|128:150,1,132.000005035401,0|8,3:0|3:1,0:0:0:0:
252,61,103643,1,2,0:0:0:0:
252,61,103816,6,0,L|108:63,1,132.000005035401,0|8,3:0|3:1,0:0:0:0:
209,152,104333,1,2,0:0:0:0:
209,152,104505,2,0,L|349:152,1,132.000005035401,0|8,3:0|3:1,0:0:0:0:
456,212,105023,1,0,0:0:0:0:
456,212,105195,6,0,B|456:300|456:300|424:340,1,132.000005035401,0|8,3:0|3:1,0:0:0:0:
340,240,105712,1,2,0:0:0:0:
340,240,105885,2,0,B|340:152|340:152|372:112,1,132.000005035401,0|8,3:0|3:1,0:0:0:0:
320,24,106402,1,0,0:0:0:0:
320,24,106574,6,0,B|256:104|256:104|244:64,1,132.000005035401,0|8,3:0|3:1,0:0:0:0:
152,48,107092,1,2,0:0:0:0:
152,48,107264,2,0,B|176:140|176:140|200:172,1,132.000005035401,0|8,3:0|3:1,0:0:0:0:
180,284,107781,1,0,0:0:0:0:
180,284,107954,6,0,B|116:204|116:204|104:244,1,132.000005035401,0|8,3:0|3:1,0:0:0:0:
198,169,108471,1,2,0:0:0:0:
198,169,108643,2,0,L|282:281,1,132.000005035401,0|8,3:0|3:1,0:0:0:0:
360,228,109161,1,0,0:0:0:0:
360,228,109333,6,0,B|392:292|348:304|376:376,1,132.000005035401,0|8,3:0|3:1,0:0:0:0:
456,328,109850,1,2,0:0:0:0:
456,328,110023,2,0,B|480:292|480:292|472:188,1,132.000005035401,0|8,3:0|3:1,0:0:0:0:
377,103,110540,1,0,0:0:0:0:
377,103,110712,6,0,B|353:139|353:139|361:243,1,132.000005035401,0|8,3:0|3:1,0:0:0:0:
374,358,111230,1,2,0:0:0:0:
374,358,111402,2,0,L|358:214,1,132.000005035401,0|8,3:0|3:1,0:0:0:0:
268,339,111919,1,2,3:2:0:0:
264,349,112005,1,2,3:2:0:0:
260,359,112092,5,4,3:2:0:0:
124,256,112350,1,8,3:1:0:0:
156,353,112609,1,0,3:0:0:0:
199,287,112781,2,0,B|223:247|223:247,1,33.0000012588501,0|0,0:0|0:0,0:0:0:0:
238,225,112954,2,0,B|250:205,4,16.5000006294251,0|0|0|0|8,1:0|1:0|1:0|1:0|3:1,0:0:0:0:
297,122,113385,5,2,1:0:0:0:
