osu file format v14

[General]
AudioFilename: audio.mp3
AudioLeadIn: 0
PreviewTime: 77609
Countdown: 0
SampleSet: Soft
StackLeniency: 0.3
Mode: 0
LetterboxInBreaks: 0
WidescreenStoryboard: 0

[Editor]
DistanceSpacing: 2
BeatDivisor: 8
GridSize: 4
TimelineZoom: 2.600005

[Metadata]
Title:polygon
TitleUnicode:polygon
Artist:Sota Fujimori
ArtistUnicode:Sota Fujimori
Creator:Sebu
Version:tetragon
Source:jubeat copious
Tags:REFLEC BEAT CXu -GN -PC
BeatmapID:1009793
BeatmapSetID:422136

[Difficulty]
HPDrainRate:6
CircleSize:4
OverallDifficulty:7
ApproachRate:9
SliderMultiplier:1.76
SliderTickRate:1

[Events]
//Background and Video events
0,0,"polygonal_space_by_kanman142-d92loa3.jpg",0,0
//Break Periods
//Storyboard Layer 0 (Background)
//Storyboard Layer 1 (Fail)
//Storyboard Layer 2 (Pass)
//Storyboard Layer 3 (Foreground)
//Storyboard Sound Samples

[TimingPoints]
368,344.827586206897,4,2,1,40,1,0
3126,-100,4,2,1,60,0,0
15885,-80,4,2,1,60,0,0
16919,-100,4,2,1,60,0,0
18643,-80,4,2,1,60,0,0
19678,-100,4,2,1,60,0,0
21402,-80,4,2,1,60,0,0
22436,-100,4,2,1,60,0,0
69333,-100,4,2,1,40,0,0
74850,-100,4,2,1,60,0,0
77609,-100,4,2,1,70,0,0
78988,-100,4,2,1,80,0,0
79678,-100,4,2,1,50,0,0
80368,-100,4,2,1,70,0,1
91402,-80,4,2,1,70,0,1
96574,-66.6666666666667,4,2,1,70,0,1
102436,-80,4,2,1,60,0,0

[Colours]
Combo1 : 141,40,223
Combo2 : 215,19,68
Combo3 : 180,95,216
Combo4 : 81,47,217

[HitObjects]
470,327,368,5,0,1:0:0:0:
477,314,454,1,0,1:0:0:0:
484,302,540,2,0,B|444:290|420:258|420:258|394:285|360:286,1,132,2|2,1:2|0:0,0:0:0:0:
367,336,885,2,0,B|377:267|377:267|350:207,1,132,0|0,1:0|0:0,0:0:0:0:
303,277,1230,5,0,1:0:0:0:
445,142,1402,1,10,1:2:0:0:
419,258,1574,1,0,1:0:0:0:
340,82,1747,1,0,1:0:0:0:
252,162,1919,6,0,L|192:174,1,44,2|2,0:0|0:0,0:0:0:0:
127,209,2092,1,8,0:2:0:0:
127,209,2178,2,0,L|42:189,1,88,0|0,0:0|0:0,0:0:0:0:
36,232,2436,1,8,0:0:0:0:
49,274,2523,1,2,0:0:0:0:
85,298,2609,1,2,0:0:0:0:
128,299,2695,1,2,0:0:0:0:
166,278,2781,5,2,0:0:0:0:
304,336,3126,6,0,L|272:240,1,88,4|0,3:2|0:0,0:0:0:0:
208,208,3385,2,0,P|240:240|232:312,1,88,2|0,1:2|0:0,0:0:0:0:
166,278,3643,2,0,L|72:292,1,88,2|0,1:2|3:0,0:0:0:0:
109,208,3902,2,0,P|103:166|72:136,1,88,2|0,1:2|0:0,0:0:0:0:
38,199,4161,2,0,L|138:151,1,88,8|2,3:1|1:2,0:0:0:0:
214,34,4505,6,0,L|114:82,1,88,2|0,3:2|0:0,0:0:0:0:
201,136,4764,1,2,1:2:0:0:
201,136,4850,2,0,L|240:156,1,44,8|0,3:1|0:0,0:0:0:0:
292,99,5023,2,0,L|348:155,1,44,2|0,1:2|0:0,0:0:0:0:
307,222,5195,5,0,3:0:0:0:
302,265,5281,1,2,0:0:0:0:
279,302,5367,1,0,0:0:0:0:
243,327,5453,1,2,0:0:0:0:
199,338,5540,1,8,3:1:0:0:
428,340,5885,6,0,L|412:248,1,88,2|0,3:2|0:0,0:0:0:0:
452,172,6143,2,0,P|432:212|372:228,1,88,2|0,1:2|0:0,0:0:0:0:
304,232,6402,2,0,P|312:188|356:152,1,88,2|0,1:2|3:0,0:0:0:0:
380,156,6661,2,0,L|364:64,1,88,2|0,1:2|1:0,0:0:0:0:
430,73,6919,2,0,L|388:64,1,44,8|0,3:1|0:0,0:0:0:0:
334,14,7092,2,0,L|292:24,1,44,2|0,1:2|0:0,0:0:0:0:
196,64,7264,6,0,L|248:76,1,44,2|0,3:2|0:0,0:0:0:0:
100,24,7436,1,0,0:0:0:0:
100,24,7523,2,0,L|152:12,1,44,2|8,1:2|3:1,0:0:0:0:
140,204,7781,2,0,L|100:116,1,88,2|0,1:2|3:0,0:0:0:0:
96,296,8126,1,2,1:2:0:0:
252,220,8299,1,8,3:1:0:0:
265,249,8385,1,0,1:0:0:0:
278,279,8471,1,2,3:2:0:0:
392,340,8643,6,0,L|392:236,1,88,4|0,3:2|0:0,0:0:0:0:
400,176,8902,2,0,P|420:220|464:240,1,88,2|0,1:2|0:0,0:0:0:0:
480,160,9161,2,0,L|480:56,1,88,2|0,1:2|3:0,0:0:0:0:
492,44,9419,2,0,B|461:58|461:58|394:51,1,88,2|0,1:2|0:0,0:0:0:0:
364,48,9678,2,0,L|376:104,1,44,8|0,3:1|0:0,0:0:0:0:
264,124,9850,2,0,L|252:180,1,44,2|0,1:2|0:0,0:0:0:0:
364,200,10023,6,0,L|376:256,1,44,2|0,3:2|0:0,0:0:0:0:
228,276,10195,1,0,0:0:0:0:
228,276,10281,2,0,L|213:332,1,44,2|8,1:2|3:1,0:0:0:0:
92,348,10540,2,0,L|116:254,1,88,2|0,1:2|3:0,0:0:0:0:
88,240,10799,1,2,0:0:0:0:
95,211,10885,1,0,0:0:0:0:
102,183,10971,1,2,0:0:0:0:
76,156,11057,2,0,L|100:62,1,88,8|0,3:1|0:0,0:0:0:0:
232,24,11402,6,0,L|210:109,1,88,2|0,3:2|0:0,0:0:0:0:
277,155,11661,1,2,1:2:0:0:
277,155,11747,2,0,L|299:70,1,88,8|2,3:1|1:2,0:0:0:0:
308,43,12005,1,0,0:0:0:0:
343,60,12091,1,0,3:0:0:0:
380,73,12178,1,2,1:2:0:0:
417,84,12264,1,0,0:0:0:0:
453,98,12350,1,2,1:2:0:0:
489,112,12436,5,8,3:1:0:0:
396,196,12609,1,2,3:2:0:0:
421,318,12781,5,4,3:2:0:0:
403,322,13040,1,4,3:2:0:0:
385,326,13299,1,4,3:2:0:0:
248,336,13643,2,0,L|232:288,1,44,2|2,1:2|1:2,0:0:0:0:
144,308,13816,2,0,L|128:260,3,44,2|0|0|0,3:2|3:2|3:2|0:0,0:0:0:0:
212,224,14161,6,0,P|160:176|92:184,1,132,4|0,3:2|0:0,0:0:0:0:
130,266,14505,2,0,L|184:132,1,132,10|0,3:1|0:0,0:0:0:0:
188,120,14850,1,2,3:1:0:0:
248,24,15023,1,2,1:2:0:0:
316,120,15195,1,10,3:1:0:0:
248,24,15368,1,2,1:2:0:0:
316,120,15540,6,0,B|355:135|355:135|423:132,1,88,2|2,3:1|1:2,0:0:0:0:
301,216,15885,1,10,3:1:0:0:
474,211,16057,1,2,1:0:0:0:
367,335,16230,1,0,3:0:0:0:
379,309,16316,1,0,0:0:0:0:
390,284,16402,1,2,0:0:0:0:
267,285,16574,1,8,3:1:0:0:
255,310,16660,1,0,0:0:0:0:
244,335,16746,1,2,0:0:0:0:
128,328,16919,6,0,B|165:245|165:245|168:196,1,132,0|0,3:0|0:0,0:0:0:0:
188,176,17264,2,0,B|156:168|124:176|124:180|124:184|88:196|52:184,1,132,10|0,3:1|0:0,0:0:0:0:
76,156,17609,1,2,3:1:0:0:
144,56,17781,1,2,1:2:0:0:
208,156,17954,1,10,3:1:0:0:
137,45,18126,1,2,1:2:0:0:
215,169,18299,6,0,P|236:205|260:244,1,88,2|2,3:1|1:2,0:0:0:0:
453,207,18643,1,10,3:1:0:0:
273,266,18816,1,2,1:0:0:0:
380,211,18988,1,2,3:2:0:0:
363,233,19074,1,0,0:0:0:0:
345,254,19160,1,2,0:2:0:0:
343,118,19333,1,8,3:1:0:0:
367,356,19505,1,2,3:2:0:0:
240,336,19678,6,0,B|181:316|173:348|109:332,1,132,0|0,3:0|0:0,0:0:0:0:
92,348,20023,2,0,B|112:300|112:300|124:212,1,132,10|0,3:1|0:0,0:0:0:0:
76,132,20368,2,0,L|64:72,2,44,2|0|2,3:1|0:0|1:0,0:0:0:0:
160,24,20712,1,8,3:1:0:0:
192,156,20885,1,2,1:2:0:0:
268,52,21057,6,0,L|276:95,2,44,2|0|2,3:1|0:0|1:0,0:0:0:0:
364,28,21402,2,0,B|372:76|372:76|404:132,1,110,8|2,3:1|1:2,0:0:0:0:
372,248,21747,1,0,3:0:0:0:
352,212,21833,1,0,0:0:0:0:
333,176,21919,1,2,0:0:0:0:
280,268,22092,1,8,3:1:0:0:
299,303,22178,1,0,0:0:0:0:
318,339,22264,1,2,0:0:0:0:
208,324,22436,6,0,B|176:288|176:288|72:288,1,132,0|0,3:0|0:0,0:0:0:0:
76,300,22781,2,0,L|124:172,1,132,12|0,0:2|0:0,0:0:0:0:
108,88,23126,2,0,B|64:104|64:104|8:100,2,88,0|0|12,3:0|0:0|0:0,0:0:0:0:
226,30,23643,1,0,3:0:0:0:
217,161,23816,6,0,B|261:145|261:145|317:149,2,88,12|0|12,0:0|3:0|0:0,0:0:0:0:
99,218,24333,2,0,L|140:232,1,44,0|0,3:0|0:0,0:0:0:0:
270,217,24505,2,0,L|228:231,1,44,4|0,3:2|0:0,0:0:0:0:
55,221,24678,2,0,L|103:237,1,44,0|0,3:0|0:0,0:0:0:0:
314,220,24850,1,4,3:2:0:0:
404,324,25195,5,4,3:2:0:0:
419,341,25281,2,0,B|415:301|415:301|435:241,1,88,0|2,0:0|0:0,0:0:0:0:
419,233,25540,1,0,3:0:0:0:
472,128,25712,1,2,0:0:0:0:
344,84,25885,1,0,3:0:0:0:
352,104,25971,1,0,0:0:0:0:
360,124,26057,1,2,0:0:0:0:
472,128,26230,5,0,3:0:0:0:
416,40,26402,1,2,0:0:0:0:
392,48,26488,1,0,0:0:0:0:
364,56,26574,5,0,3:0:0:0:
340,64,26661,1,0,0:0:0:0:
200,40,26833,1,0,0:0:0:0:
228,56,26919,2,0,B|248:120|248:120|236:148,1,88,0|2,3:0|0:0,0:0:0:0:
152,252,27264,2,0,B|132:188|132:188|144:160,1,88,0|2,3:0|0:0,0:0:0:0:
152,140,27523,1,2,0:0:0:0:
176,140,27609,1,0,3:0:0:0:
200,140,27695,1,0,0:0:0:0:
224,140,27781,1,2,0:0:0:0:
292,248,27954,5,0,3:0:0:0:
300,276,28040,1,0,0:0:0:0:
309,304,28126,1,0,0:0:0:0:
317,332,28212,1,2,0:0:0:0:
300,344,28299,1,0,3:0:0:0:
224,304,28471,1,2,0:0:0:0:
112,344,28643,2,0,B|140:212,1,132,0|0,3:0|0:0,0:0:0:0:
160,192,28988,2,0,P|106:220|67:172,1,132,0|0,3:0|0:0,0:0:0:0:
41,139,29333,6,0,L|84:128,1,44,0|2,3:0|0:0,0:0:0:0:
117,44,29505,1,2,0:0:0:0:
117,44,29592,2,0,L|160:56,1,44,0|2,0:0|3:2,0:0:0:0:
292,104,29764,1,0,0:0:0:0:
292,104,29850,2,0,L|206:126,1,88,2|2,0:0|3:2,0:0:0:0:
220,148,30109,1,0,0:0:0:0:
238,170,30195,1,2,0:0:0:0:
256,193,30281,1,2,0:0:0:0:
274,216,30368,2,0,L|214:232,1,44,0|0,3:0|0:0,0:0:0:0:
352,312,30540,2,0,L|292:296,1,44,2|0,3:2|0:0,0:0:0:0:
452,204,30712,5,0,3:0:0:0:
452,204,30799,2,0,L|366:226,1,88,0|2,0:0|0:0,0:0:0:0:
372,200,31057,1,0,3:0:0:0:
440,92,31230,1,2,0:0:0:0:
308,88,31402,1,0,3:0:0:0:
332,72,31488,1,0,0:0:0:0:
360,56,31574,1,2,0:0:0:0:
439,164,31747,1,0,3:0:0:0:
312,160,31920,1,2,0:0:0:0:
284,176,32005,1,0,0:0:0:0:
260,192,32091,5,0,3:0:0:0:
236,208,32178,1,0,0:0:0:0:
228,332,32350,1,0,0:0:0:0:
252,316,32436,2,0,B|276:296|276:296|160:296,1,132,0|2,3:0|0:0,0:0:0:0:
112,352,32781,2,0,B|88:372|88:372|204:372,1,132,0|0,3:0|0:0,0:0:0:0:
183,340,33126,1,0,3:0:0:0:
175,296,33212,1,0,0:0:0:0:
168,253,33298,1,2,0:0:0:0:
161,209,33384,1,0,0:0:0:0:
153,165,33471,6,0,B|196:152|196:152|238:158,1,88,0|0,3:0|0:0,0:0:0:0:
260,176,33730,1,2,0:0:0:0:
284,196,33816,2,0,B|327:203|327:203|370:190,1,88,0|2,3:0|0:0,0:0:0:0:
416,132,34161,2,0,L|431:263,1,132,0|0,3:0|0:0,0:0:0:0:
360,292,34505,2,0,L|402:280,1,44,0|0,3:0|0:0,0:0:0:0:
260,336,34678,1,2,3:2:0:0:
288,350,34764,1,0,3:0:0:0:
316,364,34850,5,4,3:2:0:0:
144,332,35109,5,4,3:2:0:0:
80,212,35368,5,4,3:2:0:0:
176,224,35540,2,0,L|169:203,6,22,0|0|0|0|2|0|0,0:0|0:0|0:0|0:0|1:2|0:0|1:0,0:0:0:0:
196,212,35885,2,0,L|284:212,1,88,2|0,3:2|3:0,0:0:0:0:
368,360,36230,6,0,L|394:276,1,88,4|2,3:2|0:0,0:0:0:0:
420,252,36488,1,0,0:0:0:0:
444,228,36574,2,0,L|417:144,1,88,8|2,3:1|1:2,0:0:0:0:
334,52,36919,1,0,3:0:0:0:
296,144,37092,2,0,L|324:188,1,44,2|2,1:2|1:2,0:0:0:0:
228,68,37264,1,0,0:0:0:0:
252,244,37436,1,2,1:2:0:0:
188,160,37609,6,0,L|160:204,1,44,0|2,0:0|1:2,0:0:0:0:
80,288,37782,1,0,0:0:0:0:
72,296,37868,1,0,0:0:0:0:
64,304,37954,2,0,L|83:173,1,132,8|2,3:1|1:2,0:0:0:0:
92,140,38299,1,0,3:0:0:0:
80,116,38385,1,0,0:0:0:0:
68,96,38471,1,2,1:2:0:0:
68,96,38557,1,0,1:0:0:0:
68,96,38643,2,0,L|216:96,1,132,8|0,3:1|0:0,0:0:0:0:
228,72,38988,6,0,L|328:72,1,88,0|2,3:0|0:0,0:0:0:0:
344,112,39247,2,0,P|364:75|344:38,1,88,0|0,0:0|0:0,0:0:0:0:
344,38,39505,1,2,1:2:0:0:
424,184,39678,1,0,3:0:0:0:
448,80,39850,1,2,1:2:0:0:
348,216,40023,1,8,3:1:0:0:
348,216,40195,2,0,L|334:174,1,44,2|2,0:0|0:0,0:0:0:0:
276,280,40368,5,0,3:0:0:0:
276,280,40454,2,0,L|289:321,1,44,0|2,0:0|1:2,0:0:0:0:
180,260,40626,1,0,0:0:0:0:
180,260,40712,2,0,L|193:301,1,44,8|0,3:1|0:0,0:0:0:0:
84,240,40885,1,2,1:2:0:0:
84,240,41230,6,0,L|97:281,1,44,2|0,3:2|0:0,0:0:0:0:
12,176,41402,2,0,L|25:135,1,44,8|0,3:1|0:0,0:0:0:0:
51,50,41574,1,2,1:2:0:0:
156,32,41747,6,0,L|132:124,1,88,0|2,3:0|0:0,0:0:0:0:
156,144,42005,1,0,0:0:0:0:
176,168,42092,2,0,L|148:264,1,88,8|2,3:1|1:2,0:0:0:0:
240,328,42436,1,0,3:0:0:0:
400,256,42609,2,0,L|357:246,1,44,2|0,1:2|0:0,0:0:0:0:
280,224,42781,1,8,3:1:0:0:
368,136,42954,1,2,1:2:0:0:
248,104,43126,6,0,L|290:113,1,44,2|2,3:2|1:2,0:0:0:0:
400,44,43299,1,0,0:0:0:0:
412,36,43385,1,0,0:0:0:0:
424,28,43471,2,0,L|379:162,1,132,8|2,3:1|1:2,0:0:0:0:
396,172,43816,1,0,3:0:0:0:
408,192,43902,1,0,0:0:0:0:
420,212,43988,1,2,1:2:0:0:
432,232,44074,1,0,1:0:0:0:
444,252,44161,2,0,B|340:216|340:216|352:256,1,132,8|0,3:1|0:0,0:0:0:0:
352,256,44505,6,0,L|384:344,1,88,0|2,3:0|0:0,0:0:0:0:
348,332,44764,1,0,0:0:0:0:
316,324,44850,2,0,L|216:300,1,88,8|2,3:1|1:2,0:0:0:0:
164,344,45195,1,0,3:0:0:0:
80,296,45368,1,2,1:2:0:0:
164,232,45540,2,0,L|164:280,1,44,8|0,3:1|0:0,0:0:0:0:
80,184,45712,2,0,L|80:232,1,44,0|2,1:0|1:2,0:0:0:0:
164,220,45885,6,0,B|172:176|172:176|164:132,1,88,2|0,3:1|0:0,0:0:0:0:
248,80,46143,2,0,B|240:122|240:122|248:166,1,88,2|0,0:1|0:0,0:0:0:0:
320,212,46402,2,0,B|328:168|328:168|320:125,1,88,2|0,0:1|3:0,0:0:0:0:
380,60,46747,1,0,3:0:0:0:
388,84,46833,1,0,0:0:0:0:
396,108,46919,1,12,3:2:0:0:
432,181,47264,6,0,L|456:52,1,132,4|0,3:2|0:0,0:0:0:0:
460,36,47609,2,0,B|416:88|416:88|344:116,1,132,8|0,3:1|0:0,0:0:0:0:
304,72,47954,2,0,L|328:112,1,44,0|0,3:0|0:0,0:0:0:0:
276,72,48126,2,0,L|300:112,1,44,0|2,1:2|0:0,0:0:0:0:
188,72,48299,2,0,B|218:128|218:128|219:196,1,132,8|0,3:1|0:0,0:0:0:0:
136,288,48643,6,0,L|136:156,1,132,0|0,3:0|1:0,0:0:0:0:
112,120,48988,2,0,L|112:252,1,132,8|2,3:1|0:0,0:0:0:0:
163,288,49333,2,0,L|139:250,1,44,0|2,3:0|0:0,0:0:0:0:
191,288,49505,2,0,L|167:250,1,44,2|0,1:0|0:0,0:0:0:0:
319,302,49678,2,0,L|295:339,1,44,8|2,3:1|0:0,0:0:0:0:
347,302,49850,2,0,L|323:339,1,44,2|2,1:0|0:0,0:0:0:0:
400,368,50023,6,0,B|432:312|432:312|432:236,1,132,0|0,3:0|1:0,0:0:0:0:
432,220,50368,2,0,B|388:208|388:208|348:220|348:220|348:268,1,132,8|0,3:1|0:0,0:0:0:0:
347,302,50712,2,0,L|324:264,1,44,0|0,3:0|0:0,0:0:0:0:
319,302,50884,2,0,L|296:264,1,44,2|0,1:2|0:0,0:0:0:0:
268,368,51057,2,0,L|196:240,1,132,8|0,3:1|0:0,0:0:0:0:
161,251,51402,6,0,B|213:345|213:345|192:356,1,132,0|0,3:0|1:0,0:0:0:0:
111,330,51747,2,0,B|59:236|59:236|81:226,1,132,8|2,3:1|0:0,0:0:0:0:
165,209,52092,2,0,B|169:229|169:229|161:253,1,44,2|2,3:2|0:0,0:0:0:0:
204,196,52264,2,0,B|208:216|208:216|200:240,1,44,2|0,1:0|0:0,0:0:0:0:
115,146,52436,2,0,B|108:124|108:124|112:104,1,44,8|0,3:1|0:0,0:0:0:0:
76,133,52608,2,0,B|69:111|69:111|73:91,1,44,2|0,3:1|3:0,0:0:0:0:
29,21,52781,6,0,B|91:38|91:38|111:102,1,132,0|0,3:0|0:0,0:0:0:0:
156,120,53126,2,0,B|156:160|156:160|180:200|180:200|180:248,1,132,8|0,3:1|1:0,0:0:0:0:
256,180,53471,2,0,L|233:142,1,44,0|0,3:0|0:0,0:0:0:0:
288,180,53643,2,0,L|265:142,1,44,0|2,1:0|0:0,0:0:0:0:
304,64,53816,2,0,L|372:180,1,132,8|0,3:1|0:0,0:0:0:0:
400,200,54161,6,0,B|340:220|340:180|270:203,1,132,0|0,3:0|1:0,0:0:0:0:
264,216,54505,2,0,B|272:156|272:156|236:88,1,132,8|2,3:1|0:0,0:0:0:0:
332,112,54850,2,0,L|309:73,1,44,0|2,3:0|0:0,0:0:0:0:
368,108,55023,2,0,L|345:69,1,44,2|0,1:0|0:0,0:0:0:0:
300,220,55195,2,0,L|272:268,1,44,8|2,3:1|0:0,0:0:0:0:
264,216,55368,2,0,L|236:264,1,44,2|0,1:0|0:0,0:0:0:0:
130,285,55540,6,0,L|202:165,1,132,0|0,3:0|1:0,0:0:0:0:
264,216,55885,2,0,L|241:254,1,44,8|0,3:1|0:0,0:0:0:0:
300,220,56058,2,0,L|277:258,1,44,0|2,1:0|0:0,0:0:0:0:
390,225,56230,2,0,L|322:337,1,132,0|2,3:0|0:1,0:0:0:0:
254,295,56574,2,0,L|277:257,1,44,8|0,3:1|0:0,0:0:0:0:
218,291,56747,2,0,L|241:253,1,44,2|2,3:2|3:2,0:0:0:0:
129,285,56919,6,0,P|147:347|202:379,2,132,4|4|4,3:2|3:2|3:2,0:0:0:0:
205,167,57609,1,0,0:0:0:0:
233,263,57781,2,0,L|221:223,1,22,0|0,1:0|0:0,0:0:0:0:
242,268,57868,2,0,L|281:277,1,22,0|0,1:0|0:0,0:0:0:0:
233,274,57954,2,0,L|205:304,1,22,0|0,1:0|0:0,0:0:0:0:
113,357,58299,5,0,3:0:0:0:
121,321,58385,1,0,1:0:0:0:
129,285,58471,1,2,0:2:0:0:
137,249,58557,1,0,1:0:0:0:
145,213,58643,1,8,3:1:0:0:
220,78,58816,5,2,0:2:0:0:
228,114,58902,1,0,1:0:0:0:
236,150,58988,2,0,B|244:202|244:202|220:314,1,132,0|2,3:0|0:0,0:0:0:0:
224,296,59333,1,8,3:1:0:0:
301,352,59505,1,2,1:2:0:0:
309,328,59592,1,2,1:2:0:0:
317,304,59678,6,0,B|321:280|321:280|333:256,3,44,0|0|0|0,3:0|1:0|0:0|0:0,0:0:0:0:
426,256,60023,2,0,B|422:280|422:280|410:304,3,44,8|2|2|0,3:1|0:0|1:2|1:0,0:0:0:0:
434,220,60368,1,0,3:0:0:0:
442,184,60454,1,0,1:0:0:0:
450,148,60540,2,0,L|462:96,1,44,0|0,0:0|0:0,0:0:0:0:
392,24,60712,2,0,L|382:66,1,44,8|2,3:1|1:2,0:0:0:0:
310,172,61057,6,0,P|305:123|273:68,1,88,0|2,3:0|0:0,0:0:0:0:
218,147,61316,1,0,0:2:0:0:
218,147,61402,2,0,P|222:195|254:250,1,88,8|0,3:1|1:0,0:0:0:0:
310,172,61661,1,2,0:0:0:0:
310,172,61747,2,0,P|305:123|273:68,1,88,0|0,3:0|1:0,0:0:0:0:
257,72,62005,1,2,0:0:0:0:
221,67,62092,1,8,3:1:0:0:
186,73,62178,1,0,0:0:0:0:
157,92,62264,1,2,0:0:0:0:
139,122,62350,1,2,0:0:0:0:
136,157,62436,6,0,P|145:217|106:283,1,132,0|0,3:0|0:0,0:0:0:0:
95,283,62781,1,8,3:1:0:0:
77,280,62868,1,0,0:0:0:0:
61,272,62954,1,2,1:2:0:0:
49,258,63040,1,2,0:0:0:0:
41,241,63126,1,0,3:0:0:0:
40,223,63212,1,8,0:2:0:0:
48,206,63299,2,0,L|110:212,1,44,0|0,1:0|0:0,0:0:0:0:
241,211,63471,5,8,3:1:0:0:
241,211,63557,1,0,3:0:0:0:
241,211,63643,2,0,L|179:217,1,44,0|0,3:0|0:0,0:0:0:0:
143,341,63816,5,0,3:0:0:0:
187,341,63902,1,0,1:0:0:0:
231,341,63988,1,2,0:0:0:0:
275,341,64074,1,0,1:0:0:0:
319,341,64160,1,8,3:1:0:0:
464,377,64333,5,2,0:0:0:0:
451,334,64419,1,0,1:0:0:0:
443,290,64505,2,0,L|464:158,1,132,0|0,3:0|0:0,0:0:0:0:
467,144,64850,1,8,3:1:0:0:
343,124,65023,1,2,1:2:0:0:
331,153,65109,1,2,1:2:0:0:
336,184,65195,6,0,P|360:196|388:200,3,44,0|0|0|0,3:0|1:0|0:0|0:0,0:0:0:0:
352,272,65540,2,0,P|373:277|392:287,3,44,8|2|2|0,3:1|0:0|1:2|1:0,0:0:0:0:
344,348,65885,1,0,3:0:0:0:
304,336,65971,1,0,1:0:0:0:
264,348,66057,1,0,0:0:0:0:
224,336,66143,1,0,0:0:0:0:
184,348,66230,1,8,3:1:0:0:
144,336,66316,1,2,1:2:0:0:
200,236,66574,5,4,3:2:0:0:
104,348,66833,1,4,3:2:0:0:
136,182,67092,1,8,0:1:0:0:
104,348,67264,5,4,3:2:0:0:
56,211,67523,1,4,3:2:0:0:
184,320,67781,1,8,3:1:0:0:
41,293,67954,5,0,3:0:0:0:
44,284,68040,1,2,0:0:0:0:
48,276,68126,1,0,1:0:0:0:
44,244,68213,1,0,3:0:0:0:
56,216,68299,1,2,0:0:0:0:
44,188,68385,1,0,1:0:0:0:
56,160,68471,2,0,L|44:132,2,22,0|0|2,3:0|0:0|1:2,0:0:0:0:
64,112,68643,6,0,L|42:66,1,44,0|0,3:0|0:0,0:0:0:0:
27,31,68816,1,0,3:0:0:0:
137,149,68988,5,4,3:2:0:0:
172,48,69333,5,4,0:2:0:0:
176,56,69505,1,0,0:0:0:0:
248,120,69678,5,0,0:0:0:0:
252,128,69850,1,0,0:0:0:0:
309,13,70023,6,0,P|316:55|357:107,2,88,0|0|2,0:0|0:0|0:0,0:0:0:0:
421,62,70540,5,2,0:0:0:0:
433,86,70626,1,0,0:0:0:0:
425,110,70712,1,0,0:0:0:0:
333,196,70885,5,2,0:0:0:0:
329,188,71057,1,2,0:0:0:0:
448,241,71230,5,2,0:0:0:0:
451,232,71402,2,0,P|474:192|509:172,2,88,2|2|2,0:0|0:0|0:0,0:0:0:0:
382,323,71919,1,0,0:0:0:0:
382,323,72005,1,0,0:0:0:0:
382,323,72092,2,0,P|421:346|462:345,2,88,2|0|0,0:2|0:0|0:0,0:0:0:0:
247,322,72609,5,0,0:0:0:0:
251,330,72781,1,0,0:0:0:0:
162,270,72954,5,0,0:0:0:0:
166,262,73126,1,2,0:0:0:0:
159,354,73299,5,2,0:0:0:0:
155,362,73471,1,2,0:0:0:0:
254,230,73644,5,2,0:0:0:0:
258,222,73816,1,2,0:0:0:0:
166,262,73988,1,2,0:0:0:0:
74,302,74161,5,0,0:0:0:0:
85,202,74333,1,0,0:0:0:0:
177,161,74505,5,2,0:0:0:0:
166,262,74678,1,2,0:0:0:0:
85,202,74850,5,2,0:0:0:0:
81,210,75023,1,0,0:0:0:0:
74,302,75195,5,2,0:0:0:0:
70,310,75368,1,2,0:0:0:0:
222,322,75540,2,0,B|182:302|182:302|154:234,2,88,10|0|2,0:0|0:0|0:0,0:0:0:0:
331,253,76057,5,10,0:0:0:0:
335,228,76143,1,0,0:0:0:0:
321,207,76229,1,2,0:0:0:0:
245,238,76401,5,2,0:0:0:0:
249,246,76574,1,0,0:0:0:0:
311,341,76747,1,2,0:0:0:0:
418,290,76919,5,8,0:2:0:0:
414,315,77005,1,0,0:0:0:0:
428,336,77091,1,0,0:0:0:0:
494,292,77264,1,2,0:0:0:0:
432,197,77437,1,8,0:2:0:0:
480,67,77609,6,0,P|477:42|488:3,2,44,0|2|0,1:2|1:2|1:0,0:0:0:0:
407,46,77868,1,0,0:0:0:0:
399,42,77954,2,0,P|389:16|365:-11,1,44,0|2,0:0|0:0,0:0:0:0:
322,51,78126,2,0,P|300:33|266:22,1,44,0|0,1:0|0:0,0:0:0:0:
262,98,78299,2,0,P|234:93|199:100,2,44,0|2|0,0:0|0:0|1:0,0:0:0:0:
239,169,78557,1,0,0:0:0:0:
234,176,78643,2,0,P|208:185|181:209,1,44,8|2,0:0|0:0,0:0:0:0:
249,246,78816,2,0,P|231:267|220:301,1,44,0|2,1:0|0:0,0:0:0:0:
299,307,78988,6,0,L|331:312,7,22,0|0|2|0|2|0|0|0,0:0|0:0|0:0|0:0|0:0|0:0|0:0|0:0,0:0:0:0:
355,314,79333,2,0,L|387:319,6,22,8|0|0|0|0|0|0,0:0|0:0|0:0|0:0|0:0|0:0|0:0,0:0:0:0:
458,308,79678,6,0,L|450:353,2,44,8|2|8,0:0|0:0|0:0,0:0:0:0:
233,358,80023,1,10,0:0:0:0:
452,128,80368,6,0,L|464:68,1,44,4|10,3:1|0:0,0:0:0:0:
428,136,80540,2,0,L|440:76,1,44,0|0,0:0|1:0,0:0:0:0:
327,156,80712,2,0,L|336:200,1,44,8|2,3:1|0:0,0:0:0:0:
351,164,80884,2,0,L|360:208,1,44,0|2,1:0|0:0,0:0:0:0:
452,272,81058,2,0,L|461:228,1,44,0|0,3:0|0:0,0:0:0:0:
428,280,81230,2,0,L|437:236,1,44,0|2,0:0|0:0,0:0:0:0:
336,296,81402,2,0,B|340:318|340:318|351:337,1,44,8|2,3:1|0:0,0:0:0:0:
312,332,81574,2,0,B|308:354|308:354|296:373,1,44,10|0,1:2|1:0,0:0:0:0:
224,328,81747,6,0,B|184:320|176:352|112:332,1,88,0|2,3:0|0:0,0:0:0:0:
58,351,82005,1,2,1:2:0:0:
56,328,82092,2,0,P|72:288|120:260,1,88,8|0,3:1|1:0,0:0:0:0:
192,236,82350,1,0,0:0:0:0:
200,256,82436,2,0,B|176:192|176:192|96:168,1,132,2|2,3:2|0:0,0:0:0:0:
112,164,82781,1,8,3:1:0:0:
108,156,82868,1,2,0:0:0:0:
104,148,82954,1,10,1:2:0:0:
100,140,83040,1,0,1:0:0:0:
96,132,83126,6,0,L|68:64,1,44,0|10,3:0|0:0,0:0:0:0:
102,70,83299,2,0,L|118:110,1,44,0|0,0:0|1:0,0:0:0:0:
232,140,83471,2,0,L|215:99,1,44,8|2,3:1|0:0,0:0:0:0:
260,144,83643,2,0,L|243:103,1,44,0|2,1:0|0:0,0:0:0:0:
312,20,83816,2,0,L|328:60,1,44,0|0,3:0|1:0,0:0:0:0:
340,24,83988,2,0,L|356:64,1,44,0|2,0:0|0:0,0:0:0:0:
397,141,84161,2,0,L|425:209,1,44,8|2,3:1|0:0,0:0:0:0:
441,185,84333,2,0,L|425:145,1,44,10|0,1:2|1:0,0:0:0:0:
328,199,84505,6,0,L|364:291,1,88,0|2,3:0|0:0,0:0:0:0:
431,311,84764,1,2,1:2:0:0:
422,332,84850,2,0,B|385:354|385:354|340:354,1,88,8|0,3:1|1:0,0:0:0:0:
260,356,85109,1,0,0:0:0:0:
268,376,85195,2,0,L|220:252,1,132,2|2,3:2|0:0,0:0:0:0:
212,260,85540,1,8,3:1:0:0:
204,268,85626,1,2,0:0:0:0:
196,276,85712,1,10,1:2:0:0:
188,284,85799,1,2,1:2:0:0:
180,292,85885,6,0,L|160:236,1,44,0|10,3:0|0:0,0:0:0:0:
160,312,86057,2,0,L|140:256,1,44,0|0,0:0|1:0,0:0:0:0:
52,308,86230,2,0,L|37:349,1,44,8|2,3:1|0:0,0:0:0:0:
72,328,86402,2,0,L|57:369,1,44,0|2,1:0|0:0,0:0:0:0:
141,178,86574,2,0,L|156:220,1,44,0|0,3:0|1:0,0:0:0:0:
121,198,86746,2,0,L|136:240,1,44,0|2,0:0|0:0,0:0:0:0:
72,56,86919,2,0,L|57:98,1,44,8|2,3:1|0:0,0:0:0:0:
92,76,87091,2,0,L|77:118,1,44,10|0,1:2|1:0,0:0:0:0:
141,178,87264,6,0,L|181:54,1,88,0|2,3:0|0:0,0:0:0:0:
240,80,87523,1,2,1:2:0:0:
268,80,87609,2,0,L|364:80,1,88,8|0,3:1|1:0,0:0:0:0:
444,56,87868,1,0,0:0:0:0:
437,34,87954,2,0,B|460:104|428:104|442:163,1,132,2|2,3:2|0:0,0:0:0:0:
438,172,88299,1,8,3:1:0:0:
434,180,88385,1,2,0:0:0:0:
431,188,88471,1,10,1:2:0:0:
428,196,88557,1,0,1:0:0:0:
425,204,88643,6,0,L|453:272,1,44,0|10,3:0|0:0,0:0:0:0:
419,253,88816,2,0,L|447:321,1,44,0|0,0:0|0:0,0:0:0:0:
352,342,88988,2,0,L|337:300,1,44,8|2,3:1|0:0,0:0:0:0:
332,362,89161,2,0,L|317:320,1,44,0|0,1:0|0:0,0:0:0:0:
208,236,89333,2,0,L|223:278,1,44,0|0,3:0|1:0,0:0:0:0:
188,256,89505,2,0,L|203:298,1,44,0|2,0:0|0:0,0:0:0:0:
104,370,89678,6,0,L|76:302,1,44,8|2,3:1|0:0,0:0:0:0:
110,321,89851,2,0,L|82:253,1,44,10|0,1:2|0:0,0:0:0:0:
3,256,90023,6,0,P|17:217|56:191,1,88,0|2,3:0|0:0,0:0:0:0:
137,190,90281,1,2,1:2:0:0:
157,190,90368,2,0,P|181:138|173:102,1,88,8|0,3:1|1:0,0:0:0:0:
156,31,90626,1,0,0:0:0:0:
187,36,90712,2,0,B|229:43|229:43|275:24|275:24|330:37,1,132,2|0,3:2|1:0,0:0:0:0:
392,60,91057,1,2,3:2:0:0:
412,68,91143,1,2,3:2:0:0:
432,76,91230,1,0,3:0:0:0:
452,84,91316,1,0,0:0:0:0:
468,92,91402,6,0,P|460:118|446:141,1,55,4|10,3:2|0:0,0:0:0:0:
352,156,91574,2,0,P|359:182|373:205,1,55,0|0,0:0|1:0,0:0:0:0:
464,224,91746,2,0,P|456:250|442:273,1,55,8|2,3:1|0:0,0:0:0:0:
392,84,91919,2,0,P|384:57|370:34,1,55,0|2,1:0|0:0,0:0:0:0:
373,205,92091,5,0,3:0:0:0:
356,228,92177,1,0,1:0:0:0:
340,252,92264,1,0,0:0:0:0:
324,272,92350,1,2,0:0:0:0:
284,272,92436,2,0,P|291:298|305:321,1,55,8|2,3:1|0:0,0:0:0:0:
196,260,92608,2,0,P|203:233|217:210,1,55,10|0,1:2|1:0,0:0:0:0:
304,180,92781,6,0,P|272:136|212:120,1,110,0|2,3:0|0:0,0:0:0:0:
152,80,93039,1,2,1:2:0:0:
80,60,93126,2,0,P|102:109|90:162,1,110,8|0,3:1|1:0,0:0:0:0:
36,240,93384,1,0,0:0:0:0:
24,256,93471,2,0,B|137:255|137:255|73:292,1,165,2|2,3:2|0:0,0:0:0:0:
132,348,93815,2,0,L|196:312,1,55,8|2,3:1|0:0,0:0:0:0:
248,280,93988,2,0,L|312:244,1,55,10|0,1:2|0:0,0:0:0:0:
288,92,94160,6,0,L|271:39,1,55,0|10,3:0|0:0,0:0:0:0:
156,148,94333,2,0,L|139:200,1,55,0|0,0:0|1:0,0:0:0:0:
196,268,94505,2,0,L|179:320,1,55,8|2,3:1|0:0,0:0:0:0:
295,253,94677,2,0,L|278:200,1,55,0|2,1:0|0:0,0:0:0:0:
220,160,94850,5,0,3:0:0:0:
209,125,94936,1,0,1:0:0:0:
199,90,95022,1,0,0:0:0:0:
189,55,95108,1,2,0:0:0:0:
156,54,95195,2,0,L|173:1,1,55,8|2,3:1|0:0,0:0:0:0:
92,100,95367,2,0,L|75:47,1,55,10|0,1:2|1:0,0:0:0:0:
52,208,95539,6,0,B|96:244|96:244|153:247,1,110,0|2,3:0|0:0,0:0:0:0:
236,224,95798,1,2,1:2:0:0:
320,200,95884,2,0,B|328:224|320:252|316:252|312:252|308:288|320:308,1,110,8|0,3:1|1:0,0:0:0:0:
408,352,96143,1,0,0:0:0:0:
424,364,96229,2,0,B|392:320|392:276|392:276|404:240|399:207,1,165,2|2,3:2|0:0,0:0:0:0:
469,162,96574,2,0,P|456:132|452:100,1,66.0000025177003,8|2,3:1|0:0,0:0:0:0:
412,68,96746,2,0,P|408:100|395:131,1,66.0000025177003,10|2,1:2|3:2,0:0:0:0:
319,228,96919,6,0,P|306:197|302:165,1,66.0000025177003,0|10,3:0|0:0,0:0:0:0:
252,55,97091,2,0,P|285:59|316:72,1,66.0000025177003,0|0,0:0|1:0,0:0:0:0:
208,228,97264,2,0,P|203:260|190:290,1,66.0000025177003,8|2,3:1|0:0,0:0:0:0:
160,116,97436,2,0,P|146:85|142:53,1,66.0000025177003,0|2,1:0|0:0,0:0:0:0:
128,236,97608,5,0,3:0:0:0:
112,272,97695,1,0,1:0:0:0:
112,312,97781,1,0,0:0:0:0:
128,348,97867,1,2,0:0:0:0:
164,368,97953,2,0,P|131:364|100:351,1,66.0000025177003,8|2,3:1|0:0,0:0:0:0:
272,364,98126,2,0,P|305:360|336:347,1,66.0000025177003,10|0,1:2|1:0,0:0:0:0:
444,336,98298,6,0,P|400:284|400:200,1,132.000005035401,0|2,3:0|0:0,0:0:0:0:
444,160,98557,1,2,1:2:0:0:
376,116,98643,2,0,B|418:116|418:116|456:100|456:100|510:99,1,132.000005035401,8|0,3:1|1:0,0:0:0:0:
472,24,98902,1,0,0:0:0:0:
496,24,98988,2,0,B|440:24|440:24|400:40|400:40|288:40,1,198.000007553101,2|2,3:2|0:0,0:0:0:0:
291,114,99333,2,0,P|295:147|312:176,1,66.0000025177003,8|2,3:1|0:0,0:0:0:0:
327,261,99505,2,0,P|294:260|264:248,1,66.0000025177003,10|0,1:2|1:2,0:0:0:0:
204,140,99677,6,0,L|224:60,1,66.0000025177003,0|10,3:0|0:0,0:0:0:0:
75,135,99850,2,0,L|92:200,1,66.0000025177003,0|0,0:0|1:0,0:0:0:0:
212,252,100022,2,0,L|236:153,1,66.0000025177003,8|2,3:1|0:0,0:0:0:0:
52,245,100195,2,0,L|71:324,1,66.0000025177003,0|2,1:0|0:0,0:0:0:0:
208,336,100367,5,0,3:0:0:0:
256,331,100453,1,0,1:0:0:0:
296,304,100539,1,0,0:0:0:0:
315,257,100625,1,2,0:0:0:0:
308,209,100712,2,0,L|220:212,1,66.0000025177003,8|2,3:1|0:0,0:0:0:0:
378,309,100884,2,0,L|444:308,1,66.0000025177003,10|2,1:2|1:2,0:0:0:0:
456,228,101057,6,0,P|456:156|376:104,1,132.000005035401,0|2,3:0|0:0,0:0:0:0:
340,136,101315,1,8,1:2:0:0:
308,209,101402,2,0,B|324:264|280:284|296:340,1,132.000005035401,8|2,3:1|3:2,0:0:0:0:
378,309,101660,1,0,0:0:0:0:
395,310,101746,2,0,B|324:309|324:309|295:300|295:300|262:308|262:308|195:309,1,198.000007553101,0|0,3:0|0:0,0:0:0:0:
124,272,102091,2,0,P|116:304|124:352,1,66.0000025177003,2|2,3:2|3:2,0:0:0:0:
84,232,102264,2,0,P|80:264|56:307,1,66.0000025177003,2|0,3:2|0:0,0:0:0:0:
36,152,102436,6,0,B|120:148|120:148|160:200,1,110,4|2,3:2|0:0,0:0:0:0:
192,188,102695,1,0,0:0:0:0:
180,168,102781,1,8,3:1:0:0:
168,148,102868,1,2,0:0:0:0:
224,28,103040,1,0,0:0:0:0:
236,48,103126,1,0,3:0:0:0:
296,140,103299,1,2,0:0:0:0:
352,48,103471,1,8,3:1:0:0:
364,28,103557,1,0,0:0:0:0:
448,96,103730,1,2,0:0:0:0:
448,116,103816,6,0,B|448:196|448:196|408:168,1,110,0|2,3:0|0:0,0:0:0:0:
424,208,104074,2,0,L|472:244,1,55,0|8,0:0|3:1,0:0:0:0:
360,141,104333,2,0,B|336:124|336:124|336:204,1,110,2|0,0:0|3:0,0:0:0:0:
336,236,104591,2,0,L|288:200,1,55,2|2,0:0|0:0,0:0:0:0:
244,260,104850,1,8,3:1:0:0:
256,272,104936,2,0,B|304:308|304:308|368:308,1,110,2|2,0:0|0:0,0:0:0:0:
376,328,105195,6,0,B|392:272|348:276|372:216,1,110,0|2,3:0|0:0,0:0:0:0:
384,204,105454,1,0,0:0:0:0:
456,136,105626,1,2,0:0:0:0:
472,120,105712,2,0,L|348:128,1,110,2|0,0:0|3:0,0:0:0:0:
288,128,105971,5,0,0:0:0:0:
272,144,106057,1,2,0:0:0:0:
384,40,106230,1,8,3:1:0:0:
400,24,106316,1,2,0:0:0:0:
264,40,106488,1,2,0:0:0:0:
248,60,106574,6,0,L|176:144,1,110,0|2,3:0|0:0,0:0:0:0:
79,153,106919,2,0,B|83:109|83:109|135:45,1,110,8|2,3:1|0:0,0:0:0:0:
176,172,107264,1,0,3:0:0:0:
176,200,107350,1,8,0:1:0:0:
176,228,107436,1,2,0:0:0:0:
196,344,107609,1,8,3:1:0:0:
212,324,107695,2,0,B|236:300|236:300|328:328,1,110,2|2,0:0|3:2,0:0:0:0:
412,276,108040,5,2,0:0:0:0:
383,266,108126,1,2,0:0:0:0:
354,256,108212,1,2,0:0:0:0:
326,246,108298,1,8,3:1:0:0:
456,197,108471,2,0,L|344:161,1,110,2|0,0:0|3:0,0:0:0:0:
280,140,108730,5,0,0:0:0:0:
256,132,108816,1,2,0:0:0:0:
399,85,108988,1,8,3:1:0:0:
423,93,109074,1,2,0:0:0:0:
288,20,109247,1,2,3:2:0:0:
336,116,109419,5,2,0:0:0:0:
344,140,109505,1,2,0:0:0:0:
352,164,109592,1,2,0:0:0:0:
360,188,109678,1,8,3:1:0:0:
456,197,109850,2,0,L|416:73,1,110,2|0,0:0|3:0,0:0:0:0:
384,24,110109,5,0,0:0:0:0:
356,28,110195,1,2,0:0:0:0:
272,124,110368,1,8,3:1:0:0:
300,120,110454,1,2,0:0:0:0:
292,240,110626,1,2,0:0:0:0:
276,268,110712,6,0,L|164:288,1,110,0|2,3:0|0:0,0:0:0:0:
116,344,111057,1,8,3:1:0:0:
44,320,111230,1,2,0:0:0:0:
44,244,111402,1,0,3:0:0:0:
120,224,111574,1,2,0:0:0:0:
167,287,111747,1,8,3:1:0:0:
172,296,111833,1,2,0:0:0:0:
279,350,112005,1,2,3:2:0:0:
283,362,112092,5,4,3:2:0:0:
389,275,112350,5,8,3:1:0:0:
340,147,112609,5,0,3:0:0:0:
203,154,112781,2,0,L|164:220,1,55,0|0,0:0|0:0,0:0:0:0:
112,168,112954,2,0,L|88:212,2,27.5,0|0|0,1:0|1:0|1:0,0:0:0:0:
124,148,113126,2,0,L|151:100,1,55,8|0,3:1|1:0,0:0:0:0:
196,0,113385,5,2,1:0:0:0:
