osu file format v14

[General]
AudioFilename: audio.mp3
AudioLeadIn: 0
PreviewTime: 77609
Countdown: 0
SampleSet: Soft
StackLeniency: 0.3
Mode: 0
LetterboxInBreaks: 0
WidescreenStoryboard: 0

[Editor]
DistanceSpacing: 0.5
BeatDivisor: 8
GridSize: 4
TimelineZoom: 3.000004

[Metadata]
Title:polygon
TitleUnicode:polygon
Artist:Sota Fujimori
ArtistUnicode:Sota Fujimori
Creator:Sebu
Version:heptagon
Source:jubeat copious
Tags:REFLEC BEAT CXu -GN -PC
BeatmapID:1354636
BeatmapSetID:422136

[Difficulty]
HPDrainRate:6
CircleSize:4.2
OverallDifficulty:8.8
ApproachRate:9.6
SliderMultiplier:1.76
SliderTickRate:1

[Events]
//Background and Video events
0,0,"polygonal_space_by_kanman142-d92loa3.jpg",0,0
//Break Periods
//Storyboard Layer 0 (Background)
//Storyboard Layer 1 (Fail)
//Storyboard Layer 2 (Pass)
//Storyboard Layer 3 (Foreground)
//Storyboard Sound Samples

[TimingPoints]
368,344.827586206897,4,2,1,40,1,0
368,-66.6666666666667,4,2,1,40,0,0
712,-200,4,2,1,40,0,0
885,-66.6666666666667,4,2,1,40,0,0
1057,-200,4,2,1,40,0,0
1230,-66.6666666666667,4,2,1,40,0,0
1574,-200,4,2,1,40,0,0
2092,-66.6666666666667,4,2,1,40,0,0
3126,-66.6666666666667,4,2,1,60,0,0
8471,-55.5555555555556,4,2,1,60,0,0
8643,-66.6666666666667,4,2,1,60,0,0
11057,-50,4,2,1,60,0,0
11402,-66.6666666666667,4,2,1,60,0,0
14850,-40,4,2,1,60,0,0
15023,-100,4,2,1,60,0,0
15195,-40,4,2,1,60,0,0
15368,-100,4,2,1,60,0,0
15540,-40,4,2,1,60,0,0
15712,-100,4,2,1,60,0,0
15885,-40,4,2,1,60,0,0
16316,-40,4,2,1,80,0,0
16574,-40,4,2,1,60,0,0
16661,-40,4,2,1,80,0,0
16919,-66.6666666666667,4,2,1,60,0,0
17609,-40,4,2,1,60,0,0
17781,-100,4,2,1,60,0,0
17954,-40,4,2,1,60,0,0
18126,-100,4,2,1,60,0,0
18299,-40,4,2,1,60,0,0
18471,-100,4,2,1,60,0,0
18643,-40,4,2,1,60,0,0
18988,-66.6666666666667,4,2,1,60,0,0
20368,-28.5714285714286,4,2,1,60,0,0
20712,-300.333333333333,4,2,1,60,0,0
21057,-28.5714285714286,4,2,1,60,0,0
21402,-300.333333333333,4,2,1,60,0,0
21747,-100,4,2,1,60,0,0
21833,-100,4,2,1,80,0,0
22092,-100,4,2,1,60,0,0
22178,-100,4,2,1,80,0,0
22436,-66.6666666666667,4,2,1,60,0,0
22781,-50,4,2,1,60,0,0
23126,-66.6666666666667,4,2,1,60,0,0
23816,-50,4,2,1,60,0,0
24333,-40,4,2,1,60,0,0
24505,-200,4,2,1,60,0,0
24678,-40,4,2,1,60,0,0
24850,-400,4,2,1,60,0,0
25195,-66.6666666666667,4,2,1,60,0,0
27695,-66.6666666666667,4,2,1,80,0,0
27954,-66.6666666666667,4,2,1,60,0,0
28988,-66.6666666666667,4,2,1,80,0,0
29333,-66.6666666666667,4,2,1,60,0,0
41402,-55.5555555555556,4,2,1,60,0,0
41747,-66.6666666666667,4,2,1,60,0,0
47264,-300.333333333333,4,2,1,60,0,0
47609,-50,4,2,1,60,0,0
47954,-66.6666666666667,4,2,1,60,0,0
48299,-300.333333333333,4,2,1,60,0,0
48643,-50,4,2,1,60,0,0
48988,-66.6666666666667,4,2,1,60,0,0
50023,-300.333333333333,4,2,1,60,0,0
50368,-50,4,2,1,60,0,0
50885,-66.6666666666667,4,2,1,60,0,0
51057,-300.333333333333,4,2,1,60,0,0
51402,-50,4,2,1,60,0,0
51747,-66.6666666666667,4,2,1,60,0,0
52092,-50,4,2,1,60,0,0
52781,-50,4,2,1,60,0,0
53126,-66.6666666666667,4,2,1,60,0,0
53816,-300.333333333333,4,2,1,60,0,0
54161,-50,4,2,1,60,0,0
54505,-66.6666666666667,4,2,1,60,0,0
54850,-50,4,2,1,60,0,0
55885,-66.6666666666667,4,2,1,60,0,0
56230,-50,4,2,1,60,0,0
58299,-66.6666666666667,4,2,1,60,0,0
66574,-50,4,2,1,60,0,0
67092,-200,4,2,1,60,0,0
67264,-50,4,2,1,60,0,0
67781,-200,4,2,1,60,0,0
68557,-133.333333333333,4,2,1,60,0,0
68643,-50,4,2,1,60,0,0
69333,-83.3333333333333,4,2,1,40,0,0
74850,-83.3333333333333,4,2,1,60,0,0
78643,-66.6666666666667,4,2,1,70,0,0
78988,-100,4,2,1,80,0,0
79678,-50,4,2,1,50,0,0
79850,-57.1428571428571,4,2,1,50,0,0
80023,-300.333333333333,4,2,1,50,0,0
80368,-66.6666666666667,4,2,1,70,0,1
82436,-50,4,2,1,70,0,1
83126,-66.6666666666667,4,2,1,70,0,1
84505,-50,4,2,1,70,0,1
85195,-66.6666666666667,4,2,1,70,0,1
87264,-50,4,2,1,70,0,1
88643,-66.6666666666667,4,2,1,70,0,1
90023,-50,4,2,1,70,0,1
91402,-66.6666666666667,4,2,1,70,0,1
92781,-50,4,2,1,70,0,1
94161,-66.6666666666667,4,2,1,70,0,1
95540,-50,4,2,1,70,0,1
96919,-66.6666666666667,4,2,1,70,0,1
98299,-50,4,2,1,70,0,1
98988,-40,4,2,1,70,0,1
99161,-66.6666666666667,4,2,1,70,0,1
99678,-66.6666666666667,4,2,1,70,0,1
101057,-50,4,2,1,70,0,1
101833,-66.6666666666667,4,2,1,70,0,1
101919,-40,4,2,1,70,0,1
102436,-66.6666666666667,4,2,1,60,0,0
112092,-50,4,2,1,60,0,0
112781,-100,4,2,1,60,0,0
112954,-50,4,2,1,60,0,0

[Colours]
Combo1 : 141,40,223
Combo2 : 215,19,68
Combo3 : 180,95,216
Combo4 : 81,47,217

[HitObjects]
418,163,368,5,0,1:0:0:0:
421,171,454,1,0,1:0:0:0:
424,179,540,2,0,P|421:204|395:238,1,66.0000025177003,2|0,1:2|1:0,0:0:0:0:
309,116,712,6,0,P|321:117|330:127,1,22,8|2,0:0|0:0,0:0:0:0:
436,305,885,2,0,P|412:314|370:309,1,66.0000025177003,0|0,1:0|0:0,0:0:0:0:
289,186,1057,6,0,P|294:196|289:209,1,22,8|0,0:0|0:0,0:0:0:0:
333,377,1230,2,0,P|312:361|296:322,1,66.0000025177003,0|0,1:0|0:0,0:0:0:0:
149,215,1402,6,0,P|169:200|212:198,1,66.0000025177003,10|0,1:2|0:0,0:0:0:0:
217,204,1574,2,0,P|210:213|196:216,1,22,0|0,1:0|0:0,0:0:0:0:
74,356,1747,5,0,1:0:0:0:
224,342,1919,5,2,0:0:0:0:
224,342,2005,1,2,0:0:0:0:
224,342,2092,2,0,L|14:335,1,198.000007553101,8|0,0:2|0:0,0:0:0:0:
28,329,2436,5,8,0:0:0:0:
30,322,2523,1,2,0:0:0:0:
32,315,2609,2,0,L|132:319,1,66.0000025177003,2|2,0:0|0:0,0:0:0:0:
230,322,2781,2,0,L|330:326,1,66.0000025177003,2|0,0:0|0:0,0:0:0:0:
23,102,3126,6,0,L|35:242,1,132.000005035401,4|0,3:2|0:0,0:0:0:0:
126,247,3385,1,2,1:2:0:0:
126,247,3471,2,0,L|120:181,1,66.0000025177003,8|0,3:1|0:0,0:0:0:0:
188,85,3643,6,0,P|223:126|299:87,1,132.000005035401,2|0,1:2|3:0,0:0:0:0:
182,86,3902,2,0,L|116:93,1,66.0000025177003,2|0,1:2|0:0,0:0:0:0:
214,218,4074,1,0,0:0:0:0:
214,218,4161,2,0,L|303:222,1,66.0000025177003,8|0,3:1|0:0,0:0:0:0:
352,222,4333,2,0,L|441:226,1,66.0000025177003,2|0,1:2|0:0,0:0:0:0:
415,49,4505,6,0,B|442:33|442:33|430:142,1,132.000005035401,2|0,3:2|0:0,0:0:0:0:
419,213,4764,1,2,1:2:0:0:
419,213,4850,2,0,L|354:211,1,66.0000025177003,8|0,3:1|0:0,0:0:0:0:
281,209,5023,2,0,L|216:207,1,66.0000025177003,2|0,1:2|0:0,0:0:0:0:
77,202,5195,5,0,3:0:0:0:
63,200,5281,1,2,0:0:0:0:
75,208,5368,5,0,0:0:0:0:
61,206,5454,1,2,0:0:0:0:
55,284,5540,6,0,P|83:217|44:83,1,198.000007553101,8|0,3:1|0:0,0:0:0:0:
45,97,5885,6,0,B|186:102,1,132.000005035401,2|0,3:2|0:0,0:0:0:0:
203,15,6143,1,2,1:2:0:0:
203,15,6229,2,0,L|138:13,1,66.0000025177003,8|0,3:1|0:0,0:0:0:0:
275,107,6402,6,0,P|361:94|373:34,1,132.000005035401,2|0,1:2|3:0,0:0:0:0:
269,106,6661,2,0,L|266:200,1,66.0000025177003,2|0,1:2|0:0,0:0:0:0:
400,240,6833,1,0,1:0:0:0:
400,240,6919,2,0,P|385:270|356:290,1,66.0000025177003,8|0,3:1|0:0,0:0:0:0:
289,311,7092,2,0,P|255:317|219:304,1,66.0000025177003,2|0,1:2|0:0,0:0:0:0:
120,205,7264,6,0,B|132:172|132:172|126:233|168:284,1,132.000005035401,2|0,3:2|0:0,0:0:0:0:
224,319,7523,1,2,1:2:0:0:
224,319,7609,2,0,P|255:328|287:321,1,66.0000025177003,8|0,3:1|0:0,0:0:0:0:
367,296,7781,2,0,P|393:276|407:247,1,66.0000025177003,2|0,1:2|0:0,0:0:0:0:
266,171,7954,5,0,3:0:0:0:
263,189,8040,1,0,0:0:0:0:
268,206,8126,2,0,P|297:224|355:220,1,66.0000025177003,2|0,1:2|0:0,0:0:0:0:
425,169,8299,5,8,3:1:0:0:
405,95,8385,1,0,1:0:0:0:
330,76,8471,2,0,P|327:115|352:153,1,79.1999975830079,2|0,3:2|0:0,0:0:0:0:
417,374,8643,6,0,P|399:310|406:245,1,132.000005035401,4|0,3:2|0:0,0:0:0:0:
483,228,8902,1,2,1:2:0:0:
483,228,8988,2,0,P|483:266|475:298,1,66.0000025177003,8|0,3:1|0:0,0:0:0:0:
287,320,9161,6,0,B|196:306|196:306|236:273,1,132.000005035401,2|0,1:2|3:0,0:0:0:0:
293,319,9419,2,0,L|280:402,1,66.0000025177003,2|0,1:2|0:0,0:0:0:0:
95,341,9592,1,0,0:0:0:0:
95,341,9678,2,0,P|90:304|103:259,1,66.0000025177003,8|0,3:1|0:0,0:0:0:0:
110,202,9850,2,0,P|114:165|102:120,1,66.0000025177003,2|0,1:2|0:0,0:0:0:0:
0,73,10023,6,0,P|-11:131|44:170,1,132.000005035401,2|0,3:2|0:0,0:0:0:0:
122,137,10281,1,2,1:2:0:0:
122,137,10367,2,0,P|126:173|114:219,1,66.0000025177003,8|0,3:1|0:0,0:0:0:0:
107,276,10539,2,0,P|102:312|115:358,1,66.0000025177003,2|0,1:2|0:0,0:0:0:0:
255,340,10712,5,0,3:0:0:0:
272,330,10799,1,2,0:0:0:0:
284,315,10885,1,0,0:0:0:0:
293,298,10971,1,2,0:0:0:0:
226,280,11057,6,0,B|237:351|297:365|297:365|346:343|340:283|340:283|313:276|281:284,1,264,8|0,3:1|0:0,0:0:0:0:
406,368,11402,6,0,P|420:312|400:215,1,132.000005035401,2|0,3:2|0:0,0:0:0:0:
485,195,11661,1,2,1:2:0:0:
485,195,11747,2,0,P|499:230|505:272,1,66.0000025177003,8|0,3:1|0:0,0:0:0:0:
297,206,11919,6,0,P|338:160|416:162,1,132.000005035401,2|0,1:2|3:0,0:0:0:0:
297,206,12178,2,0,L|297:126,1,66.0000025177003,2|0,1:2|0:0,0:0:0:0:
507,71,12350,1,2,1:2:0:0:
507,71,12436,2,0,L|435:64,1,66.0000025177003,8|0,3:1|0:0,0:0:0:0:
364,58,12609,2,0,L|292:51,1,66.0000025177003,2|2,3:2|3:2,0:0:0:0:
155,38,12781,6,0,P|154:76|172:110,1,66.0000025177003,4|2,3:2|0:0,0:0:0:0:
33,173,12954,1,0,0:0:0:0:
33,173,13040,2,0,P|65:193|103:194,1,66.0000025177003,4|2,3:2|0:0,0:0:0:0:
112,334,13212,1,0,0:0:0:0:
112,334,13299,2,0,P|145:316|165:283,1,66.0000025177003,4|0,3:2|0:0,0:0:0:0:
277,140,13471,5,2,0:0:0:0:
281,135,13557,1,0,0:0:0:0:
286,130,13643,1,2,1:2:0:0:
266,172,13730,1,2,1:2:0:0:
281,229,13816,1,2,3:2:0:0:
343,259,13902,1,0,3:2:0:0:
410,232,13988,1,0,3:2:0:0:
420,206,14074,1,0,0:0:0:0:
418,190,14161,6,0,P|328:226|330:333,1,198.000007553101,4|0,3:2|0:0,0:0:0:0:
195,384,14505,2,0,P|238:336|231:273,1,132.000005035401,10|2,3:1|0:0,0:0:0:0:
12,297,14850,6,0,P|55:307|118:281,1,110,2|0,3:1|0:0,0:0:0:0:
118,273,15023,2,0,P|95:272|73:277,1,44,2|0,1:2|0:0,0:0:0:0:
79,147,15195,6,0,P|111:177|178:186,1,110,10|0,3:1|0:0,0:0:0:0:
183,179,15368,2,0,P|164:166|142:161,1,44,2|0,1:2|0:0,0:0:0:0:
212,50,15540,6,0,P|224:92|278:134,1,110,2|0,3:1|0:0,0:0:0:0:
286,130,15713,2,0,P|275:110|259:93,1,44,2|0,1:2|0:0,0:0:0:0:
223,348,15885,6,0,P|259:308|265:254,1,110,10|0,3:1|0:0,0:0:0:0:
260,240,16057,2,0,P|224:280|218:334,1,110,2|0,1:0|0:0,0:0:0:0:
376,312,16230,5,0,3:0:0:0:
430,275,16316,1,0,0:0:0:0:
440,217,16402,1,2,0:0:0:0:
399,178,16488,1,0,0:0:0:0:
354,178,16574,1,8,3:1:0:0:
335,197,16661,1,0,0:0:0:0:
331,215,16747,1,2,0:0:0:0:
335,227,16833,1,0,0:0:0:0:
341,231,16919,6,0,B|382:223|429:262|429:262|439:205|493:176,1,198.000007553101,0|0,3:0|0:0,0:0:0:0:
374,26,17264,2,0,P|380:95|398:171,1,132.000005035401,10|2,3:1|0:0,0:0:0:0:
366,337,17609,6,0,P|328:348|359:324,1,110,2|0,3:1|0:0,0:0:0:0:
251,332,17781,2,0,P|254:307|272:284,1,44,2|0,1:2|0:0,0:0:0:0:
123,201,17954,6,0,P|161:212|130:188,1,110,10|0,3:1|0:0,0:0:0:0:
238,196,18126,2,0,P|235:171|217:148,1,44,2|0,1:2|0:0,0:0:0:0:
366,65,18299,6,0,P|328:76|359:52,1,110,2|0,3:1|0:0,0:0:0:0:
251,60,18471,2,0,P|254:35|272:12,1,44,2|0,1:2|0:0,0:0:0:0:
41,69,18643,6,0,L|169:89,1,110,10|0,3:1|0:0,0:0:0:0:
159,78,18816,2,0,L|51:61,1,110,2|0,1:0|0:0,0:0:0:0:
73,176,18988,5,2,3:2:0:0:
105,247,19074,1,0,0:0:0:0:
130,301,19161,1,2,0:2:0:0:
146,336,19247,1,0,0:0:0:0:
154,353,19333,2,0,L|78:341,1,66.0000025177003,8|0,3:1|0:0,0:0:0:0:
283,314,19505,2,0,L|207:302,1,66.0000025177003,2|0,3:2|0:0,0:0:0:0:
445,358,19678,6,0,B|383:353|323:391|323:391|360:368|367:330,1,198.000007553101,0|0,3:0|0:0,0:0:0:0:
247,221,20023,2,0,P|238:294|302:309,1,132.000005035401,10|2,3:1|0:0,0:0:0:0:
406,261,20368,6,0,L|386:86,1,154.000001468658,2|0,3:1|0:0,0:0:0:0:
375,98,20540,2,0,L|395:273,1,154.000001468658,2|0,1:0|0:0,0:0:0:0:
477,289,20712,6,0,L|512:286,1,29.3007759220991,8|2,3:1|1:2,0:0:0:0:
375,98,21057,6,0,L|392:251,1,154.000001468658,2|0,3:1|0:0,0:0:0:0:
406,261,21229,2,0,L|388:107,1,154.000001468658,2|0,1:0|0:0,0:0:0:0:
310,46,21402,6,0,L|280:48,1,29.3007759220991,8|2,3:1|1:2,0:0:0:0:
214,192,21747,5,0,3:0:0:0:
274,162,21833,1,0,0:0:0:0:
294,103,21919,1,2,0:0:0:0:
281,48,22005,1,0,0:0:0:0:
241,17,22092,1,8,3:1:0:0:
202,9,22178,1,0,0:0:0:0:
172,17,22264,1,2,0:0:0:0:
155,31,22350,1,2,0:0:0:0:
147,46,22436,6,0,B|196:68|213:116|213:116|230:68|280:48,1,198.000007553101,0|0,3:0|0:0,0:0:0:0:
376,147,22781,6,0,P|299:198|356:125,1,264,12|0,0:2|0:0,0:0:0:0:
445,265,23126,2,0,P|454:296|449:328,1,66.0000025177003,0|0,3:0|0:0,0:0:0:0:
373,302,23299,2,0,P|364:334|344:359,1,66.0000025177003,0|0,0:0|0:0,0:0:0:0:
293,299,23471,2,0,P|269:323|239:335,1,66.0000025177003,12|0,0:0|0:0,0:0:0:0:
73,198,23643,1,0,3:0:0:0:
240,336,23816,6,0,P|270:303|283:237,1,88,12|0,0:0|0:0,0:0:0:0:
363,350,23988,2,0,P|372:307|350:243,1,88,0|0,3:0|0:0,0:0:0:0:
476,301,24161,2,0,P|462:258|411:214,1,88,12|0,0:0|1:0,0:0:0:0:
201,158,24333,6,0,B|251:184|251:184|315:161,1,110,0|0,3:0|0:0,0:0:0:0:
473,96,24505,6,0,P|464:99|453:104,1,22,4|0,3:2|0:0,0:0:0:0:
202,144,24678,6,0,B|252:170|252:170|302:151,1,110,0|0,3:0|0:0,0:0:0:0:
466,83,24850,6,0,P|457:86|446:91,1,22,4|0,3:2|0:0,0:0:0:0:
189,42,25195,5,4,3:2:0:0:
257,63,25281,2,0,L|251:212,1,132.000005035401,0|2,0:0|0:0,0:0:0:0:
247,270,25540,2,0,L|182:264,1,66.0000025177003,0|0,3:0|0:0,0:0:0:0:
109,255,25712,2,0,L|43:248,1,66.0000025177003,2|0,0:0|0:0,0:0:0:0:
41,51,25885,5,0,3:0:0:0:
44,56,25971,1,0,0:0:0:0:
46,62,26057,2,0,P|48:92|34:148,1,66.0000025177003,2|0,0:0|0:0,0:0:0:0:
152,187,26230,2,0,L|149:120,1,66.0000025177003,0|0,3:0|0:0,0:0:0:0:
262,52,26402,1,2,0:0:0:0:
259,57,26488,1,0,0:0:0:0:
257,63,26574,2,0,P|255:93|269:149,1,66.0000025177003,0|0,3:0|0:0,0:0:0:0:
368,88,26747,5,2,0:0:0:0:
368,88,26833,1,0,0:0:0:0:
368,88,26919,2,0,L|450:78,1,66.0000025177003,0|0,3:0|0:0,0:0:0:0:
470,172,27092,2,0,P|437:173|388:162,1,66.0000025177003,2|0,0:0|0:0,0:0:0:0:
405,256,27264,2,0,P|438:250|471:252,1,66.0000025177003,0|2,3:0|0:0,0:0:0:0:
434,343,27436,2,0,L|369:336,1,66.0000025177003,2|2,0:0|0:0,0:0:0:0:
259,319,27609,5,0,3:0:0:0:
213,312,27695,1,0,0:0:0:0:
186,308,27781,1,2,0:0:0:0:
159,303,27868,1,0,0:0:0:0:
113,295,27954,6,0,L|119:362,1,66.0000025177003,0|0,3:0|0:0,0:0:0:0:
100,155,28126,1,0,0:0:0:0:
100,155,28212,1,2,0:0:0:0:
100,155,28299,2,0,L|106:222,1,66.0000025177003,0|0,3:0|0:0,0:0:0:0:
87,15,28471,1,2,0:0:0:0:
0,35,28643,5,0,3:0:0:0:
0,35,28729,1,0,0:0:0:0:
0,35,28816,1,2,0:0:0:0:
194,143,28988,1,0,3:0:0:0:
233,140,29074,1,0,0:0:0:0:
272,137,29161,1,2,0:0:0:0:
311,134,29247,1,0,0:0:0:0:
382,164,29333,5,0,3:0:0:0:
386,173,29419,2,0,L|379:96,1,66.0000025177003,2|2,0:0|0:0,0:0:0:0:
326,249,29592,5,0,0:0:0:0:
287,246,29678,1,2,3:2:0:0:
216,276,29765,5,0,0:0:0:0:
212,285,29850,2,0,L|219:208,1,66.0000025177003,2|0,0:0|0:0,0:0:0:0:
127,323,30023,5,2,3:2:0:0:
123,332,30108,2,0,L|130:255,1,66.0000025177003,0|2,0:0|0:0,0:0:0:0:
225,116,30282,5,2,0:0:0:0:
221,125,30368,2,0,L|228:48,1,66.0000025177003,0|0,3:0|0:0,0:0:0:0:
132,172,30540,2,0,L|139:95,1,66.0000025177003,2|0,3:2|0:0,0:0:0:0:
258,383,30712,5,0,3:0:0:0:
332,380,30799,2,0,L|317:233,1,132.000005035401,0|2,0:0|0:0,0:0:0:0:
309,174,31057,2,0,L|400:184,1,66.0000025177003,0|0,3:0|0:0,0:0:0:0:
447,186,31230,2,0,L|538:196,1,66.0000025177003,2|0,0:0|0:0,0:0:0:0:
481,344,31402,5,0,3:0:0:0:
479,352,31488,1,0,0:0:0:0:
477,360,31574,2,0,P|443:353|405:310,1,66.0000025177003,2|0,0:0|0:0,0:0:0:0:
318,248,31747,2,0,L|325:320,1,66.0000025177003,0|0,3:0|0:0,0:0:0:0:
173,353,31919,1,2,0:0:0:0:
175,361,32005,1,0,0:0:0:0:
177,369,32091,2,0,P|211:362|249:319,1,66.0000025177003,0|0,3:0|0:0,0:0:0:0:
174,152,32264,5,2,0:0:0:0:
152,154,32350,1,0,0:0:0:0:
135,173,32436,1,0,3:0:0:0:
136,205,32523,1,0,0:0:0:0:
164,227,32609,1,2,0:0:0:0:
203,222,32695,1,2,0:0:0:0:
230,193,32781,1,0,3:0:0:0:
267,180,32868,1,0,0:0:0:0:
305,187,32954,1,2,0:0:0:0:
327,219,33040,1,0,0:0:0:0:
321,248,33126,5,0,3:0:0:0:
307,270,33213,1,0,0:0:0:0:
287,271,33299,1,2,0:0:0:0:
276,262,33385,1,0,0:0:0:0:
275,255,33471,6,0,P|307:262|338:290,1,66.0000025177003,0|0,3:0|0:0,0:0:0:0:
444,202,33643,1,0,0:0:0:0:
444,202,33730,1,2,0:0:0:0:
444,202,33816,2,0,P|434:234|443:275,1,66.0000025177003,0|0,3:0|0:0,0:0:0:0:
430,362,33988,5,2,0:0:0:0:
228,384,34161,1,0,3:0:0:0:
228,384,34247,1,0,0:0:0:0:
228,384,34333,1,2,0:0:0:0:
114,240,34505,1,0,3:0:0:0:
153,232,34592,1,0,0:0:0:0:
191,224,34678,5,2,3:2:0:0:
269,232,34764,1,0,3:0:0:0:
347,242,34850,1,4,3:2:0:0:
470,151,35023,5,0,0:0:0:0:
392,159,35109,1,4,3:2:0:0:
269,70,35281,5,0,0:0:0:0:
347,78,35367,1,4,3:2:0:0:
408,311,35540,5,0,0:0:0:0:
409,317,35626,1,0,0:0:0:0:
410,323,35712,1,2,1:2:0:0:
411,329,35799,1,0,1:0:0:0:
412,335,35885,5,2,3:2:0:0:
334,343,35971,1,2,3:2:0:0:
255,351,36057,1,0,3:0:0:0:
153,205,36230,6,0,P|180:263|156:323,1,132.000005035401,4|2,3:2|0:0,0:0:0:0:
77,352,36488,1,0,0:0:0:0:
23,295,36574,2,0,P|48:278|107:280,1,66.0000025177003,8|0,3:1|0:0,0:0:0:0:
0,163,36747,2,0,P|25:180|84:178,1,66.0000025177003,2|0,1:2|0:0,0:0:0:0:
85,1,36919,6,0,P|132:47|107:133,1,132.000005035401,0|2,3:0|1:2,0:0:0:0:
49,102,37178,1,2,1:2:0:0:
0,163,37264,2,0,P|25:180|84:178,1,66.0000025177003,8|0,3:1|0:0,0:0:0:0:
216,107,37436,2,0,L|325:105,1,66.0000025177003,2|0,1:2|0:0,0:0:0:0:
365,54,37609,5,0,0:0:0:0:
371,127,37695,2,0,P|359:157|317:188,1,66.0000025177003,2|0,1:2|0:0,0:0:0:0:
463,195,37868,5,0,0:0:0:0:
397,164,37954,2,0,P|364:165|321:193,1,66.0000025177003,8|0,3:1|0:0,0:0:0:0:
381,320,38126,2,0,L|386:235,1,66.0000025177003,2|2,1:2|1:2,0:0:0:0:
464,76,38299,5,0,3:0:0:0:
482,70,38385,1,0,0:0:0:0:
477,89,38471,1,2,1:2:0:0:
471,67,38557,1,0,1:0:0:0:
483,81,38643,1,8,3:1:0:0:
465,85,38729,1,0,1:0:0:0:
474,78,38816,2,0,L|401:134,1,66.0000025177003,2|0,1:2|0:0,0:0:0:0:
261,226,38988,6,0,P|274:290|351:309,1,132.000005035401,0|2,3:0|0:0,0:0:0:0:
384,254,39247,1,0,0:0:0:0:
459,280,39333,2,0,P|441:314|409:328,1,66.0000025177003,8|0,3:1|0:0,0:0:0:0:
245,363,39505,2,0,L|235:285,1,66.0000025177003,2|0,1:2|0:0,0:0:0:0:
141,336,39678,2,0,L|151:258,1,66.0000025177003,0|0,3:0|0:0,0:0:0:0:
47,229,39850,6,0,P|112:190|115:108,1,132.000005035401,2|8,1:2|3:1,0:0:0:0:
0,105,40109,5,0,0:0:0:0:
0,105,40195,2,0,P|18:134|52:148,1,66.0000025177003,2|2,0:0|0:0,0:0:0:0:
120,31,40368,5,0,3:0:0:0:
120,31,40454,2,0,P|90:45|73:73,1,66.0000025177003,0|2,0:0|1:2,0:0:0:0:
186,81,40626,5,0,0:0:0:0:
258,82,40712,2,0,L|350:84,1,66.0000025177003,8|0,3:1|0:0,0:0:0:0:
397,84,40885,2,0,L|489:86,1,66.0000025177003,2|0,1:2|0:0,0:0:0:0:
325,199,41057,5,0,3:0:0:0:
253,198,41143,1,0,1:0:0:0:
174,228,41230,2,0,P|169:199|177:161,1,66.0000025177003,2|0,3:2|0:0,0:0:0:0:
419,157,41402,2,0,P|427:195|420:234,1,79.1999975830079,8|0,3:1|0:0,0:0:0:0:
152,235,41574,2,0,P|145:194|156:153,1,79.1999975830079,2|0,1:2|0:0,0:0:0:0:
325,199,41747,6,0,P|325:273|381:328,1,132.000005035401,0|2,3:0|0:0,0:0:0:0:
436,331,42005,1,0,0:0:0:0:
476,262,42092,2,0,P|438:251|401:261,1,66.0000025177003,8|0,3:1|0:0,0:0:0:0:
258,355,42264,2,0,P|264:318|290:288,1,66.0000025177003,2|0,1:2|0:0,0:0:0:0:
153,300,42436,2,0,P|177:271|214:258,1,66.0000025177003,0|0,3:0|0:0,0:0:0:0:
436,331,42609,6,0,L|296:334,1,132.000005035401,2|8,1:2|3:1,0:0:0:0:
89,199,42954,2,0,P|124:186|163:193,1,66.0000025177003,2|0,1:2|0:0,0:0:0:0:
326,118,43125,5,0,0:0:0:0:
295,48,43212,2,0,P|268:69|250:122,1,66.0000025177003,2|0,1:2|0:0,0:0:0:0:
92,118,43385,5,0,0:0:0:0:
123,47,43471,2,0,P|150:68|168:121,1,66.0000025177003,8|0,3:1|0:0,0:0:0:0:
325,199,43643,2,0,P|289:186|250:193,1,66.0000025177003,2|2,1:2|1:2,0:0:0:0:
63,323,43815,5,0,3:0:0:0:
71,306,43901,1,0,0:0:0:0:
59,310,43988,1,2,1:2:0:0:
75,319,44074,1,0,1:0:0:0:
59,310,44161,1,8,3:1:0:0:
71,306,44247,1,0,0:0:0:0:
63,323,44333,2,0,L|146:319,1,66.0000025177003,0|0,1:0|0:0,0:0:0:0:
291,209,44505,6,0,P|260:284|291:327,1,132.000005035401,0|2,3:0|0:0,0:0:0:0:
361,338,44764,1,0,0:0:0:0:
431,302,44850,2,0,P|408:273|358:264,1,66.0000025177003,8|0,3:1|0:0,0:0:0:0:
179,237,45023,2,0,P|202:266|252:275,1,66.0000025177003,2|0,1:2|0:0,0:0:0:0:
447,266,45195,6,0,L|364:262,1,66.0000025177003,0|0,3:0|0:0,0:0:0:0:
162,272,45368,2,0,L|245:276,1,66.0000025177003,2|0,1:2|0:0,0:0:0:0:
445,191,45540,5,8,3:1:0:0:
443,151,45626,1,0,0:0:0:0:
442,111,45712,1,0,1:0:0:0:
440,71,45799,1,2,1:2:0:0:
367,52,45885,6,0,P|415:62|380:27,1,132.000005035401,2|0,3:1|0:0,0:0:0:0:
295,115,46143,6,0,P|247:126|281:91,1,132.000005035401,2|0,0:1|0:0,0:0:0:0:
357,186,46402,6,0,L|351:233,3,33.0000012588501,2|0|0|0,0:1|0:0|3:0|0:0,0:0:0:0:
445,191,46574,1,0,3:0:0:0:
290,0,46747,1,0,3:0:0:0:
283,321,46919,1,12,3:2:0:0:
67,191,47264,6,0,B|79:210|79:210|91:192,1,43.9511638831486,4|0,3:2|0:0,0:0:0:0:
206,150,47609,6,0,P|91:178|66:63,1,264,8|0,3:1|0:0,0:0:0:0:
197,70,47954,6,0,B|220:65|220:65|234:69|234:69|267:61,1,66.0000025177003,0|0,3:0|0:0,0:0:0:0:
283,131,48126,2,0,B|306:126|306:126|320:130|320:130|353:122,1,66.0000025177003,0|2,1:2|0:0,0:0:0:0:
487,100,48299,6,0,P|472:110|478:88,1,43.9511638831486,8|0,3:1|0:0,0:0:0:0:
475,0,48643,6,0,B|435:56|435:56|472:256,1,264,0|0,3:0|1:0,0:0:0:0:
491,351,48988,6,0,P|453:351|409:324,1,66.0000025177003,8|0,3:1|0:0,0:0:0:0:
394,268,49161,2,0,P|356:268|312:295,1,66.0000025177003,0|2,1:0|0:0,0:0:0:0:
197,352,49332,5,0,3:0:0:0:
184,345,49419,1,2,0:0:0:0:
140,359,49505,5,2,1:0:0:0:
134,350,49592,1,0,0:0:0:0:
97,334,49678,5,8,3:1:0:0:
96,327,49765,1,2,0:0:0:0:
83,297,49850,5,2,1:0:0:0:
85,293,49937,1,2,0:0:0:0:
94,268,50023,6,0,P|102:242|99:220,1,43.9511638831486,0|0,3:0|1:0,0:0:0:0:
201,192,50368,6,0,P|119:213|95:42,1,264,8|0,3:1|0:0,0:0:0:0:
140,72,50712,1,0,3:0:0:0:
216,55,50799,1,0,0:0:0:0:
290,33,50885,2,0,L|284:118,1,66.0000025177003,2|0,1:2|0:0,0:0:0:0:
465,221,51057,6,0,L|461:169,1,43.9511638831486,8|0,3:1|0:0,0:0:0:0:
405,61,51402,6,0,P|434:170|392:315,1,264,0|0,3:0|1:0,0:0:0:0:
302,276,51747,2,0,P|269:270|232:271,1,66.0000025177003,8|0,3:1|0:0,0:0:0:0:
215,344,51919,2,0,P|182:350|145:349,1,66.0000025177003,0|2,1:0|0:0,0:0:0:0:
67,126,52092,6,0,P|7:210|108:189,1,264.000010070801,2|0,3:2|0:0,0:0:0:0:
142,123,52436,1,8,3:1:0:0:
148,113,52609,5,2,3:1:0:0:
136,217,52695,1,0,3:0:0:0:
124,321,52781,6,0,B|193:291|255:322|255:322|316:351|387:320,1,264,0|0,3:0|0:0,0:0:0:0:
487,290,53126,2,0,L|471:210,1,66.0000025177003,8|0,3:1|0:0,0:0:0:0:
398,204,53299,2,0,L|414:124,1,66.0000025177003,2|0,0:0|1:0,0:0:0:0:
488,21,53471,1,0,3:0:0:0:
488,21,53557,1,0,0:0:0:0:
488,21,53643,2,0,P|457:37|406:32,1,66.0000025177003,0|2,1:0|0:0,0:0:0:0:
205,7,53816,6,0,P|217:27|211:52,1,43.9511638831486,8|0,3:1|0:0,0:0:0:0:
303,146,54161,6,0,P|226:128|332:80,1,264,0|0,3:0|1:0,0:0:0:0:
410,139,54505,2,0,B|406:159|406:159|408:180|408:180|403:204,1,66.0000025177003,8|0,3:1|0:0,0:0:0:0:
474,225,54678,2,0,B|470:245|470:245|472:266|472:266|467:290,1,66.0000025177003,0|2,1:0|0:0,0:0:0:0:
343,351,54850,5,0,3:0:0:0:
317,343,54936,1,2,0:0:0:0:
283,301,55023,5,2,1:0:0:0:
266,306,55109,1,0,0:0:0:0:
226,340,55195,5,8,3:1:0:0:
213,336,55281,1,2,0:0:0:0:
164,313,55368,5,2,1:0:0:0:
156,316,55454,1,2,0:0:0:0:
104,327,55540,6,0,P|31:309|128:207,1,264,0|0,3:0|1:0,0:0:0:0:
127,121,55885,2,0,P|165:147|175:200,1,66.0000025177003,8|0,3:1|0:0,0:0:0:0:
220,121,56057,2,0,P|181:147|172:200,1,66.0000025177003,0|2,1:0|0:0,0:0:0:0:
164,26,56230,2,0,L|183:302,1,264,0|2,3:0|0:1,0:0:0:0:
82,261,56574,1,8,3:1:0:0:
73,258,56747,5,2,3:2:0:0:
182,289,56833,1,2,3:2:0:0:
291,320,56919,1,4,3:2:0:0:
291,320,57178,5,4,3:2:0:0:
291,320,57436,5,4,3:2:0:0:
434,188,57609,2,0,B|447:164|447:164|440:205|451:260,1,88,0|0,0:0|0:0,0:0:0:0:
386,353,57781,6,0,B|414:359|414:359|378:380,1,44,0|0,1:0|0:0,0:0:0:0:
396,331,57868,2,0,B|424:337|424:337|388:358,1,44,0|0,1:0|0:0,0:0:0:0:
402,311,57954,2,0,P|412:183|383:41,1,264,0|2,1:0|0:0,0:0:0:0:
296,47,58299,5,0,3:0:0:0:
264,61,58385,1,0,1:0:0:0:
232,75,58471,1,2,0:2:0:0:
170,37,58557,1,0,1:0:0:0:
82,67,58643,6,0,L|73:209,1,132.000005035401,8|2,3:1|0:2,0:0:0:0:
68,271,58902,1,0,1:0:0:0:
61,343,58988,5,0,3:0:0:0:
100,338,59074,1,0,1:0:0:0:
120,335,59161,1,2,1:2:0:0:
139,332,59247,1,2,0:0:0:0:
222,370,59333,6,0,P|245:313|323:369,1,132.000005035401,8|2,3:1|1:2,0:0:0:0:
353,374,59592,1,2,1:2:0:0:
431,330,59678,5,0,3:0:0:0:
436,304,59764,1,0,1:0:0:0:
441,278,59850,1,0,0:0:0:0:
446,252,59936,1,0,0:0:0:0:
359,233,60023,5,8,3:1:0:0:
354,207,60109,1,2,0:0:0:0:
349,181,60195,1,2,1:2:0:0:
344,155,60281,1,0,1:0:0:0:
440,110,60368,5,0,3:0:0:0:
461,89,60454,2,0,B|407:63|384:105|324:71,1,132.000005035401,0|0,1:0|0:0,0:0:0:0:
274,32,60712,1,8,3:1:0:0:
274,32,60799,2,0,P|290:106|225:110,1,132.000005035401,2|0,1:2|0:0,0:0:0:0:
67,76,61057,5,0,3:0:0:0:
105,83,61143,1,2,0:0:0:0:
93,67,61230,1,2,0:0:0:0:
83,50,61316,1,0,0:2:0:0:
121,57,61402,5,8,3:1:0:0:
87,243,61574,1,0,1:0:0:0:
87,243,61661,1,2,0:0:0:0:
87,243,61747,2,0,B|77:248|77:248|95:184,1,66.0000025177003,0|2,3:0|0:2,0:0:0:0:
168,314,61919,2,0,B|178:319|178:319|160:255,1,66.0000025177003,0|2,1:0|0:0,0:0:0:0:
172,153,62092,6,0,P|233:206|286:198,1,132.000005035401,8|2,3:1|0:0,0:0:0:0:
318,131,62350,1,2,0:0:0:0:
318,131,62436,2,0,L|306:293,1,132.000005035401,0|2,3:0|0:0,0:0:0:0:
301,335,62695,1,0,0:0:0:0:
300,348,62781,5,8,3:1:0:0:
339,343,62868,1,0,0:0:0:0:
378,338,62954,1,2,1:2:0:0:
417,333,63040,1,2,0:0:0:0:
502,373,63126,5,0,3:0:0:0:
507,378,63212,1,8,0:2:0:0:
512,384,63299,2,0,L|499:310,1,66.0000025177003,0|0,1:0|0:0,0:0:0:0:
389,242,63471,1,8,3:1:0:0:
398,196,63557,1,0,3:0:0:0:
408,151,63643,2,0,L|419:85,1,66.0000025177003,0|0,3:0|0:0,0:0:0:0:
497,31,63816,5,0,3:0:0:0:
461,48,63902,1,0,1:0:0:0:
425,65,63988,1,2,0:0:0:0:
358,36,64074,1,0,1:0:0:0:
277,83,64161,6,0,B|288:117|288:117|265:245,1,132.000005035401,8|2,3:1|0:0,0:0:0:0:
256,282,64419,1,0,1:0:0:0:
241,352,64505,5,0,3:0:0:0:
202,342,64592,1,0,1:0:0:0:
182,337,64678,1,2,1:2:0:0:
162,332,64764,1,0,0:0:0:0:
80,374,64850,6,0,P|36:368|54:281,1,132.000005035401,8|2,3:1|1:2,0:0:0:0:
94,256,65109,1,2,1:2:0:0:
187,258,65196,5,0,3:0:0:0:
209,243,65282,1,0,1:0:0:0:
220,218,65368,1,0,0:0:0:0:
213,191,65454,1,0,0:0:0:0:
122,174,65540,5,8,3:1:0:0:
100,159,65626,1,2,0:0:0:0:
89,134,65712,1,2,1:2:0:0:
96,107,65798,1,0,1:0:0:0:
201,94,65885,5,0,3:0:0:0:
223,114,65971,2,0,B|250:129|284:110|284:106|283:102|322:72|354:95,1,132.000005035401,0|0,1:0|0:0,0:0:0:0:
412,130,66230,1,8,3:1:0:0:
412,130,66316,2,0,P|382:90|439:97,1,132.000005035401,2|0,1:2|0:0,0:0:0:0:
486,241,66574,6,0,B|403:271|403:271|308:229,1,176,4|0,3:2|0:0,0:0:0:0:
262,280,66833,6,0,B|315:255|315:255|290:203|290:203|236:228,1,176,4|0,3:2|0:0,0:0:0:0:
269,352,67092,6,0,L|273:386,1,22,8|0,0:1|0:0,0:0:0:0:
486,241,67264,6,0,P|399:266|296:205,1,176,4|0,3:2|0:0,0:0:0:0:
262,280,67523,6,0,P|298:223|234:247,1,176,4|0,3:2|0:0,0:0:0:0:
254,351,67782,6,0,L|250:385,1,22,8|0,3:1|1:0,0:0:0:0:
82,355,67954,5,0,3:0:0:0:
114,325,68040,1,2,0:0:0:0:
124,281,68126,1,0,1:0:0:0:
120,238,68212,1,0,3:0:0:0:
94,201,68299,1,2,0:0:0:0:
81,158,68385,1,0,1:0:0:0:
91,115,68471,1,0,3:0:0:0:
120,82,68557,2,0,L|145:68,1,16.5000006294251,0|0,0:0|0:0,0:0:0:0:
157,6,68643,6,0,P|193:29|206:70,1,88,0|0,3:0|0:0,0:0:0:0:
255,5,68816,2,0,P|219:28|206:70,1,88,0|0,3:0|0:0,0:0:0:0:
454,78,68988,6,0,B|341:144|329:2|204:71,1,264.000010070801,4|0,3:2|0:0,0:0:0:0:
206,69,69333,6,0,P|227:111|299:135,1,105.599996777344,4|0,0:2|0:0,0:0:0:0:
394,17,69678,1,0,0:0:0:0:
356,173,69850,1,0,0:0:0:0:
443,151,70023,2,0,P|446:182|424:229,2,52.7999983886719,0|0|0,0:0|0:0|0:0,0:0:0:0:
356,173,70368,1,2,0:0:0:0:
364,254,70540,2,0,P|384:278|432:295,1,52.7999983886719,2|0,0:0|0:0,0:0:0:0:
418,298,70712,6,0,P|375:290|281:316,1,105.599996777344,0|2,0:0|0:0,0:0:0:0:
234,349,71057,1,2,0:0:0:0:
230,195,71230,1,2,0:0:0:0:
232,358,71402,2,0,P|212:375|176:383,1,52.7999983886719,2|0,0:0|0:0,0:0:0:0:
166,261,71574,1,2,0:0:0:0:
163,266,71747,2,0,P|166:285|178:306,6,26.399999194336,2|0|0|0|0|0|0,0:0|0:0|0:0|0:0|0:0|0:0|0:0,0:0:0:0:
60,379,72092,6,0,P|85:332|76:269,1,105.599996777344,2|0,0:2|0:0,0:0:0:0:
25,188,72436,1,0,0:0:0:0:
106,206,72609,1,0,0:0:0:0:
165,108,72781,1,0,0:0:0:0:
84,126,72954,1,0,0:0:0:0:
246,126,73126,5,2,0:0:0:0:
222,47,73299,1,2,0:0:0:0:
189,187,73471,1,2,0:0:0:0:
327,146,73643,1,2,0:0:0:0:
304,66,73816,5,2,0:0:0:0:
269,206,73988,1,2,0:0:0:0:
408,167,74161,1,0,0:0:0:0:
246,126,74333,1,0,0:0:0:0:
384,86,74505,1,2,0:0:0:0:
304,66,74678,1,2,0:0:0:0:
466,107,74850,6,0,P|491:160|469:223,1,105.599996777344,2|0,0:0|0:0,0:0:0:0:
354,230,75195,1,2,0:0:0:0:
354,230,75281,1,0,0:0:0:0:
354,230,75368,1,2,0:0:0:0:
437,333,75540,2,0,P|428:310|429:279,2,52.7999983886719,10|0|0,0:0|0:0|0:0,0:0:0:0:
481,212,75885,1,2,0:0:0:0:
436,332,76057,2,0,P|413:318|387:314,1,52.7999983886719,10|0,0:0|0:0,0:0:0:0:
373,323,76230,6,0,P|304:339|258:318,1,105.599996777344,2|2,0:0|0:0,0:0:0:0:
241,142,76574,1,0,0:0:0:0:
317,249,76747,1,2,0:0:0:0:
215,272,76919,2,0,P|232:252|239:227,1,52.7999983886719,8|0,0:2|0:0,0:0:0:0:
158,215,77092,1,0,0:0:0:0:
323,169,77264,1,2,0:0:0:0:
272,328,77436,2,0,P|255:346|203:351,1,52.7999983886719,8|2,0:2|0:0,0:0:0:0:
150,357,77609,5,0,1:2:0:0:
81,330,77695,1,2,1:2:0:0:
54,261,77781,1,0,1:0:0:0:
71,188,77868,1,0,0:0:0:0:
158,215,77954,5,0,0:0:0:0:
173,216,78040,1,2,0:0:0:0:
171,232,78126,1,0,1:0:0:0:
156,230,78213,1,0,0:0:0:0:
165,142,78299,2,0,L|170:55,1,52.7999983886719,0|2,0:0|0:0,0:0:0:0:
251,18,78471,5,0,1:0:0:0:
302,6,78557,1,0,0:0:0:0:
351,25,78643,2,0,P|361:59|343:103,1,66.0000025177003,8|2,0:0|0:0,0:0:0:0:
441,148,78816,2,0,P|415:173|369:180,1,66.0000025177003,0|2,1:0|0:0,0:0:0:0:
257,133,78988,6,0,P|261:142|278:149,1,22,0|0,0:0|0:0,0:0:0:0:
245,172,79074,2,0,P|251:179|270:179,1,22,2|0,0:0|0:0,0:0:0:0:
251,213,79161,2,0,P|259:217|277:211,1,22,2|0,0:0|0:0,0:0:0:0:
272,248,79247,2,0,P|281:249|296:237,1,22,0|0,0:0|0:0,0:0:0:0:
305,272,79333,2,0,P|314:269|324:254,1,22,8|0,0:0|0:0,0:0:0:0:
345,281,79419,2,0,P|353:275|357:257,1,22,0|0,0:0|0:0,0:0:0:0:
385,273,79505,2,0,P|390:265|388:246,1,22,0|0,0:0|0:0,0:0:0:0:
419,250,79592,2,0,P|421:240|413:224,1,22,0|0,0:0|0:0,0:0:0:0:
442,217,79678,6,0,P|392:191|332:208,1,88,8|2,0:0|0:0,0:0:0:0:
281,56,79850,6,0,P|282:89|226:139,1,77.0000007343292,8|0,0:0|0:0,0:0:0:0:
59,331,80023,6,0,P|72:314|99:307,1,43.9511638831486,10|0,0:0|0:0,0:0:0:0:
179,335,80368,5,4,3:1:0:0:
109,315,80454,1,10,0:0:0:0:
79,248,80540,1,0,0:0:0:0:
103,179,80626,1,0,1:0:0:0:
200,173,80712,5,8,3:1:0:0:
196,199,80799,1,2,0:0:0:0:
193,225,80885,1,0,1:0:0:0:
191,251,80971,1,2,0:0:0:0:
249,315,81057,5,0,3:0:0:0:
301,314,81143,1,0,1:0:0:0:
354,312,81230,1,0,0:0:0:0:
406,310,81316,1,2,0:0:0:0:
458,308,81402,5,8,3:1:0:0:
412,305,81488,1,2,0:0:0:0:
450,311,81574,1,10,1:2:0:0:
419,304,81661,1,0,1:0:0:0:
443,312,81747,6,0,P|425:236|441:166,1,132.000005035401,0|2,3:0|0:0,0:0:0:0:
462,117,82005,1,2,1:2:0:0:
496,52,82092,2,0,L|384:41,1,66.0000025177003,8|0,3:1|0:0,0:0:0:0:
358,37,82264,2,0,L|246:26,1,66.0000025177003,0|0,1:0|0:0,0:0:0:0:
179,16,82436,6,0,P|165:60|171:108,1,88,2|0,3:2|0:0,0:0:0:0:
285,138,82609,2,0,P|299:94|293:46,1,88,0|2,1:0|0:0,0:0:0:0:
173,16,82781,6,0,P|159:60|165:108,1,88,8|2,3:1|0:0,0:0:0:0:
291,140,82954,2,0,P|305:96|299:48,1,88,10|0,1:2|1:0,0:0:0:0:
60,72,83126,5,0,3:0:0:0:
72,143,83212,1,10,0:0:0:0:
129,188,83299,1,0,0:0:0:0:
201,188,83385,1,0,1:0:0:0:
184,263,83471,5,8,3:1:0:0:
236,261,83557,1,2,0:0:0:0:
281,235,83643,1,0,1:0:0:0:
297,184,83730,1,2,0:0:0:0:
257,102,83816,5,0,3:0:0:0:
294,90,83902,1,0,1:0:0:0:
256,98,83988,1,0,0:0:0:0:
294,93,84074,1,2,0:0:0:0:
256,95,84161,1,8,3:1:0:0:
294,96,84247,1,2,0:0:0:0:
256,91,84333,1,10,1:2:0:0:
294,100,84419,1,0,1:0:0:0:
280,23,84505,6,0,L|272:199,1,176,0|2,3:0|0:0,0:0:0:0:
331,321,84764,1,2,1:2:0:0:
331,321,84850,2,0,P|291:306|270:269,1,88,8|0,3:1|0:0,0:0:0:0:
204,315,85023,2,0,P|245:303|270:268,1,88,0|0,1:0|0:0,0:0:0:0:
157,193,85195,5,2,3:2:0:0:
163,204,85281,1,0,0:0:0:0:
175,197,85368,1,0,1:0:0:0:
168,186,85454,1,2,0:0:0:0:
148,190,85540,5,8,3:1:0:0:
160,213,85626,1,2,0:0:0:0:
184,198,85713,1,10,1:2:0:0:
170,177,85799,1,2,1:2:0:0:
67,153,85885,5,0,3:0:0:0:
62,225,85971,1,10,0:0:0:0:
101,285,86057,1,0,0:0:0:0:
172,298,86143,1,0,1:0:0:0:
269,257,86230,5,8,3:1:0:0:
275,282,86316,1,2,0:0:0:0:
274,258,86402,1,0,1:0:0:0:
270,282,86488,1,2,0:0:0:0:
351,368,86574,5,0,3:0:0:0:
359,315,86661,1,0,1:0:0:0:
366,262,86747,1,0,0:0:0:0:
373,209,86833,1,2,0:0:0:0:
465,210,86919,5,8,3:1:0:0:
461,183,87006,1,2,0:0:0:0:
458,157,87092,1,10,1:2:0:0:
454,130,87178,1,0,1:0:0:0:
450,99,87264,6,0,P|378:130|285:76,1,176,0|2,3:0|0:0,0:0:0:0:
240,41,87523,1,2,1:2:0:0:
166,36,87609,2,0,B|140:24|140:24|166:101,1,88,8|0,3:1|0:0,0:0:0:0:
76,60,87781,2,0,B|47:63|47:63|108:117,1,88,0|0,1:0|0:0,0:0:0:0:
256,176,87954,6,0,P|209:168|138:193,1,88,2|0,3:2|0:0,0:0:0:0:
64,223,88126,5,0,1:0:0:0:
73,239,88212,1,2,0:0:0:0:
73,223,88299,1,8,3:1:0:0:
64,239,88385,1,2,0:0:0:0:
78,231,88471,1,10,1:2:0:0:
60,231,88557,1,0,1:0:0:0:
50,319,88643,5,0,3:0:0:0:
119,343,88730,1,10,0:0:0:0:
185,314,88816,1,0,0:0:0:0:
200,243,88902,1,0,1:0:0:0:
304,195,88988,5,8,3:1:0:0:
299,220,89074,1,2,0:0:0:0:
294,246,89161,1,0,1:0:0:0:
290,272,89247,1,2,0:0:0:0:
366,333,89333,5,0,3:0:0:0:
378,337,89419,1,0,1:0:0:0:
375,324,89505,1,0,0:0:0:0:
367,336,89592,5,2,0:0:0:0:
380,333,89678,1,8,3:1:0:0:
371,323,89764,1,2,0:0:0:0:
370,338,89850,5,10,1:2:0:0:
380,329,89936,1,0,1:0:0:0:
367,325,90023,6,0,B|453:356|453:356|436:206,1,176,0|2,3:0|0:0,0:0:0:0:
505,229,90281,1,2,1:2:0:0:
466,166,90368,2,0,B|433:147|433:147|438:197,1,88,8|0,3:1|0:0,0:0:0:0:
255,179,90540,2,0,B|288:198|288:198|283:148,1,88,0|0,1:0|0:0,0:0:0:0:
367,234,90712,2,0,L|355:125,1,88,2|2,3:2|0:0,0:0:0:0:
344,28,90885,2,0,L|350:78,3,44,0|0|0|0,1:0|0:0|1:0|0:0,0:0:0:0:
261,60,91057,5,2,3:2:0:0:
429,45,91143,1,2,3:2:0:0:
349,71,91230,1,0,3:0:0:0:
100,46,91402,5,4,3:2:0:0:
77,121,91488,1,10,0:0:0:0:
111,192,91574,1,0,0:0:0:0:
187,216,91661,1,0,1:0:0:0:
290,166,91747,5,8,3:1:0:0:
297,191,91833,1,2,0:0:0:0:
305,215,91919,1,0,1:0:0:0:
313,239,92005,1,2,0:0:0:0:
255,327,92092,5,0,3:0:0:0:
215,303,92178,1,0,1:0:0:0:
179,342,92264,5,0,0:0:0:0:
162,311,92350,1,2,0:0:0:0:
110,327,92436,5,8,3:1:0:0:
110,300,92522,1,2,0:0:0:0:
57,290,92609,5,10,1:2:0:0:
67,272,92695,1,0,1:0:0:0:
36,203,92781,6,0,P|110:158|71:89,1,176,0|2,3:0|0:0,0:0:0:0:
8,66,93040,1,2,1:2:0:0:
66,20,93126,2,0,L|188:18,1,88,8|0,3:1|0:0,0:0:0:0:
178,88,93299,2,0,L|300:86,1,88,0|0,1:0|0:0,0:0:0:0:
460,118,93471,2,0,P|465:78|405:-7,1,88,2|0,3:2|0:0,0:0:0:0:
470,116,93644,2,0,P|475:76|415:-9,1,88,0|2,1:0|0:0,0:0:0:0:
352,85,93816,5,8,3:1:0:0:
361,94,93902,1,2,0:0:0:0:
371,85,93988,1,10,1:2:0:0:
361,74,94074,1,0,0:0:0:0:
265,86,94161,5,0,3:0:0:0:
285,162,94247,1,10,0:0:0:0:
356,196,94333,1,0,0:0:0:0:
433,181,94419,1,0,1:0:0:0:
505,259,94505,5,8,3:1:0:0:
501,271,94592,1,2,0:0:0:0:
498,283,94678,1,0,1:0:0:0:
495,295,94764,1,2,0:0:0:0:
417,348,94850,5,0,3:0:0:0:
365,336,94936,1,0,1:0:0:0:
313,321,95023,1,0,0:0:0:0:
262,306,95109,1,2,0:0:0:0:
212,367,95195,5,8,3:1:0:0:
173,358,95281,1,2,0:0:0:0:
133,346,95368,1,10,1:2:0:0:
95,335,95454,1,0,1:0:0:0:
26,369,95540,6,0,B|68:326|68:326|50:159,1,176,0|2,3:0|0:0,0:0:0:0:
43,140,95799,1,2,1:2:0:0:
105,75,95885,2,0,L|118:179,1,88,8|0,3:1|0:0,0:0:0:0:
200,16,96057,2,0,L|187:120,1,88,0|0,1:0|0:0,0:0:0:0:
162,256,96230,5,2,3:2:0:0:
158,273,96316,1,0,0:0:0:0:
163,251,96402,5,0,1:0:0:0:
157,277,96488,1,2,0:0:0:0:
163,248,96574,5,8,3:1:0:0:
156,280,96660,1,2,0:0:0:0:
164,245,96747,5,10,1:2:0:0:
155,283,96833,1,2,3:2:0:0:
238,342,96919,5,0,3:0:0:0:
316,338,97005,1,10,0:0:0:0:
375,283,97092,1,0,0:0:0:0:
373,203,97178,1,0,1:0:0:0:
307,147,97264,5,8,3:1:0:0:
247,175,97350,1,2,0:0:0:0:
183,158,97436,1,0,1:0:0:0:
155,97,97523,1,2,0:0:0:0:
225,18,97609,5,0,3:0:0:0:
254,61,97695,1,0,1:0:0:0:
289,21,97781,5,0,0:0:0:0:
298,58,97867,1,2,0:0:0:0:
350,40,97954,5,8,3:1:0:0:
346,69,98040,1,2,0:0:0:0:
394,79,98126,5,10,1:2:0:0:
384,98,98212,1,0,1:0:0:0:
452,138,98299,6,0,P|477:228|453:318,1,176,0|2,3:0|0:0,0:0:0:0:
407,359,98557,1,2,1:2:0:0:
336,372,98643,2,0,P|332:329|351:285,1,88,8|0,3:1|0:0,0:0:0:0:
221,327,98816,2,0,P|239:287|277:259,1,88,0|0,1:0|0:0,0:0:0:0:
365,193,98988,6,0,B|318:195|318:195|301:184|301:184|249:186,1,110,2|0,3:2|0:0,0:0:0:0:
60,174,99161,5,0,1:0:0:0:
79,177,99247,1,2,0:0:0:0:
72,158,99333,1,8,3:1:0:0:
52,176,99419,1,2,0:0:0:0:
86,181,99505,1,10,1:2:0:0:
74,148,99592,1,0,1:2:0:0:
57,258,99678,5,0,3:0:0:0:
135,260,99764,1,10,0:0:0:0:
180,195,99850,1,0,0:0:0:0:
158,118,99936,1,0,1:0:0:0:
260,89,100023,5,8,3:1:0:0:
256,113,100109,1,2,0:0:0:0:
261,82,100195,1,0,1:0:0:0:
255,119,100281,1,2,0:0:0:0:
346,122,100368,5,0,3:0:0:0:
339,167,100454,1,0,1:0:0:0:
333,212,100540,1,0,0:0:0:0:
327,257,100626,1,2,0:0:0:0:
418,256,100712,5,8,3:1:0:0:
415,282,100799,1,2,0:0:0:0:
412,308,100885,1,10,1:2:0:0:
409,334,100971,1,2,1:2:0:0:
315,335,101057,6,0,B|243:332|243:332|217:346|217:346|139:341,1,176,0|2,3:0|0:0,0:0:0:0:
71,339,101316,1,8,1:2:0:0:
0,333,101402,2,0,B|0:289|0:289|22:235,1,88,8|2,3:1|1:2,0:0:0:0:
214,184,101574,2,0,B|214:228|214:228|192:282,1,88,2|0,3:2|0:0,0:0:0:0:
126,255,101747,5,0,3:0:0:0:
94,244,101833,6,0,P|85:230|84:203,1,33.0000012588501,0|0,1:0|1:0,0:0:0:0:
99,174,101919,6,0,P|116:118|91:64,1,110,4|0,3:2|0:0,0:0:0:0:
49,19,102092,5,2,3:2:0:0:
137,30,102178,1,2,3:2:0:0:
225,40,102264,1,2,3:2:0:0:
5,39,102436,6,0,L|152:28,1,132.000005035401,4|2,3:2|0:0,0:0:0:0:
225,40,102695,1,0,0:0:0:0:
224,48,102781,1,8,3:1:0:0:
224,56,102868,2,0,P|292:72|360:52,1,132.000005035401,2|0,0:0|0:0,0:0:0:0:
448,4,103126,2,0,B|472:65|472:65|469:133,1,132.000005035401,0|2,3:0|0:0,0:0:0:0:
298,229,103471,2,0,L|303:135,1,66.0000025177003,8|0,3:1|0:0,0:0:0:0:
379,209,103643,2,0,L|384:115,1,66.0000025177003,2|2,0:0|0:0,0:0:0:0:
490,304,103816,6,0,L|296:279,1,132.000005035401,0|2,3:0|0:0,0:0:0:0:
298,229,104074,1,0,0:0:0:0:
219,308,104161,2,0,P|290:276|296:223,1,132.000005035401,8|2,3:1|0:0,0:0:0:0:
85,215,104505,5,0,3:0:0:0:
157,225,104592,1,2,0:0:0:0:
228,238,104678,1,2,0:0:0:0:
33,274,104850,1,8,3:1:0:0:
33,274,104936,1,2,0:0:0:0:
50,9,105109,1,2,0:0:0:0:
50,9,105195,6,0,L|75:159,1,132.000005035401,0|2,3:0|0:0,0:0:0:0:
157,225,105454,2,0,L|146:159,1,66.0000025177003,0|8,0:0|3:1,0:0:0:0:
131,48,105626,1,2,0:0:0:0:
195,96,105712,2,0,P|253:112|318:83,1,132.000005035401,2|0,0:0|3:0,0:0:0:0:
316,84,105971,1,0,0:0:0:0:
316,84,106057,1,2,0:0:0:0:
347,280,106230,1,8,3:1:0:0:
347,280,106316,1,2,0:0:0:0:
471,19,106488,1,2,0:0:0:0:
471,19,106574,6,0,B|481:86|481:86|458:169,1,132.000005035401,0|2,3:0|0:0,0:0:0:0:
347,280,106919,2,0,L|385:139,1,132.000005035401,8|2,3:1|0:0,0:0:0:0:
442,221,107264,1,0,3:0:0:0:
423,297,107350,1,8,0:1:0:0:
401,373,107436,1,2,0:0:0:0:
398,81,107609,1,8,3:1:0:0:
398,81,107695,1,2,0:0:0:0:
278,227,107868,5,2,3:2:0:0:
187,234,107954,1,0,3:0:0:0:
96,241,108040,5,2,0:0:0:0:
93,267,108126,1,2,0:0:0:0:
91,293,108212,1,2,0:0:0:0:
90,319,108299,2,0,L|184:311,1,66.0000025177003,8|0,3:1|0:0,0:0:0:0:
228,308,108471,2,0,L|322:300,1,66.0000025177003,2|0,0:0|0:0,0:0:0:0:
192,102,108643,5,0,3:0:0:0:
192,102,108730,1,0,0:0:0:0:
192,102,108816,2,0,L|185:268,1,132.000005035401,2|8,0:0|3:1,0:0:0:0:
6,305,109074,2,0,P|60:303|90:217,1,132.000005035401,2|2,0:0|3:2,0:0:0:0:
35,194,109333,1,0,3:0:0:0:
102,168,109419,5,2,0:0:0:0:
105,148,109505,1,2,0:0:0:0:
108,128,109592,1,2,0:0:0:0:
111,108,109678,2,0,L|45:113,1,66.0000025177003,8|0,3:1|0:0,0:0:0:0:
257,96,109850,2,0,L|191:101,1,66.0000025177003,2|0,0:0|0:0,0:0:0:0:
344,200,110023,5,0,3:0:0:0:
344,200,110109,1,0,0:0:0:0:
344,200,110195,2,0,B|305:132|372:133|327:35,1,132.000005035401,2|8,0:0|3:1,0:0:0:0:
285,27,110454,2,0,P|364:41|421:-17,1,132.000005035401,2|2,0:0|0:0,0:0:0:0:
409,157,110712,6,0,L|430:219,1,66.0000025177003,0|0,3:0|0:0,0:0:0:0:
459,77,110885,2,0,L|484:148,1,66.0000025177003,2|0,0:0|0:0,0:0:0:0:
261,195,111057,1,8,3:1:0:0:
440,244,111230,1,2,0:0:0:0:
173,273,111402,1,0,3:0:0:0:
285,311,111574,1,2,0:0:0:0:
62,239,111747,5,8,3:1:0:0:
60,265,111833,1,2,0:0:0:0:
58,291,111919,1,2,3:2:0:0:
109,353,112005,1,2,3:2:0:0:
219,332,112092,6,0,P|231:288|230:229,1,88,4|0,3:2|0:0,0:0:0:0:
449,317,112350,1,8,3:1:0:0:
433,325,112436,1,0,1:0:0:0:
417,333,112523,1,2,0:0:0:0:
342,377,112609,6,0,P|330:333|331:274,1,88,0|0,3:0|0:0,0:0:0:0:
227,123,112781,6,0,L|224:188,1,44,0|0,0:0|0:0,0:0:0:0:
345,212,112954,6,0,L|348:169,4,44,0|0|0|0|8,1:0|1:0|1:0|1:0|3:1,0:0:0:0:
423,194,113212,5,0,1:0:0:0:
148,145,113385,5,2,1:0:0:0:
