osu file format v14

[General]
AudioFilename: audio.mp3
AudioLeadIn: 0
PreviewTime: 77609
Countdown: 0
SampleSet: Soft
StackLeniency: 0.3
Mode: 0
LetterboxInBreaks: 0
WidescreenStoryboard: 0

[Editor]
Bookmarks: 28816
DistanceSpacing: 1.2
BeatDivisor: 4
GridSize: 4
TimelineZoom: 2.000005

[Metadata]
Title:polygon
TitleUnicode:polygon
Artist:Sota Fujimori
ArtistUnicode:Sota Fujimori
Creator:Sebu
Version:digon
Source:jubeat copious
Tags:REFLEC BEAT CXu -GN -PC
BeatmapID:1050244
BeatmapSetID:422136

[Difficulty]
HPDrainRate:4
CircleSize:3.4
OverallDifficulty:5
ApproachRate:6
SliderMultiplier:1.76
SliderTickRate:1

[Events]
//Background and Video events
0,0,"polygonal_space_by_kanman142-d92loa3.jpg",0,0
//Break Periods
//Storyboard Layer 0 (Background)
//Storyboard Layer 1 (Fail)
//Storyboard Layer 2 (Pass)
//Storyboard Layer 3 (Foreground)
//Storyboard Sound Samples

[TimingPoints]
368,344.827586206897,4,2,1,40,1,0
368,-133.333333333333,4,2,1,40,0,0
3126,-133.333333333333,4,2,1,60,0,0
24333,-133.333333333333,4,2,1,60,0,0
25195,-133.333333333333,4,2,1,60,0,0
36230,-133.333333333333,4,2,1,60,0,0
69333,-133.333333333333,4,2,1,40,0,0
74850,-133.333333333333,4,2,1,60,0,0
77609,-133.333333333333,4,2,1,80,0,0
80368,-133.333333333333,4,2,1,70,0,1
102436,-133.333333333333,4,2,1,60,0,0
112092,-133.333333333333,4,2,1,60,0,0
113126,-133.333333333333,4,2,1,60,0,0

[Colours]
Combo1 : 141,40,223
Combo2 : 215,19,68
Combo3 : 180,95,216
Combo4 : 81,47,217

[HitObjects]
176,320,368,6,0,P|132:324|64:267,2,132.000005035401,0|8|8,1:0|0:0|0:0,0:0:0:0:
293,234,1402,1,10,1:2:0:0:
147,239,1747,6,0,L|179:96,1,132.000005035401,0|8,1:0|0:2,0:0:0:0:
53,32,2436,1,8,0:0:0:0:
197,21,2781,1,2,0:0:0:0:
91,120,3126,6,0,B|62:154|62:154|54:246,1,132.000005035401,4|8,3:2|3:1,0:0:0:0:
141,358,3816,2,0,B|170:324|170:324|178:232,1,132.000005035401,0|8,3:0|3:1,0:0:0:0:
61,324,4505,6,0,B|50:192,2,132.000005035401,2|8|0,3:2|3:1|3:0,0:0:0:0:
177,237,5540,1,8,3:1:0:0:
268,349,5885,6,0,P|286:290|286:220,1,132.000005035401,2|8,3:2|3:1,0:0:0:0:
376,106,6574,2,0,P|375:171|394:234,1,132.000005035401,0|8,3:0|3:1,0:0:0:0:
446,370,7264,6,0,P|494:324|512:252,2,132.000005035401,2|8|0,3:2|3:1|3:0,0:0:0:0:
323,291,8299,2,0,L|257:286,1,66.0000025177003,8|2,3:1|3:2,0:0:0:0:
179,282,8643,6,0,P|202:343|266:363,1,132.000005035401,4|8,3:2|3:1,0:0:0:0:
116,359,9333,2,0,P|99:285|113:229,1,132.000005035401,0|8,3:0|3:1,0:0:0:0:
257,286,10023,6,0,P|322:257|356:194,2,132.000005035401,2|8|0,3:2|3:1|3:0,0:0:0:0:
165,173,11057,1,8,3:1:0:0:
111,37,11402,6,0,B|201:37|201:37|236:71,1,132.000005035401,2|8,3:2|3:1,0:0:0:0:
95,118,12092,2,0,L|67:260,1,132.000005035401,0|8,3:0|3:1,0:0:0:0:
163,357,12781,6,0,L|148:249,2,99.0000037765504,4|4|4,3:2|3:2|3:2,0:0:0:0:
416,306,14161,6,0,B|375:323|375:323|278:295,1,132.000005035401,4|10,3:2|3:1,0:0:0:0:
208,175,14850,2,0,L|192:239,1,66.0000025177003,2|2,3:1|1:2,0:0:0:0:
176,316,15195,2,0,L|160:380,1,66.0000025177003,10|2,3:1|1:2,0:0:0:0:
83,359,15540,2,0,L|99:295,1,66.0000025177003,2|2,3:1|1:2,0:0:0:0:
115,218,15885,2,0,L|131:154,1,66.0000025177003,10|2,3:1|1:0,0:0:0:0:
147,76,16230,2,0,L|211:60,1,66.0000025177003,0|2,3:0|0:0,0:0:0:0:
229,136,16574,2,0,L|293:151,1,66.0000025177003,8|2,3:1|0:0,0:0:0:0:
304,228,16919,6,0,P|359:193|362:117,1,132.000005035401,0|10,3:0|3:1,0:0:0:0:
288,7,17609,2,0,L|308:72,1,66.0000025177003,2|2,3:1|1:2,0:0:0:0:
232,96,17954,2,0,L|211:158,1,66.0000025177003,10|2,3:1|1:2,0:0:0:0:
285,186,18299,2,0,L|305:251,1,66.0000025177003,2|2,3:1|1:2,0:0:0:0:
228,272,18644,2,0,L|207:334,1,66.0000025177003,10|2,3:1|1:0,0:0:0:0:
135,369,18988,2,0,L|114:303,1,66.0000025177003,2|2,3:2|0:2,0:0:0:0:
91,230,19333,2,0,L|70:164,1,66.0000025177003,8|2,3:1|3:2,0:0:0:0:
0,204,19678,6,0,B|45:342,1,132.000005035401,0|10,3:0|3:1,0:0:0:0:
215,299,20368,2,0,L|194:364,1,66.0000025177003,2|2,3:1|1:0,0:0:0:0:
115,357,20712,2,0,L|135:294,1,66.0000025177003,8|2,3:1|1:2,0:0:0:0:
157,217,21057,2,0,L|178:152,1,66.0000025177003,2|2,3:1|1:0,0:0:0:0:
257,159,21401,2,0,L|237:222,1,66.0000025177003,8|2,3:1|1:2,0:0:0:0:
215,299,21747,2,0,L|281:323,1,66.0000025177003,0|2,3:0|0:0,0:0:0:0:
311,250,22092,2,0,L|377:226,1,66.0000025177003,8|2,3:1|0:0,0:0:0:0:
449,207,22436,6,0,P|441:268|374:305,2,132.000005035401,0|12|0,3:0|0:2|3:0,0:0:0:0:
306,126,23471,2,0,L|304:196,1,66.0000025177003,12|0,0:0|3:0,0:0:0:0:
241,241,23816,2,0,L|249:317,1,66.0000025177003,12|0,0:0|3:0,0:0:0:0:
315,347,24161,1,12,0:0:0:0:
393,352,24333,2,0,B|428:354|472:315,2,66.0000025177003,0|4|0,3:0|3:2|3:0,0:0:0:0:
360,279,24850,1,4,3:2:0:0:
509,237,25195,6,0,P|506:276|479:311,1,66.0000025177003,4|0,3:2|0:0,0:0:0:0:
431,249,25540,1,0,3:0:0:0:
444,171,25712,1,2,0:0:0:0:
455,92,25885,2,0,L|391:69,1,66.0000025177003,0|2,3:0|0:0,0:0:0:0:
364,144,26230,1,0,3:0:0:0:
287,123,26402,1,2,0:0:0:0:
306,46,26574,6,0,B|256:33|256:33|174:54,1,132.000005035401,0|0,3:0|3:0,0:0:0:0:
132,118,27092,1,2,0:0:0:0:
210,128,27264,2,0,B|192:177|192:177|207:259,1,132.000005035401,0|0,3:0|3:0,0:0:0:0:
269,303,27781,1,2,0:0:0:0:
347,292,27954,6,0,P|326:248|284:225,1,99.0000037765504,0|2,3:0|0:0,0:0:0:0:
187,294,28471,2,0,P|136:330|83:324,1,99.0000037765504,2|0,0:0|0:0,0:0:0:0:
42,226,28988,1,0,3:0:0:0:
117,251,29161,1,2,0:0:0:0:
101,173,29333,6,0,P|46:148|-7:164,1,99.0000037765504,0|0,3:0|0:0,0:0:0:0:
33,271,29850,2,0,B|13:368,1,99.0000037765504,2|0,0:0|0:0,0:0:0:0:
108,296,30368,1,0,3:0:0:0:
182,322,30540,1,2,3:2:0:0:
168,244,30712,6,0,L|153:148,1,66.0000025177003,0|0,3:0|0:0,0:0:0:0:
142,100,31057,1,0,3:0:0:0:
216,126,31230,1,2,0:0:0:0:
291,150,31402,2,0,L|362:175,1,66.0000025177003,0|2,3:0|0:0,0:0:0:0:
427,198,31747,1,0,3:0:0:0:
414,119,31920,1,2,0:0:0:0:
489,143,32092,6,0,B|499:72|455:10,1,132.000005035401,0|0,3:0|3:0,0:0:0:0:
382,1,32609,1,2,0:0:0:0:
317,46,32781,2,0,B|307:117|351:179,1,132.000005035401,0|0,3:0|3:0,0:0:0:0:
424,188,33299,1,2,0:0:0:0:
488,232,33471,6,0,L|460:328,1,99.0000037765504,0|2,3:0|0:0,0:0:0:0:
342,340,33988,2,0,L|370:244,1,99.0000037765504,2|0,0:0|0:0,0:0:0:0:
276,171,34505,1,0,3:0:0:0:
343,128,34678,1,2,3:2:0:0:
421,136,34850,6,0,P|465:171|487:227,2,99.0000037765504,4|4|4,3:2|3:2|3:2,0:0:0:0:
82,280,36230,6,0,P|130:272|164:237,2,99.0000037765504,4|0|2,3:2|0:0|1:2,0:0:0:0:
93,203,36919,2,0,L|42:105,1,99.0000037765504,0|2,3:0|1:2,0:0:0:0:
157,159,37436,2,0,L|106:61,1,99.0000037765504,2|2,1:2|1:2,0:0:0:0:
221,115,37954,2,0,L|170:17,1,99.0000037765504,8|2,3:1|1:2,0:0:0:0:
23,234,38816,1,2,1:2:0:0:
36,156,38988,6,0,P|53:109|55:40,2,99.0000037765504,0|0|2,3:0|0:0|1:2,0:0:0:0:
99,204,39678,2,0,P|115:176|126:121,1,66.0000025177003,0|2,3:0|1:2,0:0:0:0:
92,299,40195,6,0,P|53:289|8:231,2,99.0000037765504,2|0|8,0:0|0:0|3:1,0:0:0:0:
88,218,40885,1,2,1:2:0:0:
132,370,41230,5,2,3:2:0:0:
173,302,41402,1,8,3:1:0:0:
247,275,41574,1,2,1:2:0:0:
325,284,41747,6,0,P|297:336|249:353,2,99.0000037765504,0|0|2,3:0|0:0|1:2,0:0:0:0:
292,211,42436,2,0,L|289:139,2,66.0000025177003,0|2|8,3:0|1:2|3:1,0:0:0:0:
247,275,42954,6,0,P|222:247|223:170,2,99.0000037765504,2|2|8,1:2|1:2|3:1,0:0:0:0:
309,364,43730,1,2,1:2:0:0:
485,161,44333,1,0,1:0:0:0:
421,207,44505,6,0,B|456:236|456:236|521:239,2,99.0000037765504,0|0|2,3:0|0:0|1:2,0:0:0:0:
412,128,45195,2,0,L|345:108,1,66.0000025177003,0|2,3:0|1:2,0:0:0:0:
270,120,45540,1,8,3:1:0:0:
193,141,45712,1,0,1:0:0:0:
249,196,45885,6,0,L|246:302,2,99.0000037765504,2|2|2,3:1|0:1|0:1,0:0:0:0:
190,9,47264,6,0,L|193:143,1,132.000005035401,4|8,3:2|3:1,0:0:0:0:
120,268,47954,2,0,B|85:249|76:207,2,66.0000025177003,0|0|8,3:0|1:2|3:1,0:0:0:0:
264,253,48643,6,0,P|229:208|148:200,1,132.000005035401,0|8,3:0|3:1,0:0:0:0:
27,260,49333,2,0,B|62:279|71:321,2,66.0000025177003,0|2|8,3:0|1:0|3:1,0:0:0:0:
172,257,50023,6,0,B|184:338|184:338|149:394,1,132.000005035401,0|8,3:0|3:1,0:0:0:0:
260,278,50712,2,0,L|272:350,2,66.0000025177003,0|2|8,3:0|1:2|3:1,0:0:0:0:
405,264,51402,6,0,B|389:222|389:222|293:197,1,132.000005035401,0|8,3:0|3:1,0:0:0:0:
459,193,52092,2,0,L|484:264,2,66.0000025177003,2|2|8,3:2|1:0|3:1,0:0:0:0:
331,122,52781,6,0,P|394:125|459:100,1,132.000005035401,0|8,3:0|3:1,0:0:0:0:
355,205,53471,2,0,P|391:206|428:199,2,66.0000025177003,0|0|8,3:0|1:0|3:1,0:0:0:0:
247,98,54161,6,0,L|268:239,1,132.000005035401,0|8,3:0|3:1,0:0:0:0:
170,125,54850,2,0,L|160:53,2,66.0000025177003,0|2|8,3:0|1:0|3:1,0:0:0:0:
192,268,55540,6,0,P|242:310|311:300,1,132.000005035401,0|8,3:0|3:1,0:0:0:0:
411,204,56229,1,0,3:0:0:0:
267,229,56574,1,8,3:1:0:0:
294,86,56919,6,0,P|333:100|378:147,2,99.0000037765504,4|4|4,3:2|3:2|3:2,0:0:0:0:
56,230,58299,6,0,P|82:289|87:366,1,132.000005035401,0|8,3:0|3:1,0:0:0:0:
163,231,58988,2,0,L|194:360,1,132.000005035401,0|8,3:0|3:1,0:0:0:0:
266,233,59678,6,0,P|271:298|298:358,1,132.000005035401,0|8,3:0|3:1,0:0:0:0:
444,376,60368,1,0,3:0:0:0:
388,244,60712,1,8,3:1:0:0:
490,141,61057,6,0,L|362:110,1,132.000005035401,0|8,3:0|3:1,0:0:0:0:
257,9,61747,2,0,P|280:71|277:140,1,132.000005035401,0|8,3:0|3:1,0:0:0:0:
189,251,62436,6,0,P|254:245|314:218,1,132.000005035401,0|8,3:0|3:1,0:0:0:0:
434,301,63126,1,0,3:0:0:0:
396,191,63471,1,8,3:1:0:0:
373,361,63816,6,0,P|308:369|244:332,1,132.000005035401,0|8,3:0|3:1,0:0:0:0:
135,251,64505,2,0,B|118:299|118:299|134:399,1,132.000005035401,0|8,3:0|3:1,0:0:0:0:
261,313,65195,6,0,B|277:257|277:257|263:170,1,132.000005035401,0|8,3:0|3:1,0:0:0:0:
121,163,65885,2,0,P|178:187|265:179,1,132.000005035401,0|8,3:0|3:1,0:0:0:0:
125,264,66574,6,0,B|78:250|78:250|45:205,2,99.0000037765504,4|4|8,3:2|3:2|0:1,0:0:0:0:
203,274,67264,2,0,B|214:321|214:321|194:367,2,99.0000037765504,4|4|8,3:2|3:2|3:1,0:0:0:0:
171,200,67954,2,0,B|206:166|206:166|256:160,2,99.0000037765504,0|0|0,3:0|3:0|3:0,0:0:0:0:
125,264,68643,2,0,L|40:270,2,66.0000025177003,0|0|4,3:0|3:0|3:2,0:0:0:0:
249,340,69333,6,0,B|245:288|314:227|314:227|253:244|189:214,1,264.000010070801,4|0,0:2|0:0,0:0:0:0:
52,158,70368,1,2,0:0:0:0:
199,134,70712,6,0,B|265:174|323:142|323:142|304:58|362:18,1,264.000010070801,0|2,0:0|0:0,0:0:0:0:
397,161,71747,1,2,0:0:0:0:
440,21,72092,6,0,B|439:58|410:85|410:85|473:92|503:164|473:223|415:236,1,264.000010070801,2|0,0:2|0:0,0:0:0:0:
282,210,73126,1,2,0:0:0:0:
422,303,73471,6,0,B|359:293|331:202|397:161|397:161|354:159|322:143,1,264.000010070801,2|0,0:0|0:0,0:0:0:0:
226,260,74505,1,2,0:0:0:0:
86,327,74850,6,0,B|143:324|143:324|199:362|199:362|355:354,1,264.000010070801,2|10,0:0|0:0,0:0:0:0:
226,260,75885,1,2,0:0:0:0:
86,126,76230,6,0,B|106:212|106:212|86:326|86:326|103:387,1,264.000010070801,2|8,0:0|0:2,0:0:0:0:
231,317,77264,1,2,0:0:0:0:
231,317,77609,5,0,1:2:0:0:
256,192,77954,12,8,79678,0:0:0:0:
228,129,80368,6,0,B|148:143|148:143|112:185,1,132.000005035401,4|8,3:1|3:1,0:0:0:0:
130,259,80885,1,0,1:0:0:0:
196,216,81057,2,0,B|276:202|276:202|312:160,1,132.000005035401,0|8,3:0|3:1,0:0:0:0:
376,206,81574,1,10,1:2:0:0:
372,211,81747,6,0,B|345:244|345:244|345:339,2,132.000005035401,0|8|2,3:0|3:1|3:2,0:0:0:0:
445,240,82609,1,0,1:0:0:0:
502,185,82781,1,8,3:1:0:0:
475,110,82954,1,10,1:2:0:0:
475,110,83126,6,0,P|406:115|347:80,1,132.000005035401,0|8,3:0|3:1,0:0:0:0:
285,42,83643,1,0,1:0:0:0:
220,88,83816,2,0,P|237:147|201:207,1,132.000005035401,0|8,3:0|3:1,0:0:0:0:
155,139,84333,1,10,1:2:0:0:
125,212,84505,6,0,P|154:267|242:273,2,132.000005035401,0|8|2,3:0|3:1|3:2,0:0:0:0:
45,213,85368,1,0,1:0:0:0:
11,142,85540,1,8,3:1:0:0:
61,81,85712,1,10,1:2:0:0:
61,81,85885,6,0,B|97:105|97:105|196:94,1,132.000005035401,0|8,3:0|3:1,0:0:0:0:
220,24,86402,1,0,1:0:0:0:
264,89,86574,2,0,B|282:145|237:169|274:225,1,132.000005035401,0|8,3:0|3:1,0:0:0:0:
339,179,87092,1,10,1:2:0:0:
335,257,87264,6,0,P|294:291|214:272,2,132.000005035401,0|8|2,3:0|3:1|3:2,0:0:0:0:
410,281,88126,1,0,1:0:0:0:
482,314,88299,1,8,3:1:0:0:
474,235,88471,1,10,1:2:0:0:
474,235,88643,6,0,L|462:102,1,132.000005035401,0|8,3:0|3:1,0:0:0:0:
382,93,89161,1,0,1:0:0:0:
428,29,89333,2,0,P|354:18|309:58,1,132.000005035401,0|8,3:0|3:1,0:0:0:0:
311,130,89850,1,10,1:2:0:0:
382,93,90023,6,0,B|391:183|391:183|372:220,2,132.000005035401,0|8|2,3:0|3:1|3:2,0:0:0:0:
312,51,90885,1,0,1:0:0:0:
312,51,91057,1,2,3:2:0:0:
245,94,91230,1,0,3:0:0:0:
245,94,91402,6,0,L|262:234,1,132.000005035401,4|8,3:2|3:1,0:0:0:0:
206,283,91919,1,0,1:0:0:0:
181,207,92092,2,0,L|163:59,1,132.000005035401,0|8,3:0|3:1,0:0:0:0:
95,37,92609,1,10,1:2:0:0:
16,28,92781,6,0,P|42:96|100:116,2,132.000005035401,0|8|2,3:0|3:1|3:2,0:0:0:0:
95,37,93643,1,0,1:0:0:0:
165,75,93816,1,8,3:1:0:0:
166,154,93988,1,10,1:2:0:0:
166,154,94161,6,0,B|174:186|174:186|143:284,1,132.000005035401,0|8,3:0|3:1,0:0:0:0:
66,262,94678,1,0,1:0:0:0:
82,339,94850,2,0,B|110:365|110:365|211:376,1,132.000005035401,0|8,3:0|3:1,0:0:0:0:
282,381,95368,1,10,1:2:0:0:
246,310,95540,6,0,B|220:282|220:282|252:178,2,132.000005035401,0|8|2,3:0|3:1|3:2,0:0:0:0:
325,315,96402,1,0,1:0:0:0:
394,352,96574,1,8,3:1:0:0:
473,354,96747,1,10,1:2:0:0:
473,354,96919,6,0,P|454:296|385:274,1,132.000005035401,0|8,3:0|3:1,0:0:0:0:
325,315,97436,1,0,1:0:0:0:
320,235,97609,2,0,B|346:205|346:205|326:107,1,132.000005035401,0|8,3:0|3:1,0:0:0:0:
312,36,98126,1,10,1:2:0:0:
387,61,98299,6,0,B|480:57|480:57|519:17,2,132.000005035401,0|8|2,3:0|3:1|3:2,0:0:0:0:
312,36,99161,1,0,1:0:0:0:
327,114,99333,1,8,3:1:0:0:
402,138,99505,1,10,1:2:0:0:
402,138,99678,6,0,B|422:232|422:232|396:285,1,132.000005035401,0|8,3:0|3:1,0:0:0:0:
368,334,100195,1,0,1:0:0:0:
292,307,100368,2,0,B|272:213|272:213|298:160,1,132.000005035401,0|8,3:0|3:1,0:0:0:0:
219,140,100885,1,10,1:2:0:0:
191,213,101057,6,0,B|211:307|211:307|185:360,2,132.000005035401,0|8|0,3:0|3:1|3:0,0:0:0:0:
111,215,101919,2,0,L|128:289,1,66.0000025177003,4|2,3:2|3:2,0:0:0:0:
117,358,102264,1,2,3:2:0:0:
52,311,102436,6,0,B|30:216|30:216|66:43,1,264.000010070801,4|0,3:2|3:0,0:0:0:0:
111,215,103471,1,8,3:1:0:0:
192,342,103816,6,0,B|225:179|225:179|203:84,1,264.000010070801,0|0,3:0|3:0,0:0:0:0:
306,205,104850,1,8,3:1:0:0:
391,338,105195,6,0,B|411:254|411:254|391:171|391:171|424:52,1,264.000010070801,0|0,3:0|3:0,0:0:0:0:
267,25,106230,1,8,3:1:0:0:
298,179,106574,6,0,B|318:263|318:263|301:346|301:346|276:243,1,264.000010070801,0|0,3:0|3:0,0:0:0:0:
228,105,107609,1,8,3:1:0:0:
385,86,107954,6,0,B|377:169|377:169|399:261|399:261|378:366,1,264.000010070801,0|0,3:0|3:0,0:0:0:0:
468,212,108988,1,8,3:1:0:0:
318,263,109333,6,0,B|303:337|303:337|199:358|199:358|220:249,1,264.000010070801,0|0,3:0|3:0,0:0:0:0:
237,119,110368,1,8,3:1:0:0:
95,48,110712,2,0,B|86:119|86:119|123:228|123:228|104:325,1,264.000010070801,0|0,3:0|3:0,0:0:0:0:
19,171,111747,1,8,3:1:0:0:
165,111,112092,6,0,L|200:212,2,99.0000037765504,4|8|0,3:2|3:1|3:0,0:0:0:0:
93,77,112781,2,0,P|128:41|192:35,1,99.0000037765504,0|0,0:0|1:0,0:0:0:0:
211,45,113126,2,0,P|261:42|302:15,1,99.0000037765504,8|2,3:1|1:0,0:0:0:0:
