osu file format v14

[General]
AudioFilename: audio.mp3
AudioLeadIn: 0
PreviewTime: 77609
Countdown: 0
SampleSet: Soft
StackLeniency: 0.3
Mode: 0
LetterboxInBreaks: 0
WidescreenStoryboard: 0

[Editor]
Bookmarks: 80368
DistanceSpacing: 1
BeatDivisor: 8
GridSize: 16
TimelineZoom: 4.500003

[Metadata]
Title:polygon
TitleUnicode:polygon
Artist:Sota Fujimori
ArtistUnicode:Sota Fujimori
Creator:Sebu
Version:-PC's hexagon
Source:jubeat copious
Tags:REFLEC BEAT CXu -GN -PC
BeatmapID:1028537
BeatmapSetID:422136

[Difficulty]
HPDrainRate:7
CircleSize:4.2
OverallDifficulty:8.2
ApproachRate:9.4
SliderMultiplier:2.5
SliderTickRate:1

[Events]
//Background and Video events
0,0,"polygonal_space_by_kanman142-d92loa3.jpg",0,0
//Break Periods
//Storyboard Layer 0 (Background)
//Storyboard Layer 1 (Fail)
//Storyboard Layer 2 (Pass)
//Storyboard Layer 3 (Foreground)
//Storyboard Sound Samples

[TimingPoints]
368,344.827586206897,4,2,1,40,1,0
626,-125,4,2,1,40,0,0
1402,-83.3333333333333,4,2,2,40,0,0
1747,-125,4,2,1,40,0,0
2092,-83.3333333333333,4,2,1,40,0,0
3126,-71.4285714285714,4,2,1,60,0,0
11057,-55.5555555555556,4,2,1,60,0,0
11402,-71.4285714285714,4,2,1,60,0,0
14161,-100,4,2,1,60,0,0
14592,-100,4,2,1,80,0,0
14850,-100,4,2,1,60,0,0
16316,-100,4,2,1,80,0,0
16574,-100,4,2,1,60,0,0
16661,-100,4,2,1,80,0,0
16919,-100,4,2,1,60,0,0
17350,-100,4,2,1,80,0,0
17609,-100,4,2,1,60,0,0
20109,-100,4,2,1,80,0,0
20368,-76.9230769230769,4,2,1,60,0,0
20712,-100,4,2,1,60,0,0
21057,-76.9230769230769,4,2,1,60,0,0
21402,-100,4,2,1,60,0,0
21833,-100,4,2,1,80,0,0
22092,-100,4,2,1,60,0,0
22178,-100,4,2,1,80,0,0
22436,-100,4,2,1,60,0,0
22781,-100,4,2,2,60,0,0
23126,-100,4,2,1,60,0,0
24247,-100,4,2,1,80,0,0
24505,-71.4285714285714,4,2,1,60,0,0
25195,-83.3333333333333,4,2,1,60,0,0
36230,-71.4285714285714,4,2,1,60,0,0
37178,-100,4,2,1,60,0,0
37695,-71.4285714285714,4,2,1,60,0,0
37954,-71.4285714285714,4,2,1,60,0,0
40023,-100,4,2,1,60,0,0
40281,-71.4285714285714,4,2,1,60,0,0
46919,-71.4285714285714,4,2,1,50,0,0
47005,-100,4,2,1,40,0,0
47264,-100,4,2,1,60,0,0
56919,-142.857142857143,4,1,1,60,0,0
57005,-142.857142857143,4,2,1,60,0,0
57178,-142.857142857143,4,1,1,60,0,0
57264,-142.857142857143,4,2,1,60,0,0
57609,-71.4285714285714,4,2,1,60,0,0
57954,-83.3333333333333,4,2,1,60,0,0
58299,-142.857142857143,4,2,1,60,0,0
63299,-111.111111111111,4,2,1,60,0,0
63471,-100,4,2,1,60,0,0
63816,-142.857142857143,4,2,1,60,0,0
66574,-83.3333333333334,4,2,1,60,0,0
67092,-62.5,4,2,1,60,0,0
67264,-83.3333333333333,4,2,1,60,0,0
68557,-100,4,2,1,60,0,0
68643,-83.3333333333333,4,2,1,60,0,0
69333,-142.857142857143,4,2,1,40,0,0
74850,-142.857142857143,4,2,1,60,0,0
77609,-100,4,2,1,70,0,0
78988,-100,4,2,1,80,0,0
79678,-83.3333333333333,4,2,1,50,0,0
79850,-62.5,4,2,1,60,0,0
80023,-400,4,2,2,60,0,0
80368,-71.4285714285714,4,2,1,70,0,1
101316,-55.5555555555556,4,2,1,70,0,1
101833,-71.4285714285714,4,2,1,70,0,1
101919,-55.5555555555556,4,2,1,70,0,1
102436,-100,4,2,1,60,0,0
112092,-71.4285714285714,4,2,1,60,0,0
112781,-125,4,2,1,60,0,0
112954,-71.4285714285714,4,2,1,60,0,0

[Colours]
Combo1 : 141,40,223
Combo2 : 215,19,68
Combo3 : 180,95,216
Combo4 : 81,47,217

[HitObjects]
171,111,368,5,0,1:0:0:0:
170,117,454,1,0,1:0:0:0:
169,123,540,1,2,1:2:0:0:
168,129,626,2,0,L|175:196,1,50,0|8,1:0|0:0,0:0:0:0:
200,264,799,5,2,0:0:0:0:
200,264,885,2,0,B|176:256|176:256|149:268,1,50,0|0,1:0|0:0,0:0:0:0:
246,344,1057,6,0,B|293:342|293:342|299:336|299:336|348:333,1,100,8|0,0:0|1:0,0:0:0:0:
428,348,1316,1,0,0:0:0:0:
356,253,1402,6,0,P|308:194|335:132,1,149.999995422364,10|0,1:2|1:0,0:0:0:0:
334,133,1747,6,0,B|284:129,1,50,0|0,1:0|0:0,3:0:0:0:
235,198,1919,2,0,B|185:194,1,50,2|2,0:0|0:0,0:0:0:0:
121,151,2092,6,2,B|155:120|155:120|334:133,1,224.999993133545,8|0,0:2|0:0,0:0:0:0:
337,207,2436,6,0,P|300:203|273:178,1,74.9999977111818,8|2,0:0|0:0,0:0:0:0:
409,163,2609,5,2,0:0:0:0:
426,234,2695,1,2,0:0:0:0:
443,305,2781,6,2,B|438:276|439:258|461:223|461:223|438:197|438:197|458:170|463:134|446:97,1,224.999993133545,2|0,0:0|0:0,0:0:0:0:
379,30,3126,6,0,P|350:83|253:41,1,174.999994659424,4|0,3:2|0:0,0:0:0:0:
199,122,3385,2,0,P|170:90|127:83,1,87.499997329712,2|8,1:2|3:1,0:0:0:0:
71,263,3557,1,0,0:0:0:0:
71,263,3643,6,0,B|150:291|150:291|196:210,1,174.999994659424,2|0,1:2|3:0,0:0:0:0:
199,122,3902,2,0,P|200:217|278:232,1,174.999994659424,2|0,1:2|0:0,0:0:0:0:
480,57,4161,2,0,P|440:39|397:37,1,87.499997329712,8|0,3:1|0:0,0:0:0:0:
329,141,4333,2,0,P|368:123|412:121,1,87.499997329712,2|0,1:2|0:0,0:0:0:0:
479,181,4505,6,0,B|473:259|473:259|480:274|480:274|474:361,1,174.999994659424,2|0,3:2|0:0,0:0:0:0:
400,292,4764,1,2,1:2:0:0:
404,209,4850,2,0,L|413:113,1,87.499997329712,8|0,3:1|0:0,0:0:0:0:
308,258,5023,2,0,L|299:345,1,87.499997329712,2|0,1:2|0:0,0:0:0:0:
232,141,5195,5,0,3:0:0:0:
230,132,5281,1,2,0:0:0:0:
229,123,5368,1,0,0:0:0:0:
228,115,5454,1,2,0:0:0:0:
227,106,5540,2,2,P|105:136|47:23,1,262.499991989136,8|0,3:1|0:0,0:0:0:0:
147,42,5885,6,0,L|154:225,1,174.999994659424,2|0,3:2|0:0,0:0:0:0:
84,347,6143,2,0,L|80:251,1,87.499997329712,2|8,1:2|3:1,0:0:0:0:
232,161,6316,1,0,0:0:0:0:
232,161,6402,6,0,P|267:247|346:250,1,174.999994659424,2|0,1:2|3:0,0:0:0:0:
477,205,6661,2,0,B|438:180|438:180|310:181,1,174.999994659424,2|0,1:2|1:0,0:0:0:0:
340,252,6919,2,0,P|304:276|261:282,1,87.499997329712,8|0,3:1|0:0,0:0:0:0:
163,335,7092,2,0,P|120:329|84:306,1,87.499997329712,2|0,1:2|0:0,0:0:0:0:
41,115,7264,6,0,B|82:194|82:194|127:116,1,174.999994659424,2|0,3:2|0:0,0:0:0:0:
85,63,7523,1,2,1:2:0:0:
84,106,7609,1,8,3:1:0:0:
83,150,7695,1,0,0:0:0:0:
82,194,7781,6,0,P|125:161|246:191,1,174.999994659424,2|0,1:2|3:0,0:0:0:0:
181,334,8040,1,0,0:0:0:0:
181,334,8126,2,0,P|163:295|165:252,1,87.499997329712,2|0,1:2|0:0,0:0:0:0:
324,156,8299,1,8,3:1:0:0:
324,156,8385,1,0,1:0:0:0:
324,156,8471,2,0,P|325:199|307:238,1,87.499997329712,2|0,3:2|0:0,0:0:0:0:
183,63,8643,6,0,B|324:59|324:59|359:77,1,174.999994659424,4|0,3:2|0:0,0:0:0:0:
382,264,8902,2,0,P|359:226|356:183,1,87.499997329712,2|8,1:2|3:1,0:0:0:0:
472,192,9074,1,0,0:0:0:0:
472,192,9161,6,0,L|456:370,1,174.999994659424,2|0,1:2|3:0,0:0:0:0:
269,364,9419,2,0,B|272:328|272:328|379:322|379:322|376:354,1,174.999994659424,2|0,1:2|0:0,0:0:0:0:
200,272,9678,2,0,L|192:360,1,87.499997329712,8|0,3:1|0:0,0:0:0:0:
124,246,9850,2,0,L|115:333,1,87.499997329712,2|0,1:2|0:0,0:0:0:0:
45,258,10023,6,0,P|11:183|57:105,1,174.999994659424,2|0,3:2|0:0,0:0:0:0:
146,105,10281,1,2,1:2:0:0:
99,186,10368,2,0,L|6:190,1,87.499997329712,8|0,3:1|0:0,0:0:0:0:
192,25,10540,2,0,L|285:21,1,87.499997329712,2|0,1:2|0:0,0:0:0:0:
417,129,10712,5,0,3:0:0:0:
409,124,10799,1,2,0:0:0:0:
403,118,10885,1,0,0:0:0:0:
399,110,10971,1,2,0:0:0:0:
397,102,11057,2,2,B|419:166|418:206|394:274|394:274|362:301|311:294|302:263|313:231|337:217|366:247,1,337.499989700318,8|0,3:1|0:0,0:0:0:0:
454,317,11402,6,0,P|379:358|294:343,1,174.999994659424,2|0,3:2|0:0,0:0:0:0:
122,330,11661,2,0,P|165:328|203:308,1,87.499997329712,2|8,1:2|3:1,0:0:0:0:
38,206,11833,1,0,0:0:0:0:
38,206,11919,6,0,B|30:299|30:299|62:381,1,174.999994659424,2|0,1:2|3:0,0:0:0:0:
110,255,12178,2,0,L|125:80,1,174.999994659424,2|2,1:2|1:2,0:0:0:0:
44,107,12436,6,0,P|68:143|111:165,1,87.499997329712,8|0,3:1|0:0,0:0:0:0:
200,64,12609,5,2,3:2:0:0:
275,47,12695,1,2,3:2:0:0:
343,102,12781,5,4,3:2:0:0:
358,109,12868,1,2,0:0:0:0:
375,112,12954,1,0,0:0:0:0:
393,113,13040,5,4,3:2:0:0:
404,63,13126,1,2,0:0:0:0:
354,52,13212,1,0,0:0:0:0:
343,102,13299,5,4,3:2:0:0:
458,191,13471,5,2,0:0:0:0:
461,174,13557,1,0,0:0:0:0:
432,206,13643,1,2,1:2:0:0:
424,249,13730,1,2,1:2:0:0:
437,290,13816,1,2,3:2:0:0:
435,333,13902,1,0,3:2:0:0:
407,365,13988,1,0,3:2:0:0:
365,375,14074,1,0,0:0:0:0:
326,357,14161,6,0,B|296:341|296:341|136:347,1,187.5,4|0,3:2|0:0,0:0:0:0:
106,358,14505,1,10,3:1:0:0:
70,351,14592,1,0,0:0:0:0:
40,329,14678,1,2,0:0:0:0:
22,297,14764,1,0,0:0:0:0:
21,259,14850,6,0,L|86:255,1,62.5,2|0,3:1|0:0,0:0:0:0:
64,178,15023,2,0,L|126:180,1,62.5,2|0,1:2|0:0,0:0:0:0:
170,267,15195,2,0,L|232:270,1,62.5,10|0,3:1|0:0,0:0:0:0:
211,178,15368,2,0,L|273:175,1,62.5,2|0,1:2|0:0,0:0:0:0:
442,137,15540,6,0,P|457:108|461:74,1,62.5,2|0,3:1|0:0,0:0:0:0:
370,193,15712,2,0,P|355:165|350:134,1,62.5,2|0,1:2|0:0,0:0:0:0:
451,273,15885,2,0,P|470:247|479:217,1,62.5,10|0,3:1|0:0,0:0:0:0:
362,335,16057,2,0,P|343:309|334:279,1,62.5,2|0,1:0|0:0,0:0:0:0:
200,278,16230,5,0,3:0:0:0:
198,290,16316,1,0,0:0:0:0:
197,302,16402,1,2,0:0:0:0:
196,315,16488,1,0,0:0:0:0:
195,328,16574,5,8,3:1:0:0:
170,347,16661,1,0,0:0:0:0:
140,352,16747,1,2,0:0:0:0:
110,341,16833,1,0,0:0:0:0:
89,317,16919,6,0,B|96:259|96:259|79:192|79:192|86:133,1,187.5,0|0,3:0|0:0,0:0:0:0:
108,102,17264,1,10,3:1:0:0:
111,138,17350,1,0,0:0:0:0:
95,172,17436,1,2,0:0:0:0:
64,193,17523,1,0,0:0:0:0:
27,195,17609,6,0,L|34:132,1,62.5,2|0,3:1|0:0,0:0:0:0:
122,242,17781,2,0,L|115:305,1,62.5,2|0,1:2|0:0,0:0:0:0:
221,190,17954,2,0,L|228:127,1,62.5,10|0,3:1|0:0,0:0:0:0:
320,240,18126,2,0,L|313:303,1,62.5,2|0,1:2|0:0,0:0:0:0:
413,166,18299,6,0,P|443:171|470:187,1,62.5,2|0,3:1|0:0,0:0:0:0:
467,305,18471,2,0,P|437:315|406:315,1,62.5,2|0,1:2|0:0,0:0:0:0:
170,148,18643,2,0,P|197:132|228:128,1,62.5,10|0,1:0|0:0,0:0:0:0:
233,377,18816,2,0,P|202:372|175:356,1,62.5,2|0,1:0|0:0,0:0:0:0:
4,231,18988,6,0,B|66:228,1,62.5,2|0,3:2|0:0,0:0:0:0:
126,270,19161,1,2,0:2:0:0:
129,282,19247,1,0,0:0:0:0:
133,294,19333,5,8,3:1:0:0:
137,244,19419,1,0,0:0:0:0:
173,223,19505,1,2,3:2:0:0:
168,173,19592,1,0,0:0:0:0:
125,145,19678,6,0,P|79:96|132:4,1,187.5,0|0,3:0|0:0,0:0:0:0:
195,54,20023,5,10,3:1:0:0:
217,83,20109,1,0,0:0:0:0:
254,82,20195,1,2,0:0:0:0:
291,81,20281,1,0,0:0:0:0:
329,80,20368,6,0,L|411:78,1,81.2499962806703,2|0,3:1|0:0,0:0:0:0:
458,231,20540,2,0,L|376:233,1,81.2499962806703,2|0,1:0|0:0,0:0:0:0:
189,160,20712,6,0,P|223:156|266:164,1,62.5,8|0,3:1|0:0,0:0:0:0:
242,269,20885,2,0,P|208:273|165:265,1,62.5,2|0,1:2|0:0,0:0:0:0:
78,168,21057,6,0,L|80:86,1,81.2499962806703,2|0,3:1|0:0,0:0:0:0:
252,78,21230,2,0,L|250:160,1,81.2499962806703,2|0,1:0|0:0,0:0:0:0:
293,327,21402,6,0,P|327:331|370:323,1,62.5,8|0,3:1|0:0,0:0:0:0:
503,134,21574,2,0,P|469:130|426:138,1,62.5,2|0,1:2|0:0,0:0:0:0:
392,204,21747,5,0,3:0:0:0:
391,216,21833,1,0,0:0:0:0:
390,228,21919,1,2,0:0:0:0:
389,241,22005,1,0,0:0:0:0:
388,253,22092,5,8,3:1:0:0:
350,248,22178,1,0,0:0:0:0:
313,244,22264,1,2,0:0:0:0:
276,240,22350,1,2,0:0:0:0:
237,236,22436,6,0,P|215:292|243:346,1,125,0|0,3:0|0:0,0:0:0:0:
477,309,22781,2,0,L|291:288,1,187.5,12|0,0:2|0:0,0:0:0:0:
237,236,23126,6,0,B|223:253|223:253|120:241,1,125,0|0,3:0|0:0,0:0:0:0:
194,141,23471,2,0,L|186:75,1,62.5,12|0,0:0|0:0,0:0:0:0:
116,35,23643,2,0,P|79:62|19:42,1,93.75,0|0,3:0|0:0,0:0:0:0:
22,36,23816,5,12,0:0:0:0:
58,163,23988,1,0,3:0:0:0:
62,178,24074,1,0,0:0:0:0:
66,193,24161,1,12,0:0:0:0:
106,175,24247,1,0,1:0:0:0:
149,169,24333,1,0,3:0:0:0:
191,177,24419,1,0,0:0:0:0:
219,215,24505,6,0,L|215:304,1,87.499997329712,4|0,3:2|0:0,0:0:0:0:
55,305,24678,2,0,L|58:215,1,87.499997329712,0|0,3:0|0:0,0:0:0:0:
153,87,24850,2,0,B|177:194|114:156|141:272,1,174.999994659424,4|0,3:2|0:0,0:0:0:0:
368,78,25195,5,4,3:2:0:0:
368,78,25281,2,0,P|301:107|234:78,1,149.999995422363,0|2,0:0|0:0,0:0:0:0:
224,61,25540,2,0,L|230:140,1,74.9999977111817,0|0,3:0|0:0,3:0:0:0:
401,145,25712,2,0,L|397:220,1,74.9999977111817,2|0,0:0|0:0,0:0:0:0:
226,256,25885,5,0,3:0:0:0:
226,293,25971,1,0,0:0:0:0:
242,326,26057,1,2,0:0:0:0:
273,347,26143,1,0,0:0:0:0:
309,353,26230,1,0,3:0:0:0:
335,338,26316,1,0,0:0:0:0:
345,318,26402,1,2,0:0:0:0:
342,306,26488,1,0,0:0:0:0:
336,299,26574,6,0,L|419:305,1,74.9999977111817,0|0,3:0|0:0,0:0:0:0:
313,220,26747,2,0,L|388:221,1,74.9999977111817,2|0,0:0|0:0,0:0:0:0:
286,144,26919,2,0,L|361:139,1,74.9999977111817,0|0,3:0|0:0,0:0:0:0:
310,57,27092,2,0,L|384:57,1,74.9999977111817,2|0,0:0|0:0,0:0:0:0:
468,116,27264,5,0,3:0:0:0:
434,133,27350,1,2,0:0:0:0:
398,142,27436,1,2,0:0:0:0:
361,139,27523,1,2,0:0:0:0:
326,125,27609,1,0,3:0:0:0:
291,113,27695,1,0,0:0:0:0:
254,111,27781,1,2,0:0:0:0:
217,119,27868,1,0,0:0:0:0:
183,134,27954,5,0,3:0:0:0:
174,170,28040,2,0,B|66:156|66:156|30:124,1,149.999995422363,0|2,0:0|0:0,0:0:0:0:
39,98,28299,2,0,P|79:166|59:238,1,149.999995422363,0|2,3:0|0:0,0:0:0:0:
10,320,28643,5,0,3:0:0:0:
10,320,28730,1,0,0:0:0:0:
10,320,28816,1,2,0:0:0:0:
107,356,28988,1,0,3:0:0:0:
135,322,29074,1,0,0:0:0:0:
177,305,29161,1,2,0:0:0:0:
221,310,29247,1,0,0:0:0:0:
258,336,29333,5,0,3:0:0:0:
291,365,29419,1,2,0:0:0:0:
334,376,29505,1,2,0:0:0:0:
377,364,29592,1,0,0:0:0:0:
410,334,29678,1,2,3:2:0:0:
424,291,29764,1,0,0:0:0:0:
416,247,29850,1,2,0:0:0:0:
389,212,29936,1,0,0:0:0:0:
348,195,30023,5,2,3:2:0:0:
343,238,30109,1,0,0:0:0:0:
337,280,30195,1,2,0:0:0:0:
345,275,30281,1,2,0:0:0:0:
353,270,30368,6,0,P|312:260|274:270,1,74.9999977111817,0|0,3:0|0:0,0:0:0:0:
112,240,30540,2,0,P|148:244|180:263,1,74.9999977111817,2|0,3:2|0:0,0:0:0:0:
220,344,30712,5,0,3:0:0:0:
220,344,30799,2,0,P|234:266|228:191,1,149.999995422363,0|2,0:0|0:0,0:0:0:0:
207,180,31057,2,0,L|132:169,1,74.9999977111817,0|0,3:0|0:0,0:0:0:0:
297,137,31230,2,0,L|372:148,1,74.9999977111817,2|0,0:0|0:0,0:0:0:0:
225,52,31402,5,0,3:0:0:0:
187,54,31488,1,0,0:0:0:0:
150,57,31574,1,2,0:0:0:0:
112,60,31661,1,0,0:0:0:0:
75,62,31747,1,0,3:0:0:0:
51,79,31833,1,0,0:0:0:0:
45,98,31919,1,2,0:0:0:0:
50,111,32005,1,0,0:0:0:0:
57,118,32092,6,0,P|93:116|131:122,1,74.9999977111817,0|0,3:0|0:0,0:0:0:0:
199,198,32264,2,0,P|161:195|124:202,1,74.9999977111817,2|0,0:0|0:0,0:0:0:0:
93,293,32436,2,0,P|129:283|167:282,1,74.9999977111817,0|0,3:0|0:0,0:0:0:0:
147,370,32609,1,2,0:0:0:0:
140,365,32695,1,2,0:0:0:0:
103,375,32781,5,0,3:0:0:0:
66,367,32868,1,0,0:0:0:0:
34,348,32954,1,2,0:0:0:0:
11,319,33040,1,0,0:0:0:0:
0,283,33126,1,0,3:0:0:0:
0,246,33212,1,0,0:0:0:0:
13,211,33299,1,2,0:0:0:0:
37,183,33385,1,0,0:0:0:0:
70,165,33471,5,0,3:0:0:0:
101,187,33557,2,0,B|139:197|176:189|176:189|216:201|252:191,1,149.999995422363,0|2,0:0|0:0,0:0:0:0:
273,177,33816,2,0,P|194:157|182:97,1,149.999995422363,0|2,3:0|0:0,0:0:0:0:
265,4,34161,5,0,3:0:0:0:
265,4,34247,1,0,0:0:0:0:
265,4,34333,1,2,0:0:0:0:
372,79,34505,2,0,P|388:114|387:151,1,74.9999977111817,0|0,3:0|0:0,0:0:0:0:
383,307,34678,1,2,3:2:0:0:
379,346,34764,1,0,3:0:0:0:
403,378,34850,5,4,3:2:0:0:
410,364,34936,1,2,0:0:0:0:
414,350,35023,1,0,0:0:0:0:
415,335,35109,1,4,3:2:0:0:
407,321,35195,1,2,0:0:0:0:
403,307,35281,1,0,0:0:0:0:
409,274,35368,5,4,3:2:0:0:
268,197,35540,5,0,0:0:0:0:
266,212,35626,1,0,0:0:0:0:
310,216,35712,1,2,1:2:0:0:
349,196,35799,1,0,1:0:0:0:
372,158,35885,5,2,3:2:0:0:
379,83,35971,1,2,3:2:0:0:
327,28,36057,1,0,3:0:0:0:
508,35,36230,6,0,P|460:102|379:83,1,174.999994659424,4|2,3:2|0:0,0:0:0:0:
433,34,36488,1,0,0:0:0:0:
433,34,36574,2,0,L|437:123,1,87.499997329712,8|0,3:1|0:0,0:0:0:0:
304,120,36747,2,0,P|296:162|263:200,1,87.499997329712,2|0,1:2|0:0,0:0:0:0:
37,130,36919,6,0,B|72:113|72:113|207:120,1,174.999994659424,0|2,3:0|1:2,0:0:0:0:
216,255,37178,2,0,B|192:199|192:199|211:138,1,125,2|0,1:2|0:0,0:0:0:0:
308,282,37436,6,0,B|433:290,1,125,2|0,1:2|0:0,0:0:0:0:
499,172,37695,2,0,B|325:179,1,174.999994659424,2|0,1:2|0:0,0:0:0:0:
308,282,37954,5,8,3:1:0:0:
310,333,38040,1,0,0:0:0:0:
346,369,38126,1,2,1:2:0:0:
398,372,38212,1,2,1:2:0:0:
437,339,38299,5,0,3:0:0:0:
430,296,38385,1,0,0:0:0:0:
422,253,38471,1,2,1:2:0:0:
414,210,38557,1,0,1:0:0:0:
433,173,38643,1,8,3:1:0:0:
451,135,38730,1,0,1:0:0:0:
443,91,38816,2,0,L|427:-2,1,87.499997329712,2|0,1:2|0:0,0:0:0:0:
219,87,38988,6,0,P|298:115|358:58,1,174.999994659424,0|2,3:0|0:0,3:0:0:0:
239,7,39247,1,0,0:0:0:0:
239,7,39333,2,0,P|188:11|154:35,1,87.499997329712,8|0,3:1|0:0,0:0:0:0:
188,191,39505,2,0,P|144:189|107:167,1,87.499997329712,2|0,1:2|0:0,0:0:0:0:
55,74,39678,5,0,3:0:0:0:
280,37,39850,1,2,1:2:0:0:
453,194,40023,2,0,P|391:176|366:122,1,125,8|2,3:1|0:0,0:0:0:0:
441,33,40281,1,2,0:0:0:0:
441,33,40368,6,0,L|440:121,1,87.499997329712,0|0,3:0|0:0,0:0:0:0:
453,194,40540,2,0,L|451:281,1,87.499997329712,2|0,1:2|0:0,0:0:0:0:
419,351,40712,1,8,3:1:0:0:
270,215,40885,1,2,1:2:0:0:
190,337,41057,5,0,3:0:0:0:
190,337,41143,1,0,1:0:0:0:
190,337,41230,2,0,P|143:355|92:350,1,87.499997329712,2|0,3:2|0:0,0:0:0:0:
40,129,41402,2,0,P|83:129|123:145,1,87.499997329712,8|0,3:1|0:0,0:0:0:0:
270,215,41574,1,2,1:2:0:0:
333,179,41661,1,0,0:0:0:0:
368,244,41747,6,0,B|455:230|455:230|514:295,1,174.999994659424,0|2,3:0|0:0,0:0:0:0:
429,310,42005,1,0,0:0:0:0:
429,310,42092,2,0,L|342:323,1,87.499997329712,8|0,3:1|0:0,0:0:0:0:
183,201,42264,2,0,L|269:214,1,87.499997329712,2|0,1:2|0:0,0:0:0:0:
50,303,42436,6,0,L|40:129,1,174.999994659424,0|2,3:0|1:2,0:0:0:0:
77,168,42695,1,0,0:0:0:0:
77,168,42781,2,0,L|82:255,1,87.499997329712,8|0,3:1|0:0,0:0:0:0:
289,106,42954,6,0,P|216:148|141:110,1,174.999994659424,2|2,1:2|3:2,0:0:0:0:
289,106,43212,2,0,B|314:81|314:81|456:92,1,174.999994659424,2|0,1:2|0:0,0:0:0:0:
493,213,43471,5,8,3:1:0:0:
442,200,43557,1,0,0:0:0:0:
392,214,43643,1,2,1:2:0:0:
356,252,43729,1,2,1:2:0:0:
343,302,43816,5,0,3:0:0:0:
301,287,43902,1,0,0:0:0:0:
260,272,43988,1,2,1:2:0:0:
219,287,44074,1,0,1:0:0:0:
178,302,44161,1,8,3:1:0:0:
136,287,44247,1,0,0:0:0:0:
94,272,44333,2,0,P|71:296|54:354,1,87.499997329712,0|0,1:0|0:0,0:0:0:0:
279,347,44505,6,0,P|247:270|164:240,1,174.999994659424,0|2,3:0|0:0,0:0:0:0:
18,240,44764,1,0,0:0:0:0:
18,240,44850,2,0,P|52:268|95:272,1,87.499997329712,8|0,3:1|0:0,0:0:0:0:
312,134,45023,2,0,P|268:137|235:164,1,87.499997329712,2|0,1:2|0:0,0:0:0:0:
279,347,45195,5,0,3:0:0:0:
440,296,45368,1,2,1:2:0:0:
448,300,45453,1,2,0:2:0:0:
456,304,45540,1,8,3:1:0:0:
452,260,45626,1,0,0:0:0:0:
448,216,45712,1,0,1:0:0:0:
444,173,45799,1,2,1:2:0:0:
440,129,45885,6,0,L|350:118,1,87.499997329712,2|2,3:1|0:0,0:0:0:0:
267,106,46057,2,0,L|180:94,1,87.499997329712,0|2,0:0|0:1,0:0:0:0:
93,84,46230,1,8,0:1:0:0:
146,254,46402,1,2,0:1:0:0:
146,254,46488,1,0,3:0:0:0:
146,254,46574,6,0,B|177:238|177:238|325:258,2,174.999994659424,0|0|12,3:0|3:0|3:2,0:0:0:0:
79,297,47005,2,0,L|7:289,1,62.5,0|8,0:0|0:0,0:0:0:0:
384,315,47264,6,0,B|423:208|349:244|395:128,1,187.5,4|0,3:2|0:0,0:0:0:0:
460,75,47609,1,8,3:1:0:0:
460,75,47695,2,0,P|482:134|460:192,1,125,2|0,1:2|0:0,0:0:0:0:
311,181,47954,6,0,P|315:150|324:120,1,62.5,0|0,3:0|0:0,0:0:0:0:
294,184,48126,2,0,P|285:153|282:122,1,62.5,0|2,1:2|0:0,0:0:0:0:
279,198,48299,1,8,3:1:0:0:
235,200,48385,1,2,0:0:0:0:
191,202,48471,1,2,0:0:0:0:
147,205,48557,1,0,0:0:0:0:
104,207,48643,6,0,P|78:272|97:326,1,125,0|2,3:0|0:0,0:0:0:0:
219,282,48902,1,0,1:0:0:0:
219,282,48988,2,0,L|158:269,1,62.5,8|0,3:1|0:0,0:0:0:0:
219,255,49161,2,0,L|158:269,1,62.5,0|2,1:0|0:0,0:0:0:0:
267,341,49333,5,0,3:0:0:0:
312,359,49419,1,2,0:0:0:0:
362,357,49505,1,2,1:0:0:0:
406,333,49592,1,0,0:0:0:0:
435,293,49678,1,8,3:1:0:0:
445,245,49764,1,2,0:0:0:0:
432,197,49850,1,2,1:0:0:0:
401,158,49936,1,2,0:0:0:0:
356,137,50023,6,0,B|323:156|323:156|232:148,1,125,0|0,3:0|0:0,0:0:0:0:
167,123,50281,1,0,1:0:0:0:
167,123,50368,2,0,P|131:114|98:122,1,62.5,8|0,3:1|0:0,0:0:0:0:
225,73,50540,2,0,P|253:60|284:59,1,62.5,2|0,1:2|0:0,0:0:0:0:
380,62,50712,5,0,3:0:0:0:
380,62,50799,1,0,0:0:0:0:
380,62,50885,2,0,P|399:38|427:23,1,62.5,2|0,1:2|0:0,0:0:0:0:
476,181,51057,2,0,P|445:184|415:178,1,62.5,8|2,3:1|0:0,0:0:0:0:
368,140,51230,2,0,P|387:163|415:178,1,62.5,2|0,1:2|0:0,0:0:0:0:
446,327,51402,6,0,B|452:267|452:267|389:309,1,125,0|2,3:0|0:0,0:0:0:0:
327,371,51661,1,0,1:0:0:0:
327,371,51747,2,0,L|256:363,1,62.5,8|0,3:1|0:0,0:0:0:0:
180,355,51919,2,0,L|118:349,1,62.5,0|2,1:0|0:0,0:0:0:0:
32,377,52092,5,2,3:2:0:0:
32,377,52178,1,2,0:0:0:0:
32,377,52264,2,0,P|78:335|70:277,1,125,2|8,1:0|3:1,0:0:0:0:
46,69,52609,5,2,3:1:0:0:
31,143,52695,1,0,3:0:0:0:
16,217,52781,6,2,B|79:203|79:203|132:228|132:228|195:212,1,187.5,0|0,3:0|0:0,0:1:0:0:
266,248,53126,2,0,P|311:194|370:203,1,125,8|2,3:1|0:0,0:0:0:0:
405,266,53385,5,0,1:0:0:0:
405,266,53471,2,0,L|410:334,1,62.5,0|0,3:0|0:0,0:0:0:0:
442,191,53643,2,0,L|437:128,1,62.5,0|2,1:0|0:0,0:0:0:0:
254,74,53816,2,0,L|258:136,1,62.5,8|2,3:1|0:0,0:0:0:0:
354,67,53988,2,0,L|349:4,1,62.5,2|0,1:2|0:0,0:0:0:0:
136,10,54161,6,0,B|141:46|141:46|46:37,1,125,0|2,3:0|0:0,0:0:0:0:
22,178,54419,1,0,1:0:0:0:
22,178,54505,2,0,P|39:155|47:117,1,62.5,8|0,3:1|0:0,0:0:0:0:
61,181,54678,2,0,P|48:152|47:121,1,62.5,0|2,1:0|0:0,0:0:0:0:
139,131,54850,5,0,3:0:0:0:
139,131,54936,1,2,0:0:0:0:
139,131,55023,2,0,P|204:152|225:202,1,125,2|8,1:0|3:1,0:0:0:0:
228,226,55281,1,2,0:0:0:0:
241,191,55367,1,2,1:0:0:0:
281,169,55453,1,2,0:0:0:0:
342,177,55540,6,2,B|402:162|391:201|465:177,1,125,0|2,3:0|0:0,0:1:0:0:
421,48,55799,1,0,1:0:0:0:
421,48,55885,2,2,P|417:78|425:109,1,62.5,8|0,3:1|0:0,0:1:0:0:
492,313,56057,2,2,P|499:282|495:252,1,62.5,0|2,1:0|0:0,0:1:0:0:
406,359,56230,6,2,L|217:345,1,187.5,0|2,3:0|0:1,0:1:0:0:
81,372,56574,2,0,L|143:367,1,62.5,8|0,3:1|0:0,0:0:0:0:
237,268,56747,5,2,3:2:0:0:
162,291,56833,1,2,3:2:0:0:
100,240,56919,6,2,L|90:153,1,87.499997329712,4|0,3:2|0:0,0:0:0:0:
272,195,57178,6,2,L|282:108,1,87.499997329712,4|0,3:2|0:0,0:0:0:0:
116,60,57436,6,2,L|111:4,1,43.749998664856,4|0,3:2|0:1,0:1:0:0:
181,94,57609,6,2,P|143:130|102:131,1,87.499997329712,0|0,0:0|1:0,0:1:0:0:
38,73,57781,1,0,1:0:0:0:
33,62,57868,1,0,1:0:0:0:
31,52,57954,6,2,B|41:141|41:141|11:183|11:183|20:268,1,224.999993133545,0|2,1:0|0:0,0:1:0:0:
68,341,58299,5,0,3:0:0:0:
102,355,58385,1,0,1:0:0:0:
139,360,58471,1,2,0:2:0:0:
176,357,58557,1,0,1:0:0:0:
212,344,58643,2,0,B|254:333|254:333|298:347,1,87.499997329712,8|2,3:1|0:2,0:0:0:0:
369,375,58902,1,0,1:0:0:0:
428,325,58988,5,0,3:0:0:0:
429,294,59074,1,0,1:0:0:0:
430,271,59161,1,2,1:2:0:0:
430,258,59247,1,2,0:0:0:0:
432,246,59333,1,8,3:1:0:0:
432,233,59419,1,0,0:0:0:0:
433,210,59505,1,2,1:2:0:0:
433,178,59591,1,2,1:2:0:0:
398,112,59678,5,0,3:0:0:0:
398,112,59764,2,0,L|297:106,1,87.499997329712,0|0,1:0|0:0,0:0:0:0:
318,182,60023,1,8,3:1:0:0:
331,182,60109,1,2,0:0:0:0:
344,183,60195,1,2,1:2:0:0:
357,184,60281,1,0,1:0:0:0:
335,37,60368,5,0,3:0:0:0:
313,28,60454,2,0,L|212:22,1,87.499997329712,0|0,1:0|0:0,0:0:0:0:
158,78,60712,1,8,3:1:0:0:
158,78,60799,2,0,P|116:57|68:64,1,87.499997329712,2|0,1:2|0:0,0:0:0:0:
69,172,61057,5,0,3:0:0:0:
58,184,61143,1,2,0:0:0:0:
70,197,61230,1,2,0:0:0:0:
86,192,61316,1,0,0:2:0:0:
85,173,61402,5,8,3:1:0:0:
304,169,61574,1,0,1:0:0:0:
304,169,61661,1,2,0:0:0:0:
304,169,61747,2,0,L|300:215,1,43.749998664856,0|2,3:0|0:2,0:0:0:0:
312,340,61919,2,0,L|316:297,1,43.749998664856,0|2,1:0|0:0,0:0:0:0:
316,297,62092,2,0,B|270:307|270:307|222:293,1,87.499997329712,8|2,3:1|0:0,0:0:0:0:
212,221,62350,5,2,0:0:0:0:
212,221,62436,2,0,L|200:121,1,87.499997329712,0|2,3:0|0:0,0:0:0:0:
233,92,62695,1,0,0:0:0:0:
217,113,62781,1,8,3:1:0:0:
201,134,62867,1,0,0:0:0:0:
184,114,62953,1,2,1:2:0:0:
167,93,63040,1,2,0:0:0:0:
176,21,63126,6,0,P|201:14|226:14,1,43.749998664856,0|8,3:0|0:2,0:0:0:0:
424,30,63299,2,0,P|398:47|367:51,1,56.2499982833863,0|0,1:0|0:0,0:0:0:0:
301,7,63471,5,8,3:1:0:0:
300,75,63557,1,0,3:0:0:0:
297,143,63643,2,0,L|296:206,1,62.5,0|0,3:0|0:0,0:0:0:0:
353,330,63816,5,0,3:0:0:0:
331,299,63902,1,0,1:0:0:0:
300,279,63988,1,2,0:0:0:0:
263,274,64074,1,0,1:0:0:0:
227,284,64161,2,0,P|185:304|141:299,1,87.499997329712,8|2,3:1|0:0,0:0:0:0:
104,235,64419,1,0,1:0:0:0:
123,160,64505,5,0,3:0:0:0:
117,118,64591,1,0,1:0:0:0:
101,98,64677,1,2,1:2:0:0:
79,93,64763,1,0,0:0:0:0:
58,97,64849,1,8,3:1:0:0:
41,111,64936,1,0,0:0:0:0:
36,137,65022,1,2,1:2:0:0:
51,177,65108,1,2,1:2:0:0:
104,235,65195,5,0,3:0:0:0:
104,235,65281,2,0,L|192:230,1,87.499997329712,0|0,1:0|0:0,0:0:0:0:
303,185,65540,5,8,3:1:0:0:
289,185,65626,1,2,0:0:0:0:
276,186,65712,1,2,1:2:0:0:
263,187,65798,1,0,1:0:0:0:
235,98,65885,5,0,3:0:0:0:
243,64,65971,2,0,P|282:46|326:45,1,87.499997329712,0|0,1:0|0:0,0:0:0:0:
410,76,66230,1,8,3:1:0:0:
410,76,66316,2,0,L|416:171,1,87.499997329712,2|0,1:2|0:0,0:0:0:0:
462,300,66574,6,0,L|382:312,1,74.9999977111817,4|0,3:2|0:0,0:0:0:0:
479,311,66833,6,0,L|404:322,1,74.9999977111817,4|0,3:2|0:0,0:0:0:0:
241,206,67092,6,0,P|289:213|318:252,1,100,8|0,0:1|0:0,0:0:0:0:
185,308,67264,6,0,L|110:296,1,74.9999977111817,4|0,3:2|0:0,0:0:0:0:
168,319,67523,6,0,L|93:307,1,74.9999977111817,4|0,3:2|0:0,0:0:0:0:
59,154,67781,5,8,3:1:0:0:
81,150,67868,1,0,1:0:0:0:
103,146,67954,5,0,3:0:0:0:
123,177,68040,1,2,0:0:0:0:
155,196,68126,1,0,1:0:0:0:
192,200,68212,1,0,3:0:0:0:
227,188,68299,1,2,0:0:0:0:
262,176,68385,1,0,1:0:0:0:
299,180,68471,1,0,3:0:0:0:
331,199,68557,2,0,L|336:230,1,31.25,2|0,1:2|1:0,0:0:0:0:
316,324,68643,6,2,L|268:265,1,74.9999977111817,0|0,3:0|0:0,0:0:0:0:
393,315,68816,2,2,L|409:241,1,74.9999977111817,0|0,3:0|0:0,0:0:0:0:
304,15,68988,6,2,B|277:148|357:99|336:231,1,224.999993133545,4|0,3:2|0:0,0:0:0:0:
336,231,69333,6,0,P|305:197|302:150,1,87.499997329712,4|0,0:2|0:0,0:0:0:0:
376,19,69678,2,0,P|360:61|320:86,1,87.499997329712
215,113,70023,1,0,0:0:0:0:
215,113,70109,1,0,0:0:0:0:
215,113,70195,1,0,0:0:0:0:
29,79,70368,1,2,0:0:0:0:
52,303,70540,2,0,L|59:254,1,43.749998664856,2|0,0:0|0:0,0:0:0:0:
38,220,70712,6,0,B|58:261|58:261|86:231,1,87.499997329712,0|2,0:0|0:0,0:0:0:0:
250,218,71057,2,0,L|244:262,1,43.749998664856,2|0,0:0|0:0,0:0:0:0:
264,303,71230,2,0,B|244:262|244:262|216:292,1,87.499997329712,2|2,0:0|0:0,0:0:0:0:
226,365,71488,1,0,0:0:0:0:
226,365,71574,1,2,0:0:0:0:
399,343,71747,1,2,0:0:0:0:
448,154,71919,1,0,0:0:0:0:
455,132,72005,1,0,0:0:0:0:
448,110,72092,6,0,L|352:99,1,87.499997329712,2|0,0:2|0:0,0:0:0:0:
66,97,72436,1,0,0:0:0:0:
168,113,72609,1,0,0:0:0:0:
323,215,72781,1,0,0:0:0:0:
221,199,72954,1,0,0:0:0:0:
378,143,73126,1,2,0:0:0:0:
434,300,73299,1,2,0:0:0:0:
277,356,73471,5,2,0:0:0:0:
249,278,73643,1,2,0:0:0:0:
221,200,73816,1,2,0:0:0:0:
114,327,73988,1,2,0:0:0:0:
330,292,74161,1,0,0:0:0:0:
167,263,74333,1,0,0:0:0:0:
358,369,74505,1,2,0:0:0:0:
302,215,74678,1,2,0:0:0:0:
196,342,74850,5,2,0:0:0:0:
274,137,75023,2,0,L|332:133,1,43.749998664856,0|2,0:0|0:0,0:0:0:0:
399,176,75195,1,2,0:0:0:0:
434,174,75281,1,0,0:0:0:0:
460,147,75368,2,0,L|506:143,1,43.749998664856,2|0,0:0|0:0,0:0:0:0:
419,52,75540,5,10,0:0:0:0:
384,46,75626,1,0,0:0:0:0:
349,40,75712,1,0,0:0:0:0:
315,34,75798,1,10,0:0:0:0:
298,64,75885,1,2,0:0:0:0:
134,24,76057,1,10,0:0:0:0:
117,54,76144,1,0,0:0:0:0:
83,48,76230,6,0,L|40:41,1,43.749998664856,2|0,0:0|0:0,0:0:0:0:
107,137,76402,2,0,L|64:130,1,43.749998664856,2|2,0:0|0:0,0:0:0:0:
22,243,76574,1,0,0:0:0:0:
52,247,76661,1,2,0:0:0:0:
63,220,76747,2,0,L|20:214,1,43.749998664856,2|0,0:0|0:0,0:0:0:0:
53,326,76919,5,8,0:2:0:0:
87,329,77005,1,0,0:0:0:0:
122,332,77091,1,0,0:0:0:0:
157,335,77177,1,8,0:2:0:0:
178,307,77264,1,2,0:0:0:0:
381,265,77436,1,8,0:2:0:0:
346,261,77522,1,2,0:0:0:0:
329,294,77609,5,0,1:2:0:0:
253,296,77695,1,2,1:2:0:0:
221,227,77781,2,0,L|228:164,1,62.5,0|0,1:0|0:0,0:0:0:0:
257,149,77954,5,0,0:0:0:0:
243,178,78040,1,2,0:0:0:0:
211,173,78126,1,0,1:0:0:0:
208,141,78212,1,0,0:0:0:0:
242,78,78299,6,0,B|250:16,1,62.5,0|2,0:0|0:0,0:0:0:0:
329,178,78471,1,0,1:0:0:0:
329,178,78557,1,0,0:0:0:0:
329,178,78643,2,0,B|337:116,1,62.5,8|2,0:0|0:0,0:0:0:0:
132,146,78816,2,0,B|140:208,1,62.5,0|2,1:0|0:0,0:0:0:0:
309,307,78988,5,0,0:0:0:0:
315,277,79074,1,2,0:0:0:0:
305,250,79161,1,2,0:0:0:0:
281,232,79247,1,0,0:0:0:0:
251,229,79333,1,8,0:0:0:0:
226,243,79419,1,0,0:0:0:0:
211,268,79505,1,0,0:0:0:0:
211,298,79592,1,0,0:0:0:0:
228,322,79678,6,0,L|302:331,1,74.9999977111817,8|2,0:0|0:0,0:0:0:0:
315,277,79850,6,0,P|277:309|229:321,1,100,8|0,0:0|0:0,0:0:0:0:
73,274,80023,6,0,L|25:283,1,46.875,10|0,0:0|0:0,0:0:0:0:
58,293,80368,5,4,3:1:0:0:
79,245,80454,1,10,0:0:0:0:
123,220,80540,1,0,0:0:0:0:
175,226,80626,1,0,1:0:0:0:
237,285,80712,5,8,3:1:0:0:
263,282,80798,1,2,0:0:0:0:
289,279,80884,1,0,1:0:0:0:
315,277,80970,1,2,0:0:0:0:
380,350,81057,5,0,3:0:0:0:
404,314,81143,1,0,1:0:0:0:
411,271,81230,1,0,0:0:0:0:
400,229,81316,1,2,0:0:0:0:
372,196,81402,1,8,3:1:0:0:
347,160,81488,1,2,0:0:0:0:
340,117,81574,1,10,1:2:0:0:
351,75,81661,1,0,1:0:0:0:
379,42,81747,6,0,P|337:122|256:113,1,174.999994659424,0|2,3:0|0:0,0:0:0:0:
188,72,82005,1,2,1:2:0:0:
115,20,82092,2,0,P|74:6|32:19,1,87.499997329712,8|0,3:1|0:0,0:0:0:0:
192,156,82264,2,0,P|191:199|165:234,1,87.499997329712,0|0,1:0|0:0,0:0:0:0:
57,342,82436,6,0,L|43:255,1,87.499997329712,2|0,3:2|0:0,0:0:0:0:
49,332,82609,2,0,L|35:245,1,87.499997329712,0|2,1:0|0:0,0:0:0:0:
77,89,82781,1,8,3:1:0:0:
90,110,82868,1,2,0:0:0:0:
84,135,82954,1,10,1:2:0:0:
62,149,83040,1,0,1:0:0:0:
38,144,83126,5,0,3:0:0:0:
90,142,83212,1,10,0:0:0:0:
142,140,83299,1,0,0:0:0:0:
195,138,83385,1,0,1:0:0:0:
280,162,83471,5,8,3:1:0:0:
299,144,83557,1,2,0:0:0:0:
322,132,83643,1,0,1:0:0:0:
348,129,83730,1,2,0:0:0:0:
410,199,83816,5,0,3:0:0:0:
422,219,83902,1,0,1:0:0:0:
426,203,83988,1,0,0:0:0:0:
405,215,84074,1,2,0:0:0:0:
406,192,84161,1,8,3:1:0:0:
424,224,84247,1,2,0:0:0:0:
431,198,84333,1,10,1:2:0:0:
398,217,84419,1,0,1:0:0:0:
414,207,84505,6,0,B|370:213|370:213|317:269|317:269|263:277,1,174.999994659424,0|2,3:0|0:0,0:0:0:0:
187,234,84764,1,2,1:2:0:0:
104,263,84850,2,0,L|92:349,1,87.499997329712,8|0,3:1|0:0,0:0:0:0:
276,202,85023,2,0,L|287:115,1,87.499997329712,0|0,1:0|0:0,0:0:0:0:
123,124,85195,5,2,3:2:0:0:
123,143,85282,1,0,0:0:0:0:
137,156,85368,1,0,1:0:0:0:
156,156,85454,1,2,0:0:0:0:
169,142,85540,1,8,3:1:0:0:
169,123,85626,1,2,0:0:0:0:
156,109,85712,1,10,1:2:0:0:
136,109,85799,1,2,1:2:0:0:
52,173,85885,5,0,3:0:0:0:
84,213,85971,1,10,0:0:0:0:
133,232,86057,1,0,0:0:0:0:
184,225,86143,1,0,1:0:0:0:
257,196,86230,5,8,3:1:0:0:
261,221,86316,1,2,0:0:0:0:
266,247,86402,1,0,1:0:0:0:
270,273,86488,1,2,0:0:0:0:
173,356,86574,5,0,3:0:0:0:
176,312,86660,1,0,1:0:0:0:
180,268,86746,1,0,0:0:0:0:
184,225,86832,1,2,0:0:0:0:
187,181,86918,1,8,3:1:0:0:
191,138,87005,1,2,0:0:0:0:
195,94,87091,1,10,1:2:0:0:
199,50,87178,1,0,1:0:0:0:
203,6,87264,6,0,P|244:70|349:57,1,174.999994659424,0|2,3:0|0:0,0:0:0:0:
407,17,87523,1,2,1:2:0:0:
464,83,87609,2,0,L|467:172,1,87.499997329712,8|0,3:1|0:0,0:0:0:0:
471,257,87781,2,0,L|474:346,1,87.499997329712,0|0,1:0|0:0,0:0:0:0:
278,273,87954,6,0,P|307:245|360:238,1,87.499997329712,2|0,3:2|0:0,0:0:0:0:
190,325,88126,2,0,P|147:317|115:288,1,87.499997329712,0|2,1:0|0:0,0:0:0:0:
59,163,88299,1,8,3:1:0:0:
62,137,88385,1,2,0:0:0:0:
66,111,88471,1,10,1:2:0:0:
70,85,88557,1,0,1:0:0:0:
73,59,88643,5,0,3:0:0:0:
118,83,88729,1,10,0:0:0:0:
141,129,88815,1,0,0:0:0:0:
135,181,88901,1,0,1:0:0:0:
183,245,88988,5,8,3:1:0:0:
209,242,89074,1,2,0:0:0:0:
235,240,89160,1,0,1:0:0:0:
261,237,89246,1,2,0:0:0:0:
310,299,89333,5,0,3:0:0:0:
330,306,89419,1,0,1:0:0:0:
307,300,89505,1,0,0:0:0:0:
332,303,89591,1,2,0:0:0:0:
308,303,89678,1,8,3:1:0:0:
328,300,89764,1,2,0:0:0:0:
311,304,89850,1,10,1:2:0:0:
327,298,89936,1,0,1:0:0:0:
320,304,90023,6,0,B|355:319|392:314|392:314|457:343|457:343|446:312,1,174.999994659424,0|2,3:0|0:0,0:0:0:0:
433,228,90281,1,2,1:2:0:0:
443,140,90368,2,0,P|453:99|488:65,1,87.499997329712,8|0,3:1|0:0,0:0:0:0:
333,208,90540,2,0,P|290:202|255:175,1,87.499997329712,0|0,1:0|0:0,0:0:0:0:
121,97,90712,5,2,3:2:0:0:
86,90,90799,1,2,0:0:0:0:
79,126,90885,1,0,1:0:0:0:
114,133,90971,1,0,1:0:0:0:
121,97,91057,5,2,3:2:0:0:
121,97,91143,1,2,3:2:0:0:
121,97,91230,1,0,3:0:0:0:
322,322,91402,5,4,3:2:0:0:
294,277,91488,1,10,0:0:0:0:
245,261,91574,1,0,0:0:0:0:
198,280,91661,1,0,1:0:0:0:
173,325,91747,1,8,3:1:0:0:
125,344,91833,1,2,0:0:0:0:
76,328,91919,1,0,1:0:0:0:
49,284,92005,1,2,0:0:0:0:
56,233,92092,5,0,3:0:0:0:
94,199,92178,1,0,1:0:0:0:
145,197,92264,1,0,0:0:0:0:
183,163,92350,1,2,0:0:0:0:
190,112,92436,1,8,3:1:0:0:
163,68,92523,1,2,0:0:0:0:
114,52,92609,1,10,1:2:0:0:
66,71,92695,1,0,1:0:0:0:
41,116,92781,6,0,B|111:129|111:129|149:114|149:114|221:127,1,174.999994659424,0|2,3:0|0:0,0:0:0:0:
263,196,93040,1,2,1:2:0:0:
348,210,93126,2,0,L|443:226,1,87.499997329712,8|0,3:1|0:0,0:0:0:0:
297,110,93299,2,0,L|211:125,1,87.499997329712,0|0,1:0|0:0,0:0:0:0:
124,122,93471,6,0,P|107:82|107:39,1,87.499997329712,2|0,3:2|0:0,0:0:0:0:
229,41,93643,2,0,P|228:84|211:125,1,87.499997329712,0|2,1:0|0:0,0:0:0:0:
103,306,93816,1,8,3:1:0:0:
97,297,93902,1,2,0:0:0:0:
95,287,93988,1,10,1:2:0:0:
97,276,94074,1,0,0:0:0:0:
103,268,94161,5,0,3:0:0:0:
154,276,94247,1,10,0:0:0:0:
146,327,94333,1,0,0:0:0:0:
95,319,94419,1,0,1:0:0:0:
103,268,94505,5,8,3:1:0:0:
111,217,94592,1,2,0:0:0:0:
119,166,94678,1,0,1:0:0:0:
111,115,94765,1,2,0:0:0:0:
103,64,94850,5,0,3:0:0:0:
155,69,94936,1,0,1:0:0:0:
207,74,95023,1,0,0:0:0:0:
201,126,95109,1,2,0:0:0:0:
197,178,95195,1,8,3:1:0:0:
145,172,95281,1,2,0:0:0:0:
93,168,95368,1,10,1:2:0:0:
99,116,95454,1,0,1:0:0:0:
103,64,95540,6,0,B|133:34|133:34|270:44,1,174.999994659424,0|2,3:0|0:0,0:0:0:0:
310,119,95799,1,2,1:2:0:0:
361,189,95885,2,0,P|403:197|445:186,1,87.499997329712,8|0,3:1|0:0,0:0:0:0:
349,41,96057,2,0,P|306:32|265:44,1,87.499997329712,0|0,1:0|0:0,0:0:0:0:
217,217,96230,5,2,3:2:0:0:
213,236,96316,1,0,0:0:0:0:
194,232,96402,1,0,1:0:0:0:
198,213,96488,1,2,0:0:0:0:
217,217,96574,5,8,3:1:0:0:
213,236,96660,1,2,0:0:0:0:
255,294,96747,5,10,1:2:0:0:
259,313,96833,1,2,3:2:0:0:
286,326,96919,5,0,3:0:0:0:
281,274,97005,1,10,0:0:0:0:
299,225,97092,1,0,0:0:0:0:
336,189,97178,1,0,1:0:0:0:
385,172,97264,5,8,3:1:0:0:
336,155,97350,1,2,0:0:0:0:
299,119,97436,1,0,1:0:0:0:
281,70,97523,1,2,0:0:0:0:
286,19,97609,5,0,3:0:0:0:
238,39,97695,1,0,1:0:0:0:
199,74,97781,1,0,0:0:0:0:
174,120,97868,1,2,0:0:0:0:
165,172,97954,1,8,3:1:0:0:
174,223,98040,1,2,0:0:0:0:
199,269,98126,1,10,1:2:0:0:
238,304,98212,1,0,1:0:0:0:
286,326,98299,6,0,B|369:315|369:315|378:308|378:308|460:297,1,174.999994659424,0|2,3:0|0:0,0:0:0:0:
461,210,98557,1,2,1:2:0:0:
464,121,98643,2,0,L|468:34,1,87.499997329712,8|0,3:1|0:0,0:0:0:0:
336,154,98816,2,0,L|332:241,1,87.499997329712,0|0,1:0|0:0,0:0:0:0:
146,114,98988,6,0,B|186:90|186:90|225:101,1,87.499997329712,2|0,3:2|0:0,0:0:0:0:
273,295,99161,1,0,1:0:0:0:
194,289,99247,1,2,0:0:0:0:
115,284,99333,1,8,3:1:0:0:
118,293,99419,1,2,0:0:0:0:
120,301,99505,1,10,1:2:0:0:
122,309,99592,1,0,1:2:0:0:
125,317,99678,5,0,3:0:0:0:
171,340,99764,1,10,0:0:0:0:
223,337,99850,1,0,0:0:0:0:
266,308,99936,1,0,1:0:0:0:
288,261,100023,1,8,3:1:0:0:
331,232,100109,1,2,0:0:0:0:
383,229,100195,1,0,1:0:0:0:
430,253,100281,1,2,0:0:0:0:
457,298,100368,5,0,3:0:0:0:
402,293,100454,1,0,1:0:0:0:
352,288,100540,1,0,0:0:0:0:
299,283,100626,1,2,0:0:0:0:
247,278,100712,1,8,3:1:0:0:
194,273,100799,1,2,0:0:0:0:
142,268,100885,1,10,1:2:0:0:
89,263,100971,1,2,1:2:0:0:
37,258,101057,6,0,B|69:226|69:226|203:240,1,174.999994659424,0|2,3:0|0:0,0:0:0:0:
290,191,101316,6,0,P|252:231|197:239,1,112.499996566773,8|8,1:2|3:1,0:0:0:0:
123,183,101488,1,2,1:2:0:0:
204,128,101574,2,0,B|199:181|199:181|202:191|202:191|198:240,1,112.499996566773,2|0,3:2|0:0,0:0:0:0:
318,282,101747,5,0,3:0:0:0:
363,209,101833,2,0,L|359:162,1,43.749998664856,0|0,1:0|1:0,0:0:0:0:
354,153,101919,6,0,L|361:30,1,112.499996566773,4|0,3:2|0:0,0:0:0:0:
187,40,102092,5,2,3:2:0:0:
98,52,102178,1,2,3:2:0:0:
9,64,102264,1,2,3:2:0:0:
160,58,102436,6,0,L|35:52,1,125,4|2,3:2|0:0,0:0:0:0:
60,159,102695,1,0,0:0:0:0:
60,159,102781,1,8,3:1:0:0:
60,159,102868,2,0,B|118:143|118:143|182:164,1,125,2|0,0:0|0:0,0:0:0:0:
179,163,103126,6,0,L|303:159,1,125,0|2,3:0|0:0,0:0:0:0:
468,177,103471,2,0,L|466:115,1,62.5,8|0,3:1|0:0,0:0:0:0:
390,216,103643,2,0,L|388:154,1,62.5,2|2,0:0|0:0,0:0:0:0:
356,32,103816,6,0,P|324:78|251:70,1,125,0|2,3:0|0:0,0:0:0:0:
207,16,104074,1,0,0:0:0:0:
69,35,104161,2,0,B|115:38|115:38|150:27|150:27|192:29,1,125,8|2,3:1|0:0,0:0:0:0:
171,192,104505,5,0,3:0:0:0:
165,148,104591,1,2,0:0:0:0:
160,105,104678,1,2,0:0:0:0:
69,35,104850,1,8,3:1:0:0:
69,35,104936,1,2,0:0:0:0:
5,97,105109,1,2,0:0:0:0:
5,97,105195,6,0,L|18:223,1,125,0|2,3:0|0:0,0:0:0:0:
79,345,105454,2,0,L|71:282,1,62.5,0|8,0:0|3:1,0:0:0:0:
122,216,105626,1,2,0:0:0:0:
193,268,105712,2,0,P|253:280|311:236,1,125,2|0,0:0|3:0,0:0:0:0:
304,247,105971,5,0,0:0:0:0:
304,247,106057,1,2,0:0:0:0:
352,149,106230,1,8,3:1:0:0:
352,149,106316,1,2,0:0:0:0:
467,315,106488,1,2,0:0:0:0:
467,315,106574,6,0,B|410:341|410:341|343:322,1,125,0|2,3:0|0:0,0:0:0:0:
75,294,106919,2,0,L|199:286,1,125,8|2,3:1|0:0,0:0:0:0:
223,160,107264,5,0,3:0:0:0:
298,165,107350,1,8,0:1:0:0:
373,170,107436,1,2,0:0:0:0:
406,277,107609,1,8,3:1:0:0:
406,277,107695,1,2,0:0:0:0:
199,286,107868,5,2,3:2:0:0:
120,271,107954,1,0,3:0:0:0:
41,256,108040,5,2,0:0:0:0:
39,249,108126,1,2,0:0:0:0:
37,243,108212,1,2,0:0:0:0:
36,236,108299,6,2,L|48:170,1,62.5,8|0,3:1|0:0,0:0:0:0:
202,279,108471,2,2,L|214:213,1,62.5,2|0,0:0|0:0,0:0:0:0:
142,85,108643,5,0,3:0:0:0:
142,85,108730,1,0,0:0:0:0:
142,85,108816,2,0,B|162:153|108:132|131:214,1,125,2|8,0:0|3:1,0:0:0:0:
324,117,109074,2,0,P|282:72|221:70,1,125,2|2,0:0|3:2,0:0:0:0:
249,147,109333,1,0,3:0:0:0:
213,217,109419,5,2,0:0:0:0:
214,224,109505,1,2,0:0:0:0:
215,232,109591,1,2,0:0:0:0:
216,239,109678,6,2,L|276:255,1,62.5,8|0,3:1|0:0,0:0:0:0:
489,237,109850,2,2,L|429:253,1,62.5,2|0,0:0|0:0,0:0:0:0:
352,349,110023,5,0,3:0:0:0:
352,349,110109,1,0,0:0:0:0:
352,349,110195,2,0,L|352:220,1,125,2|8,0:0|3:1,0:0:0:0:
287,185,110454,2,0,P|347:185|391:134,1,125,2|2,0:0|0:0,0:0:0:0:
346,45,110712,6,0,B|250:43|250:43|231:72,1,125,0|2,3:0|0:0,0:0:0:0:
41,239,111057,1,8,3:1:0:0:
33,114,111230,1,2,0:0:0:0:
141,259,111402,5,0,3:0:0:0:
150,160,111574,1,2,0:0:0:0:
59,322,111747,1,8,3:1:0:0:
80,332,111833,1,2,0:0:0:0:
106,344,111919,5,2,3:2:0:0:
186,336,112005,1,2,3:2:0:0:
289,362,112092,6,2,L|378:357,1,87.499997329712,4|0,3:2|0:0,0:1:0:0:
268,251,112350,1,8,3:1:0:0:
278,255,112436,1,0,1:0:0:0:
288,259,112523,1,2,0:0:0:0:
298,263,112609,2,0,P|317:218|315:164,1,87.499997329712,0|0,3:0|0:0,0:0:0:0:
289,62,112781,6,2,L|286:117,1,50,0|0,0:0|0:0,0:1:0:0:
438,70,112954,6,0,L|440:20,4,43.749998664856,0|0|0|0|8,1:0|1:0|1:0|1:0|3:1,0:0:0:0:
460,162,113212,5,0,1:0:0:0:
160,119,113385,5,2,1:0:0:0:
