osu file format v14

[General]
AudioFilename: audio.mp3
AudioLeadIn: 0
PreviewTime: 77609
Countdown: 0
SampleSet: Soft
StackLeniency: 0.3
Mode: 0
LetterboxInBreaks: 0
WidescreenStoryboard: 0

[Editor]
Bookmarks: 195,3126,14161,25195,36230,47264,58299,69333,80368,91402,102436,112092,113471
DistanceSpacing: 1.1
BeatDivisor: 12
GridSize: 8
TimelineZoom: 2.600005

[Metadata]
Title:polygon
TitleUnicode:polygon
Artist:Sota Fujimori
ArtistUnicode:Sota Fujimori
Creator:Sebu
Version:-GN's pentagon
Source:jubeat copious
Tags:REFLEC BEAT CXu -GN -PC
BeatmapID:1018938
BeatmapSetID:422136

[Difficulty]
HPDrainRate:6
CircleSize:4
OverallDifficulty:8
ApproachRate:9
SliderMultiplier:1.56
SliderTickRate:1

[Events]
//Background and Video events
0,0,"polygonal_space_by_kanman142-d92loa3.jpg",0,0
//Break Periods
//Storyboard Layer 0 (Background)
//Storyboard Layer 1 (Fail)
//Storyboard Layer 2 (Pass)
//Storyboard Layer 3 (Foreground)
//Storyboard Sound Samples

[TimingPoints]
368,344.827586206897,4,2,1,40,1,0
3126,-66.6666666666667,4,2,1,60,0,0
11057,-58.8235294117647,4,2,1,60,0,0
11402,-66.6666666666667,4,2,1,60,0,0
14161,-100,4,2,1,60,0,0
23816,-83.3333333333333,4,2,1,60,0,0
25195,-76.9230769230769,4,2,1,60,0,0
36230,-71.4285714285714,4,2,1,60,0,0
66574,-66.6666666666667,4,2,1,60,0,0
69333,-100,4,2,1,40,0,0
74850,-100,4,2,1,60,0,0
77609,-66.6666666666667,4,2,1,70,0,0
78988,-66.6666666666667,4,2,1,80,0,0
79678,-66.6666666666667,4,2,1,50,0,0
80368,-66.6666666666667,4,2,1,70,0,1
102436,-71.4285714285714,4,2,1,60,0,0

[Colours]
Combo1 : 141,40,223
Combo2 : 215,19,68
Combo3 : 180,95,216
Combo4 : 81,47,217

[HitObjects]
226,69,368,5,0,1:0:0:0:
257,64,454,1,0,1:0:0:0:
288,60,540,1,2,1:2:0:0:
318,56,626,1,0,1:0:0:0:
483,152,799,2,0,L|424:142,1,39,2|0,0:0|1:0,0:0:0:0:
200,200,1057,6,0,L|278:188,1,78,8|0,0:0|1:0,0:0:0:0:
456,264,1402,2,0,L|378:252,1,78,10|0,1:2|1:0,0:0:0:0:
232,349,1747,5,0,1:0:0:0:
152,232,1919,2,0,L|106:216,1,39,2|2,0:0|0:0,0:0:0:0:
75,240,2092,2,0,B|50:216|50:216|9:199,1,78,8|0,0:2|0:0,0:0:0:0:
191,145,2436,1,2,0:0:0:0:
219,151,2523,1,8,0:0:0:0:
362,243,2695,1,2,0:0:0:0:
333,237,2782,1,2,0:0:0:0:
464,88,3126,6,0,B|324:64|324:64|288:76,1,175.500006694794,4|2,3:2|1:2,0:0:0:0:
245,67,3471,1,8,3:1:0:0:
100,124,3643,2,0,L|132:172,1,58.500002231598,2|0,1:2|0:0,0:0:0:0:
124,220,3816,2,0,L|179:236,2,58.500002231598,0|2|0,3:0|1:2|0:0,0:0:0:0:
235,153,4161,1,8,3:1:0:0:
5,192,4333,1,2,1:2:0:0:
200,296,4505,6,0,B|288:276|288:276|332:248,1,117.000004463196,2|0,3:2|0:0,0:0:0:0:
326,244,4764,1,2,1:2:0:0:
343,228,4850,1,8,3:1:0:0:
432,90,5023,1,2,1:2:0:0:
214,91,5195,5,0,3:0:0:0:
169,127,5281,1,2,0:0:0:0:
184,184,5368,1,0,0:0:0:0:
303,67,5540,2,0,B|251:24|251:24|193:15,1,117.000004463196,8|0,3:1|0:0,0:0:0:0:
36,145,5885,6,0,B|133:239|133:239|151:277,1,175.500006694794,2|2,3:2|1:2,0:0:0:0:
190,302,6230,1,8,3:1:0:0:
346,326,6402,2,0,L|342:268,1,58.500002231598,2|0,1:2|0:0,0:0:0:0:
376,235,6575,2,0,L|342:173,2,58.500002231598,0|2|0,3:0|1:2|0:0,0:0:0:0:
484,304,6919,1,8,3:1:0:0:
484,116,7092,1,2,1:2:0:0:
305,59,7264,5,2,3:2:0:0:
204,199,7436,1,0,0:0:0:0:
224,229,7523,2,0,L|285:259,1,58.500002231598,2|8,1:2|3:1,0:0:0:0:
126,334,7781,2,0,B|64:303|64:303|39:255,1,117.000004463196,2|0,1:2|3:0,0:0:0:0:
20,216,8040,1,0,0:0:0:0:
0,171,8126,1,2,1:2:0:0:
153,98,8299,2,0,L|218:112,1,58.500002231598,8|0,3:1|1:0,0:0:0:0:
278,127,8471,1,2,3:2:0:0:
376,20,8643,6,0,B|480:106|480:106|486:154,1,175.500006694794,4|2,3:2|1:2,0:0:0:0:
510,186,8988,1,8,3:1:0:0:
465,327,9161,2,0,L|400:346,1,58.500002231598,2|0,0:2|0:0,0:0:0:0:
371,299,9333,2,0,L|327:249,2,58.500002231598,0|2|0,3:0|1:2|0:0,0:0:0:0:
225,235,9678,1,8,3:1:0:0:
430,226,9850,1,2,1:2:0:0:
215,331,10023,6,0,B|181:329|181:329|63:258,1,117.000004463196,2|0,3:2|0:0,0:0:0:0:
80,268,10281,1,2,1:2:0:0:
50,249,10368,1,8,3:1:0:0:
181,199,10540,1,2,1:2:0:0:
316,274,10712,1,0,3:0:0:0:
367,302,10799,1,2,0:0:0:0:
419,276,10885,1,0,0:0:0:0:
420,143,11057,2,0,B|380:116|380:116|281:115,1,132.600002529144,8|0,3:1|0:0,0:0:0:0:
46,79,11402,6,0,B|176:44|176:44|216:47,1,175.500006694794,2|2,3:2|1:2,0:0:0:0:
263,38,11747,1,8,3:1:0:0:
415,94,11919,2,0,L|435:172,1,58.500002231598,2|0,0:0|0:0,0:0:0:0:
400,199,12091,2,0,L|360:252,2,58.500002231598,0|2|0,3:0|1:2|0:0,0:0:0:0:
510,141,12436,1,8,3:1:0:0:
278,176,12609,1,2,3:2:0:0:
49,220,12781,6,0,L|175:247,1,117.000004463196,4|0,3:2|0:0,0:0:0:0:
209,192,13040,2,0,L|323:216,1,117.000004463196,4|0,3:2|0:0,0:0:0:0:
366,163,13299,2,0,B|448:150|448:150|474:119,1,117.000004463196,4|2,3:2|0:0,0:0:0:0:
395,71,13557,1,0,0:0:0:0:
349,79,13643,1,2,1:2:0:0:
302,86,13730,1,2,1:2:0:0:
256,95,13816,1,2,3:2:0:0:
209,103,13902,1,0,3:2:0:0:
163,112,13988,1,0,3:2:0:0:
116,120,14074,1,0,0:0:0:0:
71,104,14161,6,0,B|36:78|36:78|30:14,1,78,4|0,3:2|0:0,0:0:0:0:
160,207,14505,2,0,B|195:233|195:233|201:297,1,78,10|2,3:1|0:0,0:0:0:0:
40,357,14850,1,2,3:1:0:0:
33,181,15023,1,2,1:2:0:0:
97,268,15195,1,10,3:1:0:0:
104,92,15368,1,2,1:2:0:0:
232,274,15540,1,2,3:1:0:0:
239,98,15713,1,2,1:2:0:0:
158,180,15885,1,10,3:1:0:0:
164,352,16058,1,2,1:0:0:0:
328,355,16230,5,0,3:0:0:0:
331,325,16316,1,0,0:0:0:0:
336,296,16402,1,2,0:0:0:0:
369,128,16574,1,8,3:1:0:0:
372,158,16660,1,0,0:0:0:0:
377,187,16746,1,2,0:0:0:0:
479,85,16919,6,0,B|496:44|496:44|469:-13,1,78,0|0,3:0|0:0,0:0:0:0:
448,200,17263,2,0,B|430:240|430:240|457:298,1,78,10|2,3:1|0:0,0:0:0:0:
342,358,17608,1,2,3:1:0:0:
335,182,17781,1,2,1:2:0:0:
400,96,17954,1,10,3:1:0:0:
407,272,18127,1,2,1:2:0:0:
280,276,18298,1,2,3:1:0:0:
287,100,18471,1,2,1:2:0:0:
199,8,18643,1,10,3:1:0:0:
206,184,18816,1,2,1:0:0:0:
127,100,18988,5,2,3:2:0:0:
124,130,19074,1,0,0:0:0:0:
119,159,19160,1,2,0:2:0:0:
92,326,19332,1,8,3:1:0:0:
89,296,19418,1,0,0:0:0:0:
84,267,19504,1,2,3:2:0:0:
33,168,19678,6,0,B|48:128|48:128|18:71,1,78,0|0,3:0|0:0,0:0:0:0:
13,302,20022,2,0,B|-3:343|-3:343|27:400,1,78,10|2,3:1|0:0,0:0:0:0:
129,214,20368,1,2,3:1:0:0:
113,69,20540,1,2,1:0:0:0:
192,165,20712,1,8,3:1:0:0:
160,304,20884,1,2,1:2:0:0:
263,201,21058,1,2,3:1:0:0:
228,68,21230,1,2,1:0:0:0:
331,158,21402,1,8,3:1:0:0:
507,172,21574,1,2,1:2:0:0:
404,260,21747,5,0,3:0:0:0:
407,230,21833,1,0,0:0:0:0:
412,201,21919,1,2,0:0:0:0:
427,41,22091,1,8,3:1:0:0:
430,71,22177,1,0,0:0:0:0:
435,100,22263,1,2,0:0:0:0:
483,263,22436,6,0,B|473:309|473:309|431:331,1,78,0|0,3:0|0:0,0:0:0:0:
344,366,22781,2,0,B|332:327|332:327|344:249,1,117,12|0,0:2|0:0,0:0:0:0:
331,222,23126,1,0,3:0:0:0:
311,83,23299,1,0,0:0:0:0:
235,187,23471,1,12,0:0:0:0:
252,373,23643,1,0,3:0:0:0:
163,291,23816,6,0,B|115:252|115:252|106:202,1,93.5999971435548,12|0,0:0|3:0,0:0:0:0:
101,185,24074,1,0,0:0:0:0:
95,148,24161,2,0,L|86:99,1,46.7999985717774,12|0,0:0|1:0,0:0:0:0:
150,39,24333,1,0,3:0:0:0:
184,51,24419,2,0,L|227:67,1,46.7999985717774,0|4,0:0|3:2,0:0:0:0:
314,66,24592,1,0,0:0:0:0:
351,52,24678,1,0,3:0:0:0:
388,40,24764,1,0,0:0:0:0:
383,77,24850,2,0,B|371:149|371:149|380:180,1,93.5999971435548,4|0,3:2|0:0,0:0:0:0:
292,319,25195,5,4,3:2:0:0:
273,336,25281,2,0,B|244:358|244:358|108:339,1,152.099993037415,0|0,0:0|3:0,0:0:0:0:
41,257,25712,1,2,1:2:0:0:
127,170,25885,1,0,3:0:0:0:
152,166,25971,2,0,L|219:156,1,50.6999976791383,0|2,0:0|0:0,0:0:0:0:
322,103,26230,1,0,3:0:0:0:
414,195,26402,1,2,0:0:0:0:
420,219,26488,1,2,0:0:0:0:
409,261,26574,6,0,L|363:301,1,50.6999976791383,0|0,3:0|0:0,0:0:0:0:
300,350,26747,2,0,L|291:298,1,50.6999976791383,2|0,0:0|0:0,0:0:0:0:
273,213,26919,2,0,L|227:253,1,50.6999976791383,0|0,3:0|0:0,0:0:0:0:
164,302,27092,1,2,0:0:0:0:
30,265,27264,1,0,3:0:0:0:
45,243,27350,1,2,0:0:0:0:
59,222,27436,1,2,0:0:0:0:
52,197,27523,1,2,0:0:0:0:
45,172,27609,2,0,B|35:131|35:131|76:85,1,101.399995358277,0|2,3:0|0:0,0:0:0:0:
254,93,27954,6,0,B|206:147|206:147|168:153,1,101.399995358277,0|0,3:0|0:0,0:0:0:0:
160,169,28212,1,0,0:0:0:0:
14,314,28471,1,2,0:0:0:0:
212,368,28730,2,0,L|199:318,1,50.6999976791383,0|2,0:0|0:0,0:0:0:0:
29,183,28988,2,0,L|42:134,1,50.6999976791383,0|0,3:0|0:0,0:0:0:0:
79,117,29161,1,2,0:0:0:0:
87,88,29247,1,0,0:0:0:0:
95,58,29333,6,0,L|109:6,1,50.6999976791383,0|2,3:0|0:0,0:0:0:0:
171,98,29505,1,2,0:0:0:0:
180,128,29592,2,0,L|205:230,1,101.399995358277,0|0,0:0|0:0,0:0:0:0:
213,265,29850,1,2,0:0:0:0:
140,381,30023,2,0,L|99:344,1,50.6999976791383,2|0,3:2|0:0,0:0:0:0:
83,311,30195,1,2,0:0:0:0:
174,195,30368,1,0,3:0:0:0:
321,197,30540,1,2,3:2:0:0:
385,328,30712,5,0,3:0:0:0:
360,325,30798,2,0,B|323:321|323:321|235:216,1,152.099993037415,0|0,0:0|3:0,0:0:0:0:
166,144,31229,1,2,0:0:0:0:
47,174,31402,1,0,3:0:0:0:
41,198,31488,2,0,L|27:264,1,50.6999976791383,0|2,0:0|0:0,0:0:0:0:
111,338,31747,1,0,3:0:0:0:
193,242,31919,1,2,0:0:0:0:
191,211,32005,1,0,0:0:0:0:
162,182,32092,6,0,L|151:132,1,50.6999976791383,0|0,3:0|0:0,0:0:0:0:
19,158,32264,2,0,L|69:147,1,50.6999976791383,2|0,0:0|0:0,0:0:0:0:
43,15,32436,2,0,L|54:65,1,50.6999976791383,0|0,3:0|0:0,0:0:0:0:
186,39,32609,2,0,L|136:50,1,50.6999976791383,2|2,0:0|0:0,0:0:0:0:
162,182,32781,1,0,3:0:0:0:
155,212,32868,1,0,0:0:0:0:
165,251,32954,1,2,0:0:0:0:
261,342,33126,2,0,B|279:310|279:310|263:222,1,101.399995358277,0|2,3:0|0:0,0:0:0:0:
349,155,33471,6,0,B|307:128|307:128|231:132,1,101.399995358277,0|0,3:0|0:0,0:0:0:0:
222,143,33730,1,0,0:0:0:0:
29,73,33988,1,2,0:0:0:0:
65,275,34247,2,0,L|127:297,1,50.6999976791383,0|2,0:0|0:0,0:0:0:0:
346,264,34505,2,0,L|296:251,1,50.6999976791383,0|0,3:0|0:0,0:0:0:0:
237,325,34678,1,2,3:2:0:0:
203,287,34764,1,0,3:0:0:0:
203,236,34850,5,4,3:2:0:0:
9,121,35109,1,4,3:2:0:0:
207,14,35368,2,0,B|220:67|220:67|254:100,1,101.399995358277,4|0,3:2|0:0,0:0:0:0:
344,195,35712,2,0,L|363:213,3,25.3499988395691,2|0|0|0,1:2|0:0|1:0|0:0,0:0:0:0:
311,202,35885,2,0,B|277:205|277:205|241:203,1,50.6999976791383,2|2,3:2|3:2,0:0:0:0:
199,187,36057,1,0,3:0:0:0:
87,20,36230,6,0,B|45:59|45:59|22:135,1,109.199996667481,4|2,3:2|0:0,0:0:0:0:
51,146,36488,1,0,0:0:0:0:
78,180,36574,2,0,B|90:235|90:235|145:293,1,109.199996667481,8|2,3:1|1:2,0:0:0:0:
252,311,36919,1,0,3:0:0:0:
214,141,37092,2,0,L|146:83,2,54.5999983337403,2|2|8,1:2|1:2|0:1,0:0:0:0:
170,288,37436,1,2,1:2:0:0:
298,171,37609,6,0,L|314:83,2,54.5999983337403,0|2|0,3:0|1:2|0:0,0:0:0:0:
151,204,37954,1,8,3:1:0:0:
109,217,38040,1,0,0:0:0:0:
92,257,38126,1,2,1:2:0:0:
256,281,38299,2,0,L|312:259,1,54.5999983337403,0|0,3:0|0:0,0:0:0:0:
432,261,38471,2,0,L|376:283,1,54.5999983337403,2|0,1:2|1:0,0:0:0:0:
293,370,38643,2,0,L|349:348,1,54.5999983337403,8|0,3:1|1:0,0:0:0:0:
469,350,38816,1,2,1:2:0:0:
475,173,38988,6,0,B|477:115|477:115|439:45,1,109.199996667481,0|2,3:0|0:0,0:0:0:0:
409,74,39246,1,0,0:0:0:0:
365,77,39333,2,0,B|322:38|322:38|244:22,1,109.199996667481,8|2,3:1|1:2,0:0:0:0:
163,97,39678,1,0,3:0:0:0:
51,165,39850,2,0,L|0:196,2,54.5999983337403,2|0|8,1:2|0:0|3:1,0:0:0:0:
180,194,40195,6,0,B|225:173|225:173|264:119,1,109.199996667481,2|0,0:0|3:0,0:0:0:0:
303,117,40454,2,0,B|337:68|337:68|382:47,1,109.199996667481,0|0,0:0|0:0,0:0:0:0:
436,43,40712,1,8,3:1:0:0:
414,173,40885,1,2,1:2:0:0:
289,211,41057,2,0,L|262:306,1,54.5999983337403,0|0,3:0|1:0,0:0:0:0:
253,338,41230,2,0,L|157:362,1,54.5999983337403,2|0,3:2|1:0,0:0:0:0:
127,373,41402,2,0,B|80:353|80:353|10:371,1,109.199996667481,8|2,3:1|1:2,0:0:0:0:
147,215,41747,6,0,B|210:193|210:193|252:130,1,109.199996667481,0|2,3:0|0:0,0:0:0:0:
227,113,42005,1,0,0:0:0:0:
218,70,42092,2,0,B|175:38|175:38|86:38,1,109.199996667481,8|2,3:1|1:2,0:0:0:0:
38,141,42436,1,0,3:0:0:0:
114,278,42609,2,0,B|154:290|154:290|227:269,1,109.199996667481,2|8,1:2|3:1,0:0:0:0:
309,162,42954,6,0,B|248:138|248:138|200:149,1,109.199996667481,2|2,1:2|3:2,0:0:0:0:
163,158,43212,2,0,B|103:176|103:176|77:216,1,109.199996667481,2|0,1:2|0:0,0:0:0:0:
36,230,43471,1,8,3:1:0:0:
19,270,43557,1,0,0:0:0:0:
4,310,43644,1,2,1:2:0:0:
145,365,43816,1,0,3:0:0:0:
187,352,43902,1,0,0:0:0:0:
229,366,43989,1,2,1:2:0:0:
324,276,44161,1,8,3:1:0:0:
448,315,44333,1,0,1:0:0:0:
355,161,44505,6,0,B|284:182|284:182|256:204,1,109.199996667481,0|2,3:0|0:0,0:0:0:0:
247,249,44764,1,0,0:0:0:0:
235,292,44850,2,0,B|207:314|207:314|129:338,1,109.199996667481,8|2,3:1|1:2,0:0:0:0:
25,266,45195,1,0,3:0:0:0:
153,229,45368,2,0,B|171:216|171:216|205:122,1,109.199996667481,2|8,1:2|3:1,0:0:0:0:
117,33,45712,2,0,L|64:80,1,54.5999983337403,0|2,1:0|1:2,0:0:0:0:
8,118,45885,6,0,L|116:182,1,109.199996667481,2|2,3:1|0:0,0:0:0:0:
176,154,46144,2,0,L|275:213,1,109.199996667481,2|0,0:1|0:0,0:0:0:0:
343,193,46403,2,0,B|393:223,1,54.5999983337403,2|0,0:1|0:0,0:0:0:0:
482,178,46574,2,0,L|422:142,1,54.5999983337403,0|0,3:0|0:0,0:0:0:0:
355,101,46747,1,0,3:0:0:0:
307,73,46833,1,0,1:0:0:0:
259,44,46919,1,12,3:2:0:0:
42,85,47264,6,0,B|10:197|10:197|34:245,1,163.799995001221,4|0,3:2|0:0,0:0:0:0:
105,191,47609,2,0,B|126:233|126:233|103:311,1,109.199996667481,8|0,3:1|0:0,0:0:0:0:
194,361,47954,6,0,L|210:305,1,54.5999983337403,0|0,3:0|0:0,0:0:0:0:
298,264,48126,2,0,L|282:320,1,54.5999983337403,0|2,1:2|0:0,0:0:0:0:
372,271,48299,2,0,B|404:159,1,109.199996667481,8|2,3:1|0:0,0:0:0:0:
276,132,48643,6,0,B|252:81|252:81|163:13,1,163.799995001221,0|2,3:0|0:0,0:0:0:0:
59,14,48988,2,0,B|80:64|80:64|124:100,1,109.199996667481,8|0,3:1|1:0,0:0:0:0:
140,229,49333,5,0,3:0:0:0:
149,248,49419,1,2,0:0:0:0:
158,267,49505,2,0,L|182:315,1,54.5999983337403,2|0,1:0|0:0,0:0:0:0:
277,342,49678,2,0,L|252:293,1,54.5999983337403,8|2,3:1|0:0,0:0:0:0:
348,313,49850,2,0,L|372:361,1,54.5999983337403,2|2,1:0|0:0,0:0:0:0:
471,361,50023,6,0,B|512:252|512:252|495:208,1,163.799995001221,0|0,3:0|0:0,0:0:0:0:
419,252,50368,2,0,B|401:207|401:207|436:118,1,109.199996667481,8|0,3:1|0:0,0:0:0:0:
380,38,50712,6,0,B|322:59,1,54.5999983337403,0|0,3:0|0:0,0:0:0:0:
290,148,50885,2,0,B|341:129,1,54.5999983337403,0|0,1:0|0:0,0:0:0:0:
312,222,51057,2,0,B|206:258,1,109.199996667481,8|2,3:1|1:2,0:0:0:0:
48,187,51402,6,0,B|154:151,1,109.199996667481,0|2,3:0|0:0,0:0:0:0:
290,148,51747,6,0,B|348:169,1,54.5999983337403,8|0,3:1|0:0,0:0:0:0:
380,258,51920,2,0,B|329:239,1,54.5999983337403,0|2,1:0|0:0,0:0:0:0:
358,332,52092,1,2,3:2:0:0:
389,345,52178,2,0,B|456:371,1,54.5999983337403,2|2,0:0|1:0,0:0:0:0:
302,228,52436,1,8,3:1:0:0:
192,268,52609,1,2,3:1:0:0:
156,261,52695,1,0,0:0:0:0:
119,254,52781,6,0,B|23:290|23:290|0:347,1,163.799995001221,0|0,3:0|0:0,0:0:0:0:
88,350,53126,2,0,B|124:335|124:335|199:347,1,109.199996667481,8|2,3:1|0:0,0:0:0:0:
344,278,53471,1,0,3:0:0:0:
359,243,53556,1,0,0:0:0:0:
395,232,53643,1,0,1:0:0:0:
492,113,53816,2,0,L|428:136,1,54.5999983337403,8|2,3:1|0:0,0:0:0:0:
390,151,53988,2,0,L|326:174,1,54.5999983337403,2|0,1:2|0:0,0:0:0:0:
288,191,54161,6,0,B|228:165|228:165|126:201,1,163.799995001221,0|0,3:0|1:0,0:0:0:0:
68,260,54505,2,0,B|128:286|128:286|174:270,2,109.199996667481,8|0|0,3:1|1:0|3:0,0:0:0:0:
38,247,54936,1,2,0:0:0:0:
8,234,55023,1,2,1:0:0:0:
15,93,55195,2,0,L|75:118,1,54.5999983337403,8|2,3:1|0:0,0:0:0:0:
127,58,55368,2,0,L|187:83,1,54.5999983337403,2|0,1:0|0:0,0:0:0:0:
239,23,55540,6,0,B|337:60|337:60|415:37,1,163.799995001221,0|0,3:0|1:0,0:0:0:0:
489,18,55885,2,0,L|476:71,1,54.5999983337403,8|0,3:1|0:0,0:0:0:0:
452,166,56057,2,0,L|369:189,1,54.5999983337403,0|2,1:0|0:0,0:0:0:0:
305,207,56230,6,0,B|273:157|273:157|174:120,1,163.799995001221,0|2,3:0|0:1,0:0:0:0:
85,81,56574,2,0,L|95:135,1,54.5999983337403,8|0,3:1|0:0,0:0:0:0:
113,230,56746,2,0,L|164:248,1,54.5999983337403,2|2,3:2|3:2,0:0:0:0:
256,279,56919,5,4,3:2:0:0:
486,192,57178,1,4,3:2:0:0:
256,105,57436,1,4,3:2:0:0:
128,192,57609,2,0,L|200:192,1,54.5999983337403
232,192,57781,5,0,1:0:0:0:
260,192,57868,1,0,1:0:0:0:
288,192,57954,2,0,B|344:176|344:176|376:208|376:208|440:192,1,163.799995001221,0|2,1:0|0:0,0:0:0:0:
480,136,58299,5,0,3:0:0:0:
485,109,58385,1,0,1:0:0:0:
490,82,58471,1,2,0:2:0:0:
452,88,58557,1,0,1:0:0:0:
414,95,58643,1,8,3:1:0:0:
293,41,58816,5,2,0:2:0:0:
258,57,58902,1,0,1:0:0:0:
224,74,58988,1,0,3:0:0:0:
175,65,59074,1,0,1:0:0:0:
126,56,59161,2,0,L|52:41,2,54.5999983337403,2|2|8,1:2|0:0|3:1,0:0:0:0:
0,131,59505,1,2,1:2:0:0:
49,141,59592,1,2,1:2:0:0:
97,151,59678,6,0,L|157:161,2,54.5999983337403,0|0|0,3:0|1:0|0:0,0:0:0:0:
87,224,59936,2,0,L|33:214,2,54.5999983337403,0|8|2,0:0|3:1|0:0,0:0:0:0:
77,297,60195,2,0,L|130:306,1,54.5999983337403,2|0,1:2|1:0,0:0:0:0:
158,239,60368,6,0,L|211:248,1,54.5999983337403,0|0,3:0|1:0,0:0:0:0:
239,181,60540,1,0,0:0:0:0:
282,189,60626,1,0,0:0:0:0:
324,197,60712,2,0,L|411:212,1,54.5999983337403,8|2,3:1|1:2,0:0:0:0:
503,312,61057,6,0,B|468:356|468:356|416:372,1,109.199996667481,0|2,3:0|0:0,0:0:0:0:
358,294,61316,1,0,0:2:0:0:
309,288,61402,2,0,B|258:303|258:303|223:347,1,109.199996667481,8|0,3:1|1:0,0:0:0:0:
127,336,61661,1,2,0:0:0:0:
76,329,61747,2,0,B|29:304|29:304|3:254,1,109.199996667481,0|0,3:0|1:0,0:0:0:0:
22,94,62092,5,8,3:1:0:0:
133,26,62264,1,2,0:0:0:0:
166,26,62350,2,0,B|223:46|223:46|274:21,1,109.199996667481,2|0,0:0|0:0,0:0:0:0:
309,37,62609,1,2,0:0:0:0:
350,48,62695,1,0,0:0:0:0:
391,59,62781,2,0,L|445:73,1,54.5999983337403,8|0,3:1|0:0,0:0:0:0:
464,156,62954,2,0,L|410:142,1,54.5999983337403,2|2,1:2|0:0,0:0:0:0:
428,227,63126,1,0,3:0:0:0:
481,241,63212,1,0,0:0:0:0:
497,294,63298,1,0,0:0:0:0:
339,331,63471,5,8,3:1:0:0:
284,339,63557,1,0,3:0:0:0:
247,298,63643,1,0,3:0:0:0:
113,223,63816,5,0,3:0:0:0:
95,203,63902,1,0,1:0:0:0:
76,183,63988,1,2,0:0:0:0:
38,191,64074,1,0,1:0:0:0:
0,198,64161,1,8,3:1:0:0:
15,345,64333,5,2,0:0:0:0:
53,347,64419,1,0,1:0:0:0:
90,352,64505,1,0,3:0:0:0:
124,317,64591,1,0,1:0:0:0:
159,281,64678,2,0,L|207:231,2,54.5999983337403,2|0|8,1:2|0:0|0:1,0:0:0:0:
255,194,65023,1,2,1:2:0:0:
292,197,65110,1,0,0:0:0:0:
329,201,65196,6,0,L|389:204,2,54.5999983337403,0|0|0,3:0|0:0|0:0,0:0:0:0:
360,120,65454,2,0,L|306:117,2,54.5999983337403,0|8|2,0:0|3:1|0:0,0:0:0:0:
391,39,65712,2,0,L|445:42,1,54.5999983337403,2|0,1:2|1:0,0:0:0:0:
441,126,65885,6,0,L|496:130,1,54.5999983337403,0|0,3:0|1:0,0:0:0:0:
512,214,66057,1,0,0:0:0:0:
468,211,66143,1,0,0:0:0:0:
424,208,66229,2,0,L|335:202,1,54.5999983337403,8|2,3:1|1:2,0:0:0:0:
222,304,66574,5,4,3:2:0:0:
150,118,66833,1,4,3:2:0:0:
347,149,67092,2,0,L|402:180,1,58.500002231598,8|0,0:1|0:0,0:0:0:0:
347,235,67264,5,4,3:2:0:0:
150,266,67523,1,4,3:2:0:0:
222,80,67781,2,0,L|272:108,1,58.500002231598,8|0,3:1|1:0,0:0:0:0:
347,149,67954,5,0,3:0:0:0:
361,181,68040,1,2,0:0:0:0:
374,213,68126,1,0,1:0:0:0:
387,245,68212,1,0,3:0:0:0:
400,278,68299,5,2,0:0:0:0:
354,271,68385,1,0,1:0:0:0:
308,264,68471,2,0,L|279:258,2,29.250001115799,0|0|2,3:0|0:0|1:2,0:0:0:0:
222,247,68643,5,2,3:2:0:0:
62,280,68816,1,8,0:0:0:0:
278,326,68988,1,0,0:2:0:0:
174,44,69333,6,0,B|137:45|137:45|101:65,1,78,4|0,0:2|0:0,0:0:0:0:
74,197,69678,1,0,0:0:0:0:
177,177,69850,1,0,0:0:0:0:
42,280,70023,1,0,0:0:0:0:
31,310,70109,1,0,0:0:0:0:
22,340,70195,1,0,0:0:0:0:
142,289,70368,1,2,0:0:0:0:
272,292,70540,2,0,L|241:260,2,39,2|0|0,0:0|0:0|0:0,0:0:0:0:
378,330,70885,5,2,0:0:0:0:
444,239,71057,1,2,0:0:0:0:
380,146,71229,1,2,0:0:0:0:
273,179,71401,1,0,0:0:0:0:
250,186,71488,1,0,0:0:0:0:
227,193,71574,1,2,0:0:0:0:
118,225,71747,1,2,0:0:0:0:
54,132,71919,2,0,L|89:85,1,39,0|0,0:0|0:0,0:0:0:0:
120,41,72092,6,0,B|164:54|164:54|208:53,1,78,2|0,0:2|0:0,0:0:0:0:
306,22,72436,1,0,0:0:0:0:
399,80,72609,1,0,0:0:0:0:
207,153,72781,1,0,0:0:0:0:
332,106,72954,1,0,0:0:0:0:
458,149,73126,1,2,0:0:0:0:
357,237,73299,1,2,0:0:0:0:
332,106,73471,5,2,0:0:0:0:
458,149,73643,2,0,B|471:190|471:190|472:239,1,78,2|2,0:0|0:0,0:0:0:0:
438,332,73988,1,2,0:0:0:0:
357,237,74161,1,0,0:0:0:0:
332,106,74333,1,0,0:0:0:0:
384,165,74505,1,2,0:0:0:0:
357,237,74678,1,2,0:0:0:0:
254,119,74850,6,0,B|223:93|223:93|177:84,1,78,2|0,0:0|0:0,0:0:0:0:
33,117,75195,1,2,0:0:0:0:
58,146,75281,1,0,0:0:0:0:
96,153,75368,1,2,0:0:0:0:
254,119,75540,1,10,0:0:0:0:
292,126,75627,1,0,0:0:0:0:
317,155,75713,1,0,0:0:0:0:
248,277,75885,1,2,0:0:0:0:
179,155,76057,2,0,L|171:113,2,39,10|0|2,0:0|0:0|0:0,0:0:0:0:
42,186,76402,5,2,0:0:0:0:
25,322,76574,2,0,L|5:363,2,39,2|0|2,0:0|0:0|0:0,0:0:0:0:
150,379,76919,1,8,0:2:0:0:
177,358,77005,1,0,0:0:0:0:
211,349,77092,1,0,0:0:0:0:
348,318,77264,1,2,0:0:0:0:
217,268,77436,2,0,L|168:253,1,39,8|2,0:2|0:0,0:0:0:0:
47,206,77609,6,0,L|104:194,1,58.500002231598,0|2,1:2|1:2,0:0:0:0:
181,181,77781,2,0,L|238:192,1,58.500002231598,0|0,1:0|1:2,0:0:0:0:
315,212,77954,1,0,0:0:0:0:
350,221,78040,1,2,0:0:0:0:
385,229,78126,1,0,1:0:0:0:
420,215,78212,1,0,0:0:0:0:
454,200,78299,1,0,0:0:0:0:
304,129,78471,1,0,1:0:0:0:
269,121,78557,1,0,0:0:0:0:
234,112,78643,1,8,0:0:0:0:
258,285,78816,1,0,1:0:0:0:
292,294,78902,1,2,0:0:0:0:
325,304,78988,6,0,L|353:311,4,29.250001115799,0|0|2|0|2,0:0|0:0|0:0|0:0|0:0,0:0:0:0:
387,263,79247,2,0,L|416:271,4,29.250001115799,0|0|8|0|0,0:0|0:0|0:0|0:0|0:0,0:0:0:0:
442,225,79505,2,0,L|471:233,2,29.250001115799
378,208,79678,5,8,0:0:0:0:
320,195,79764,1,2,0:0:0:0:
264,212,79850,2,0,L|201:232,1,58.500002231598,8|0,0:0|0:0,0:0:0:0:
479,139,80023,1,10,0:0:0:0:
154,248,80368,5,4,3:1:0:0:
120,237,80454,1,10,0:0:0:0:
86,227,80540,1,0,0:0:0:0:
52,217,80626,1,0,1:0:0:0:
1,201,80712,5,8,3:1:0:0:
27,177,80798,1,2,0:0:0:0:
53,152,80884,1,0,1:0:0:0:
79,128,80970,1,2,0:0:0:0:
119,93,81057,5,0,3:0:0:0:
127,128,81143,1,0,1:0:0:0:
136,163,81229,1,0,0:0:0:0:
143,197,81315,1,2,0:0:0:0:
154,248,81402,6,0,L|167:306,1,58.500002231598,8|2,3:1|0:0,0:0:0:0:
235,232,81574,2,0,L|222:173,1,58.500002231598,10|0,1:2|1:0,0:0:0:0:
290,100,81747,6,0,B|302:159|302:159|379:202,1,117.000004463196,0|2,3:0|0:0,0:0:0:0:
399,210,82005,2,0,B|410:268|410:268|373:313,1,117.000004463196,2|0,1:2|0:0,0:0:0:0:
334,348,82264,1,0,1:0:0:0:
295,334,82350,1,0,0:0:0:0:
255,343,82436,5,2,3:2:0:0:
110,378,82609,1,0,1:0:0:0:
204,263,82781,1,8,3:1:0:0:
250,249,82868,1,2,0:0:0:0:
294,237,82954,1,10,1:2:0:0:
475,250,83126,5,0,3:0:0:0:
481,215,83212,1,10,0:0:0:0:
488,180,83299,1,0,0:0:0:0:
495,145,83385,1,0,1:0:0:0:
499,93,83471,5,8,3:1:0:0:
466,76,83557,1,2,0:0:0:0:
436,59,83644,1,0,1:0:0:0:
405,41,83730,1,2,0:0:0:0:
358,18,83816,5,0,3:0:0:0:
332,42,83902,1,0,1:0:0:0:
306,66,83989,1,0,0:0:0:0:
280,90,84075,1,2,0:0:0:0:
240,124,84161,6,0,L|256:185,1,58.500002231598,8|2,3:1|0:0,0:0:0:0:
349,215,84333,2,0,L|334:158,1,58.500002231598,10|0,1:2|1:0,0:0:0:0:
274,259,84505,6,0,B|288:315|288:315|253:367,1,117.000004463196,0|2,3:0|0:0,0:0:0:0:
203,375,84764,2,0,B|150:349|150:349|135:292,1,117.000004463196,2|0,1:2|0:0,0:0:0:0:
126,240,85023,1,0,1:0:0:0:
150,207,85109,1,0,0:0:0:0:
140,167,85195,5,2,3:2:0:0:
102,22,85368,1,0,1:0:0:0:
34,154,85540,1,8,3:1:0:0:
13,197,85626,1,2,0:0:0:0:
33,241,85712,1,10,1:2:0:0:
194,315,85885,5,0,3:0:0:0:
208,280,85971,1,10,0:0:0:0:
223,249,86058,1,0,0:0:0:0:
239,217,86144,1,0,1:0:0:0:
259,168,86230,5,8,3:1:0:0:
283,198,86316,1,2,0:0:0:0:
302,226,86403,1,0,1:0:0:0:
322,256,86489,1,2,0:0:0:0:
353,297,86574,5,0,3:0:0:0:
367,261,86660,1,0,1:0:0:0:
382,231,86747,1,0,0:0:0:0:
398,198,86833,1,2,0:0:0:0:
419,149,86919,6,0,L|449:71,1,58.500002231598,8|2,3:1|0:0,0:0:0:0:
379,32,87092,2,0,L|349:110,1,58.500002231598,10|0,1:2|1:0,0:0:0:0:
296,22,87264,6,0,B|249:19|249:19|157:67,1,117.000004463196,0|2,3:0|0:0,0:0:0:0:
177,105,87523,2,0,B|114:137|114:137|68:135,1,117.000004463196,2|0,1:2|0:0,0:0:0:0:
17,147,87781,1,0,1:0:0:0:
4,185,87867,1,0,0:0:0:0:
25,221,87953,5,2,3:2:0:0:
175,222,88126,1,0,1:0:0:0:
300,139,88299,1,8,3:1:0:0:
342,139,88385,1,2,0:0:0:0:
384,139,88471,2,0,L|434:172,1,58.500002231598,10|0,1:2|1:0,0:0:0:0:
490,243,88643,5,0,3:0:0:0:
454,243,88729,1,10,0:0:0:0:
418,243,88815,1,0,0:0:0:0:
383,243,88901,1,0,1:0:0:0:
329,244,88988,5,8,3:1:0:0:
300,266,89074,1,2,0:0:0:0:
270,287,89160,1,0,1:0:0:0:
242,307,89246,1,2,0:0:0:0:
196,334,89333,5,0,3:0:0:0:
160,335,89419,1,0,1:0:0:0:
123,334,89505,1,0,0:0:0:0:
89,334,89591,1,2,0:0:0:0:
35,333,89678,6,0,L|12:277,1,58.500002231598,8|2,3:1|0:0,0:0:0:0:
55,184,89850,2,0,L|78:239,1,58.500002231598,10|0,1:2|1:0,0:0:0:0:
121,145,90023,6,0,B|125:85|125:85|178:31,1,117.000004463196,0|2,3:0|0:0,0:0:0:0:
216,33,90281,2,0,B|270:48|270:48|304:98,1,117.000004463196,2|0,1:2|0:0,0:0:0:0:
357,104,90540,1,0,1:0:0:0:
384,134,90626,1,0,0:0:0:0:
411,164,90712,1,2,3:2:0:0:
460,306,90885,6,0,L|481:335,3,29.250001115799,0|0|0|0,1:0|0:0|1:0|0:0,0:0:0:0:
408,293,91057,2,0,L|372:242,1,58.500002231598,2|2,3:2|3:2,0:0:0:0:
299,234,91230,1,0,3:0:0:0:
133,211,91402,5,4,3:2:0:0:
105,187,91488,1,10,0:0:0:0:
77,164,91574,1,0,0:0:0:0:
51,142,91660,1,0,1:0:0:0:
14,105,91747,5,8,3:1:0:0:
47,92,91833,1,2,0:0:0:0:
82,80,91919,1,0,1:0:0:0:
114,68,92005,1,2,0:0:0:0:
165,53,92092,5,0,3:0:0:0:
193,75,92178,1,0,1:0:0:0:
221,100,92264,1,0,0:0:0:0:
247,121,92350,1,2,0:0:0:0:
286,155,92436,6,0,L|370:128,1,58.500002231598,8|2,3:1|0:0,0:0:0:0:
422,189,92609,2,0,L|366:206,1,58.500002231598,10|0,1:2|1:0,0:0:0:0:
286,234,92781,6,0,B|246:227|246:227|180:162,1,117.000004463196,0|2,3:0|0:0,0:0:0:0:
139,184,93040,2,0,B|84:130|84:130|44:123,1,117.000004463196,2|0,1:2|0:0,0:0:0:0:
10,164,93299,1,0,1:0:0:0:
10,204,93385,1,0,0:0:0:0:
29,238,93471,5,2,3:2:0:0:
173,252,93643,2,0,L|228:274,1,58.500002231598,0|2,1:0|0:0,0:0:0:0:
304,237,93816,1,8,3:1:0:0:
341,220,93902,1,2,0:0:0:0:
378,204,93988,1,10,1:2:0:0:
340,36,94161,5,0,3:0:0:0:
305,49,94247,1,10,0:0:0:0:
272,63,94333,1,0,0:0:0:0:
241,77,94419,1,0,1:0:0:0:
195,103,94505,5,8,3:1:0:0:
208,138,94591,1,2,0:0:0:0:
222,171,94677,1,0,1:0:0:0:
236,202,94763,1,0,0:0:0:0:
261,248,94850,5,0,3:0:0:0:
296,235,94936,1,0,1:0:0:0:
329,221,95022,1,0,0:0:0:0:
360,207,95108,1,2,0:0:0:0:
407,183,95195,6,0,L|379:131,1,58.500002231598,8|2,3:1|0:0,0:0:0:0:
300,143,95368,2,0,L|272:91,1,58.500002231598,10|0,1:2|1:0,0:0:0:0:
195,103,95540,6,0,B|153:68|153:68|91:57,1,117.000004463196,0|2,3:0|0:0,0:0:0:0:
15,88,95799,2,0,B|57:123|57:123|118:133,1,117.000004463196,2|0,1:2|0:0,0:0:0:0:
156,169,96057,1,0,1:0:0:0:
195,177,96143,1,0,0:0:0:0:
221,208,96230,6,0,L|278:220,1,58.500002231598,2|0,3:2|0:0,0:0:0:0:
283,297,96402,2,0,L|340:309,1,58.500002231598,0|2,1:0|0:0,0:0:0:0:
469,272,96574,2,0,L|411:259,1,58.500002231598,8|2,3:1|0:0,0:0:0:0:
407,183,96747,1,10,1:2:0:0:
324,63,96920,5,0,3:0:0:0:
289,54,97006,1,10,0:0:0:0:
254,44,97092,1,0,0:0:0:0:
219,35,97178,1,0,1:0:0:0:
168,21,97264,5,8,3:1:0:0:
142,46,97350,1,2,0:0:0:0:
116,72,97436,1,0,1:0:0:0:
91,97,97522,1,2,0:0:0:0:
56,137,97609,5,0,3:0:0:0:
64,172,97695,1,0,1:0:0:0:
74,208,97781,1,0,0:0:0:0:
83,242,97867,1,2,0:0:0:0:
98,292,97954,6,0,L|154:308,1,58.500002231598,8|2,3:1|0:0,0:0:0:0:
230,330,98126,2,0,L|286:346,1,58.500002231598,10|0,1:2|1:0,0:0:0:0:
362,368,98299,6,0,B|413:343|413:343|472:356,1,117.000004463196,0|2,3:0|0:0,0:0:0:0:
462,280,98557,2,0,B|402:266|402:266|351:291,1,117.000004463196,2|0,1:2|0:0,0:0:0:0:
300,277,98816,1,0,1:0:0:0:
260,265,98902,1,0,0:0:0:0:
241,228,98988,5,2,3:2:0:0:
321,101,99161,1,0,1:0:0:0:
397,230,99333,1,8,3:1:0:0:
414,267,99419,1,2,0:0:0:0:
405,306,99505,2,0,L|374:359,1,58.500002231598,10|0,1:2|1:2,0:0:0:0:
286,359,99678,5,0,3:0:0:0:
245,358,99764,1,10,0:0:0:0:
204,358,99850,1,0,0:0:0:0:
163,358,99936,1,0,1:0:0:0:
109,357,100023,5,8,3:1:0:0:
130,321,100109,1,2,0:0:0:0:
150,286,100195,1,0,1:0:0:0:
171,250,100281,1,2,0:0:0:0:
198,204,100368,5,0,3:0:0:0:
239,204,100454,1,0,1:0:0:0:
280,204,100540,1,0,0:0:0:0:
321,204,100626,1,2,0:0:0:0:
373,204,100712,6,0,L|340:260,1,58.500002231598,8|2,3:1|0:0,0:0:0:0:
421,285,100885,2,0,L|388:341,1,58.500002231598,10|2,1:2|1:2,0:0:0:0:
304,335,101057,6,0,B|250:316|250:316|204:271,1,117.000004463196,0|2,3:0|0:0,0:0:0:0:
203,221,101316,2,0,B|160:179|160:179|106:160,1,117.000004463196,8|2,1:2|1:2,0:0:0:0:
56,142,101574,1,2,3:2:0:0:
35,106,101661,1,0,0:0:0:0:
58,72,101747,5,0,3:0:0:0:
85,42,101833,2,0,L|111:13,2,29.250001115799,0|0|4,1:0|1:0|3:2,0:0:0:0:
213,123,102092,2,0,L|260:173,1,58.500002231598,2|2,3:2|3:2,0:0:0:0:
281,235,102264,1,2,3:2:0:0:
421,293,102436,6,0,B|463:262|463:262|472:200,1,109.199996667481,4|2,3:2|0:0,0:0:0:0:
475,170,102695,1,0,0:0:0:0:
380,78,102868,1,2,0:0:0:0:
254,113,103040,1,0,0:0:0:0:
236,159,103126,2,0,B|258:210|258:210|240:275,1,109.199996667481,0|2,3:0|0:0,0:0:0:0:
326,364,103471,1,8,3:1:0:0:
348,341,103557,1,0,0:0:0:0:
403,221,103730,5,2,0:0:0:0:
389,185,103816,2,0,B|364:151|364:151|300:123,1,109.199996667481,0|2,3:0|0:0,0:0:0:0:
269,87,104074,1,0,0:0:0:0:
244,76,104161,1,8,3:1:0:0:
117,109,104333,1,2,0:0:0:0:
208,203,104505,1,0,3:0:0:0:
198,229,104591,1,2,0:0:0:0:
189,255,104678,1,2,0:0:0:0:
80,327,104850,6,0,L|25:345,1,54.5999983337403,8|0,3:1|0:0,0:0:0:0:
78,223,105109,2,0,L|8:195,1,54.5999983337403,2|0,0:0|3:0,0:0:0:0:
143,142,105368,2,0,L|113:84,1,54.5999983337403,2|0,0:0|0:0,0:0:0:0:
245,121,105626,2,0,L|255:59,1,54.5999983337403,2|2,0:0|0:0,0:0:0:0:
336,171,105885,2,0,L|383:134,2,54.5999983337403,0|0|2,3:0|0:0|0:0,0:0:0:0:
316,301,106230,6,0,L|261:286,1,54.5999983337403,8|2,3:1|0:0,0:0:0:0:
148,357,106488,1,2,0:0:0:0:
111,347,106574,2,0,B|37:331|37:331|14:299,1,109.199996667481,0|2,3:0|0:0,0:0:0:0:
147,221,106919,2,0,B|220:236|220:236|243:268,1,109.199996667481,8|2,3:1|0:0,0:0:0:0:
347,341,107264,5,0,3:0:0:0:
394,354,107350,1,8,0:1:0:0:
439,336,107436,1,2,0:0:0:0:
486,213,107609,2,0,L|397:249,1,54.5999983337403,8|2,3:1|0:0,0:0:0:0:
311,189,107868,6,0,B|242:165|242:165|196:163,1,109.199996667481,2|2,3:2|0:0,0:0:0:0:
158,151,108126,1,2,0:0:0:0:
131,151,108212,1,2,0:0:0:0:
104,151,108298,1,8,3:1:0:0:
16,247,108470,1,2,0:0:0:0:
147,247,108643,1,0,3:0:0:0:
174,247,108729,1,0,0:0:0:0:
201,247,108816,2,0,B|277:274|277:274|336:275,1,109.199996667481,2|8,0:0|3:1,0:0:0:0:
350,260,109074,1,2,0:0:0:0:
457,335,109247,1,2,3:2:0:0:
300,356,109419,5,2,0:0:0:0:
274,361,109505,1,2,0:0:0:0:
247,366,109591,1,2,0:0:0:0:
220,371,109678,1,8,3:1:0:0:
90,384,109850,1,2,0:0:0:0:
2,285,110023,1,0,3:0:0:0:
29,280,110110,1,0,0:0:0:0:
56,275,110195,2,0,B|124:259|124:259|158:229,1,109.199996667481,2|8,0:0|3:1,0:0:0:0:
202,223,110453,1,2,0:0:0:0:
221,100,110626,5,2,0:0:0:0:
259,105,110712,2,0,B|295:91|295:91|365:99,1,109.199996667481,0|2,3:0|0:0,0:0:0:0:
476,130,111057,1,8,3:1:0:0:
508,243,111230,1,2,0:0:0:0:
428,330,111402,1,0,3:0:0:0:
314,296,111574,1,2,0:0:0:0:
278,190,111747,1,8,3:1:0:0:
299,186,111833,2,0,B|357:192|357:192|398:221,1,109.199996667481,2|2,0:0|3:2,0:0:0:0:
435,254,112091,5,4,3:2:0:0:
172,244,112350,1,8,3:1:0:0:
302,23,112609,1,0,3:0:0:0:
305,208,112781,5,0,0:0:0:0:
155,142,112954,2,0,L|114:140,3,27.2999991668701,0|0|0|0,1:0|1:0|1:0|1:0,0:0:0:0:
184,113,113126,2,0,L|244:116,1,54.5999983337403,8|0,3:1|1:0,0:0:0:0:
403,125,113385,1,2,1:0:0:0:
