osu file format v14

[General]
AudioFilename: audio.mp3
AudioLeadIn: 0
PreviewTime: -1
Countdown: 1
SampleSet: Normal
StackLeniency: 0.7
Mode: 3
LetterboxInBreaks: 0
SpecialStyle: 0
WidescreenStoryboard: 0

[Editor]
DistanceSpacing: 0.5
BeatDivisor: 4
GridSize: 4
TimelineZoom: 1

[Metadata]
Title:polygon
TitleUnicode:polygon
Artist:Sota Fujimori
ArtistUnicode:Sota Fujimori
Creator:Melt3dCheeze
Version:polygon
Source:
Tags:
BeatmapID:1482927
BeatmapSetID:700462

[Difficulty]
HPDrainRate:8
CircleSize:4
OverallDifficulty:9
ApproachRate:5
SliderMultiplier:1.4
SliderTickRate:1

[Events]
//Background and Video events
0,0,"123123123213.png",0,0
//Break Periods
//Storyboard Layer 0 (Background)
//Storyboard Layer 1 (Fail)
//Storyboard Layer 2 (Pass)
//Storyboard Layer 3 (Foreground)
//Storyboard Sound Samples

[TimingPoints]
368,344.827586206897,4,1,0,26,1,0

[HitObjects]
64,192,3126,5,0,0:0:0:0:
320,192,3126,1,0,0:0:0:0:
448,192,3126,1,0,0:0:0:0:
192,192,3212,1,0,0:0:0:0:
320,192,3299,1,0,0:0:0:0:
64,192,3385,1,0,0:0:0:0:
64,192,3471,1,0,0:0:0:0:
192,192,3471,1,0,0:0:0:0:
320,192,3471,1,0,0:0:0:0:
448,192,3471,1,0,0:0:0:0:
320,192,3557,1,0,0:0:0:0:
448,192,3643,1,0,0:0:0:0:
320,192,3730,1,0,0:0:0:0:
448,192,3816,1,0,0:0:0:0:
192,192,3816,1,0,0:0:0:0:
64,192,3816,1,0,0:0:0:0:
320,192,3902,1,0,0:0:0:0:
192,192,3988,1,0,0:0:0:0:
448,192,4074,1,0,0:0:0:0:
64,192,4161,1,0,0:0:0:0:
192,192,4161,1,0,0:0:0:0:
320,192,4161,1,0,0:0:0:0:
448,192,4161,1,0,0:0:0:0:
320,192,4247,1,0,0:0:0:0:
448,192,4333,1,0,0:0:0:0:
192,192,4419,1,0,0:0:0:0:
448,192,4505,1,0,0:0:0:0:
320,192,4505,1,0,0:0:0:0:
64,192,4505,1,0,0:0:0:0:
192,192,4592,1,0,0:0:0:0:
320,192,4678,1,0,0:0:0:0:
448,192,4764,1,0,0:0:0:0:
64,192,4850,1,0,0:0:0:0:
192,192,4850,1,0,0:0:0:0:
320,192,4850,1,0,0:0:0:0:
448,192,4850,1,0,0:0:0:0:
320,192,4936,1,0,0:0:0:0:
192,192,5023,1,0,0:0:0:0:
448,192,5109,1,0,0:0:0:0:
320,192,5195,1,0,0:0:0:0:
192,192,5195,1,0,0:0:0:0:
64,192,5195,1,0,0:0:0:0:
320,192,5281,1,0,0:0:0:0:
192,192,5368,1,0,0:0:0:0:
64,192,5454,1,0,0:0:0:0:
448,192,5540,1,0,0:0:0:0:
320,192,5540,1,0,0:0:0:0:
192,192,5540,1,0,0:0:0:0:
64,192,5540,1,0,0:0:0:0:
192,192,5626,1,0,0:0:0:0:
320,192,5712,1,0,0:0:0:0:
192,192,5799,1,0,0:0:0:0:
320,192,5885,1,0,0:0:0:0:
448,192,5885,1,0,0:0:0:0:
64,192,5885,1,0,0:0:0:0:
320,192,5971,1,0,0:0:0:0:
192,192,6057,1,0,0:0:0:0:
64,192,6143,1,0,0:0:0:0:
448,192,6230,1,0,0:0:0:0:
64,192,6230,1,0,0:0:0:0:
192,192,6230,1,0,0:0:0:0:
320,192,6230,1,0,0:0:0:0:
192,192,6316,1,0,0:0:0:0:
448,192,6402,1,0,0:0:0:0:
320,192,6488,1,0,0:0:0:0:
448,192,6574,1,0,0:0:0:0:
64,192,6574,1,0,0:0:0:0:
192,192,6574,1,0,0:0:0:0:
320,192,6661,1,0,0:0:0:0:
192,192,6747,1,0,0:0:0:0:
320,192,6833,1,0,0:0:0:0:
320,192,6919,1,0,0:0:0:0:
64,192,6919,1,0,0:0:0:0:
192,192,6919,1,0,0:0:0:0:
448,192,6919,1,0,0:0:0:0:
192,192,7005,1,0,0:0:0:0:
64,192,7092,1,0,0:0:0:0:
192,192,7178,1,0,0:0:0:0:
448,192,7264,1,0,0:0:0:0:
320,192,7264,1,0,0:0:0:0:
64,192,7264,1,0,0:0:0:0:
64,192,7350,1,0,0:0:0:0:
320,192,7436,1,0,0:0:0:0:
192,192,7523,1,0,0:0:0:0:
64,192,7609,1,0,0:0:0:0:
320,192,7609,1,0,0:0:0:0:
192,192,7609,1,0,0:0:0:0:
448,192,7609,1,0,0:0:0:0:
320,192,7695,1,0,0:0:0:0:
192,192,7781,1,0,0:0:0:0:
320,192,7868,1,0,0:0:0:0:
448,192,7954,1,0,0:0:0:0:
192,192,7954,1,0,0:0:0:0:
64,192,7954,1,0,0:0:0:0:
320,192,8040,1,0,0:0:0:0:
448,192,8126,1,0,0:0:0:0:
320,192,8212,1,0,0:0:0:0:
320,192,8299,1,0,0:0:0:0:
192,192,8299,1,0,0:0:0:0:
64,192,8299,1,0,0:0:0:0:
448,192,8299,1,0,0:0:0:0:
320,192,8385,1,0,0:0:0:0:
64,192,8471,1,0,0:0:0:0:
192,192,8557,1,0,0:0:0:0:
320,192,8643,1,0,0:0:0:0:
448,192,8643,1,0,0:0:0:0:
64,192,8643,1,0,0:0:0:0:
320,192,8730,1,0,0:0:0:0:
192,192,8816,1,0,0:0:0:0:
64,192,8902,1,0,0:0:0:0:
320,192,8988,1,0,0:0:0:0:
192,192,8988,1,0,0:0:0:0:
64,192,8988,1,0,0:0:0:0:
448,192,8988,1,0,0:0:0:0:
192,192,9074,1,0,0:0:0:0:
320,192,9161,1,0,0:0:0:0:
64,192,9247,1,0,0:0:0:0:
320,192,9333,1,0,0:0:0:0:
192,192,9333,1,0,0:0:0:0:
448,192,9333,1,0,0:0:0:0:
64,192,9419,1,0,0:0:0:0:
192,192,9505,1,0,0:0:0:0:
320,192,9592,1,0,0:0:0:0:
320,192,9678,1,0,0:0:0:0:
192,192,9678,1,0,0:0:0:0:
448,192,9678,1,0,0:0:0:0:
64,192,9678,1,0,0:0:0:0:
192,192,9764,1,0,0:0:0:0:
320,192,9850,1,0,0:0:0:0:
448,192,9936,1,0,0:0:0:0:
192,192,10023,1,0,0:0:0:0:
320,192,10023,1,0,0:0:0:0:
64,192,10023,1,0,0:0:0:0:
448,192,10109,1,0,0:0:0:0:
320,192,10195,1,0,0:0:0:0:
192,192,10281,1,0,0:0:0:0:
64,192,10368,1,0,0:0:0:0:
320,192,10368,1,0,0:0:0:0:
192,192,10368,1,0,0:0:0:0:
448,192,10368,1,0,0:0:0:0:
320,192,10454,1,0,0:0:0:0:
448,192,10540,1,0,0:0:0:0:
192,192,10626,1,0,0:0:0:0:
320,192,10712,1,0,0:0:0:0:
448,192,10712,1,0,0:0:0:0:
64,192,10712,1,0,0:0:0:0:
192,192,10799,1,0,0:0:0:0:
64,192,10885,1,0,0:0:0:0:
320,192,10971,1,0,0:0:0:0:
192,192,11057,1,0,0:0:0:0:
320,192,11057,1,0,0:0:0:0:
448,192,11057,1,0,0:0:0:0:
64,192,11057,1,0,0:0:0:0:
192,192,11143,1,0,0:0:0:0:
320,192,11230,1,0,0:0:0:0:
64,192,11316,1,0,0:0:0:0:
320,192,11402,1,0,0:0:0:0:
192,192,11402,1,0,0:0:0:0:
448,192,11402,1,0,0:0:0:0:
64,192,11488,1,0,0:0:0:0:
192,192,11574,1,0,0:0:0:0:
320,192,11661,1,0,0:0:0:0:
64,192,11747,1,0,0:0:0:0:
192,192,11747,1,0,0:0:0:0:
320,192,11747,1,0,0:0:0:0:
448,192,11747,1,0,0:0:0:0:
192,192,11833,1,0,0:0:0:0:
320,192,11919,1,0,0:0:0:0:
192,192,12005,1,0,0:0:0:0:
320,192,12092,1,0,0:0:0:0:
64,192,12092,1,0,0:0:0:0:
448,192,12092,1,0,0:0:0:0:
192,192,12178,1,0,0:0:0:0:
64,192,12264,1,0,0:0:0:0:
320,192,12350,1,0,0:0:0:0:
64,192,12436,1,0,0:0:0:0:
192,192,12436,1,0,0:0:0:0:
320,192,12436,1,0,0:0:0:0:
448,192,12436,1,0,0:0:0:0:
192,192,12609,1,0,0:0:0:0:
320,192,12609,1,0,0:0:0:0:
64,192,12781,1,0,0:0:0:0:
192,192,12781,1,0,0:0:0:0:
448,192,12781,1,0,0:0:0:0:
320,192,12781,1,0,0:0:0:0:
64,192,13040,1,0,0:0:0:0:
192,192,13040,1,0,0:0:0:0:
320,192,13040,1,0,0:0:0:0:
448,192,13040,1,0,0:0:0:0:
64,192,13299,128,0,13471:0:0:0:0:
192,192,13299,128,0,13471:0:0:0:0:
320,192,13299,128,0,13471:0:0:0:0:
448,192,13299,128,0,13471:0:0:0:0:
192,192,13557,1,0,0:0:0:0:
64,192,13643,1,0,0:0:0:0:
448,192,13730,1,0,0:0:0:0:
320,192,13816,1,0,0:0:0:0:
192,192,13902,1,0,0:0:0:0:
320,192,13988,1,0,0:0:0:0:
64,192,14074,1,0,0:0:0:0:
64,192,14161,1,0,0:0:0:0:
192,192,14161,1,0,0:0:0:0:
320,192,14161,1,0,0:0:0:0:
448,192,14161,1,0,0:0:0:0:
192,192,14247,1,0,0:0:0:0:
320,192,14333,1,0,0:0:0:0:
192,192,14419,1,0,0:0:0:0:
320,192,14505,1,0,0:0:0:0:
448,192,14505,1,0,0:0:0:0:
64,192,14505,1,0,0:0:0:0:
192,192,14592,1,0,0:0:0:0:
64,192,14678,1,0,0:0:0:0:
448,192,14764,1,0,0:0:0:0:
320,192,14850,1,0,0:0:0:0:
64,192,14850,1,0,0:0:0:0:
192,192,14936,1,0,0:0:0:0:
320,192,15023,1,0,0:0:0:0:
192,192,15109,1,0,0:0:0:0:
320,192,15195,1,0,0:0:0:0:
448,192,15195,1,0,0:0:0:0:
64,192,15195,1,0,0:0:0:0:
192,192,15281,1,0,0:0:0:0:
64,192,15368,1,0,0:0:0:0:
192,192,15454,1,0,0:0:0:0:
320,192,15540,1,0,0:0:0:0:
448,192,15540,1,0,0:0:0:0:
192,192,15626,1,0,0:0:0:0:
64,192,15712,1,0,0:0:0:0:
320,192,15799,1,0,0:0:0:0:
192,192,15885,1,0,0:0:0:0:
64,192,15885,1,0,0:0:0:0:
448,192,15885,1,0,0:0:0:0:
320,192,15971,1,0,0:0:0:0:
192,192,16057,1,0,0:0:0:0:
448,192,16143,1,0,0:0:0:0:
320,192,16230,1,0,0:0:0:0:
64,192,16230,1,0,0:0:0:0:
192,192,16316,1,0,0:0:0:0:
320,192,16402,1,0,0:0:0:0:
448,192,16488,1,0,0:0:0:0:
320,192,16574,1,0,0:0:0:0:
192,192,16574,1,0,0:0:0:0:
64,192,16574,1,0,0:0:0:0:
448,192,16661,1,0,0:0:0:0:
192,192,16747,1,0,0:0:0:0:
320,192,16833,1,0,0:0:0:0:
192,192,16919,1,0,0:0:0:0:
64,192,16919,1,0,0:0:0:0:
320,192,17005,1,0,0:0:0:0:
448,192,17092,1,0,0:0:0:0:
64,192,17178,1,0,0:0:0:0:
192,192,17264,1,0,0:0:0:0:
320,192,17264,1,0,0:0:0:0:
448,192,17264,1,0,0:0:0:0:
64,192,17350,1,0,0:0:0:0:
192,192,17436,1,0,0:0:0:0:
320,192,17523,1,0,0:0:0:0:
448,192,17609,1,0,0:0:0:0:
64,192,17609,1,0,0:0:0:0:
320,192,17695,1,0,0:0:0:0:
192,192,17781,1,0,0:0:0:0:
320,192,17868,1,0,0:0:0:0:
192,192,17954,1,0,0:0:0:0:
64,192,17954,1,0,0:0:0:0:
448,192,17954,1,0,0:0:0:0:
320,192,18040,1,0,0:0:0:0:
192,192,18126,1,0,0:0:0:0:
448,192,18212,1,0,0:0:0:0:
320,192,18299,1,0,0:0:0:0:
192,192,18299,1,0,0:0:0:0:
64,192,18385,1,0,0:0:0:0:
192,192,18471,1,0,0:0:0:0:
64,192,18557,1,0,0:0:0:0:
320,192,18643,1,0,0:0:0:0:
448,192,18643,1,0,0:0:0:0:
192,192,18643,1,0,0:0:0:0:
64,192,18730,1,0,0:0:0:0:
320,192,18816,1,0,0:0:0:0:
448,192,18902,1,0,0:0:0:0:
192,192,18988,1,0,0:0:0:0:
64,192,18988,1,0,0:0:0:0:
320,192,19074,1,0,0:0:0:0:
64,192,19161,1,0,0:0:0:0:
320,192,19247,1,0,0:0:0:0:
448,192,19333,1,0,0:0:0:0:
192,192,19333,1,0,0:0:0:0:
64,192,19333,1,0,0:0:0:0:
320,192,19419,1,0,0:0:0:0:
192,192,19505,1,0,0:0:0:0:
64,192,19592,1,0,0:0:0:0:
320,192,19678,1,0,0:0:0:0:
192,192,19678,1,0,0:0:0:0:
448,192,19764,1,0,0:0:0:0:
320,192,19850,1,0,0:0:0:0:
192,192,19936,1,0,0:0:0:0:
320,192,20023,1,0,0:0:0:0:
448,192,20023,1,0,0:0:0:0:
64,192,20023,1,0,0:0:0:0:
192,192,20109,1,0,0:0:0:0:
320,192,20195,1,0,0:0:0:0:
192,192,20281,1,0,0:0:0:0:
64,192,20368,1,0,0:0:0:0:
448,192,20368,1,0,0:0:0:0:
320,192,20454,1,0,0:0:0:0:
192,192,20540,1,0,0:0:0:0:
320,192,20626,1,0,0:0:0:0:
448,192,20712,1,0,0:0:0:0:
192,192,20712,1,0,0:0:0:0:
64,192,20712,1,0,0:0:0:0:
320,192,20799,1,0,0:0:0:0:
192,192,20885,1,0,0:0:0:0:
64,192,20971,1,0,0:0:0:0:
192,192,21057,1,0,0:0:0:0:
320,192,21057,1,0,0:0:0:0:
448,192,21143,1,0,0:0:0:0:
320,192,21230,1,0,0:0:0:0:
192,192,21316,1,0,0:0:0:0:
320,192,21402,1,0,0:0:0:0:
448,192,21402,1,0,0:0:0:0:
64,192,21402,1,0,0:0:0:0:
192,192,21488,1,0,0:0:0:0:
320,192,21574,1,0,0:0:0:0:
64,192,21661,1,0,0:0:0:0:
192,192,21747,1,0,0:0:0:0:
448,192,21747,1,0,0:0:0:0:
320,192,21833,1,0,0:0:0:0:
64,192,21919,1,0,0:0:0:0:
448,192,22005,1,0,0:0:0:0:
320,192,22092,1,0,0:0:0:0:
192,192,22092,1,0,0:0:0:0:
64,192,22092,1,0,0:0:0:0:
448,192,22178,1,0,0:0:0:0:
320,192,22264,1,0,0:0:0:0:
192,192,22350,1,0,0:0:0:0:
320,192,22436,1,0,0:0:0:0:
448,192,22436,1,0,0:0:0:0:
192,192,22523,1,0,0:0:0:0:
64,192,22609,1,0,0:0:0:0:
320,192,22695,1,0,0:0:0:0:
192,192,22781,1,0,0:0:0:0:
64,192,22781,1,0,0:0:0:0:
448,192,22781,1,0,0:0:0:0:
320,192,22868,1,0,0:0:0:0:
192,192,22954,1,0,0:0:0:0:
320,192,23040,1,0,0:0:0:0:
192,192,23126,1,0,0:0:0:0:
448,192,23126,1,0,0:0:0:0:
64,192,23212,1,0,0:0:0:0:
320,192,23299,1,0,0:0:0:0:
192,192,23385,1,0,0:0:0:0:
320,192,23471,1,0,0:0:0:0:
448,192,23471,1,0,0:0:0:0:
64,192,23471,1,0,0:0:0:0:
192,192,23557,1,0,0:0:0:0:
320,192,23643,1,0,0:0:0:0:
448,192,23730,1,0,0:0:0:0:
320,192,23816,1,0,0:0:0:0:
192,192,23816,1,0,0:0:0:0:
64,192,23816,1,0,0:0:0:0:
320,192,23988,1,0,0:0:0:0:
448,192,23988,1,0,0:0:0:0:
192,192,23988,1,0,0:0:0:0:
192,192,24161,1,0,0:0:0:0:
64,192,24161,1,0,0:0:0:0:
448,192,24161,1,0,0:0:0:0:
320,192,24333,1,0,0:0:0:0:
64,192,24333,1,0,0:0:0:0:
192,192,24333,1,0,0:0:0:0:
448,192,24505,1,0,0:0:0:0:
320,192,24505,1,0,0:0:0:0:
64,192,24505,1,0,0:0:0:0:
192,192,24678,1,0,0:0:0:0:
320,192,24678,1,0,0:0:0:0:
64,192,24678,1,0,0:0:0:0:
64,192,24850,128,0,25109:0:0:0:0:
192,192,24850,128,0,25109:0:0:0:0:
448,192,24850,128,0,25109:0:0:0:0:
64,192,25195,1,0,0:0:0:0:
448,192,25281,1,0,0:0:0:0:
192,192,25368,1,0,0:0:0:0:
320,192,25454,1,0,0:0:0:0:
192,192,25540,1,0,0:0:0:0:
320,192,25540,1,0,0:0:0:0:
448,192,25540,1,0,0:0:0:0:
64,192,25540,1,0,0:0:0:0:
64,192,25626,1,0,0:0:0:0:
192,192,25712,1,0,0:0:0:0:
448,192,25799,1,0,0:0:0:0:
320,192,25885,1,0,0:0:0:0:
192,192,25971,1,0,0:0:0:0:
64,192,26057,1,0,0:0:0:0:
320,192,26143,1,0,0:0:0:0:
448,192,26230,1,0,0:0:0:0:
320,192,26230,1,0,0:0:0:0:
192,192,26230,1,0,0:0:0:0:
64,192,26230,1,0,0:0:0:0:
192,192,26316,1,0,0:0:0:0:
64,192,26402,1,0,0:0:0:0:
192,192,26488,1,0,0:0:0:0:
320,192,26574,1,0,0:0:0:0:
448,192,26661,1,0,0:0:0:0:
320,192,26747,1,0,0:0:0:0:
192,192,26833,1,0,0:0:0:0:
64,192,26919,1,0,0:0:0:0:
192,192,26919,1,0,0:0:0:0:
320,192,26919,1,0,0:0:0:0:
448,192,26919,1,0,0:0:0:0:
64,192,27005,1,0,0:0:0:0:
192,192,27092,1,0,0:0:0:0:
448,192,27178,1,0,0:0:0:0:
320,192,27264,1,0,0:0:0:0:
192,192,27350,1,0,0:0:0:0:
448,192,27436,1,0,0:0:0:0:
320,192,27523,1,0,0:0:0:0:
192,192,27609,1,0,0:0:0:0:
64,192,27609,1,0,0:0:0:0:
320,192,27609,1,0,0:0:0:0:
448,192,27609,1,0,0:0:0:0:
192,192,27695,1,0,0:0:0:0:
320,192,27781,1,0,0:0:0:0:
448,192,27868,1,0,0:0:0:0:
64,192,27954,1,0,0:0:0:0:
192,192,28040,1,0,0:0:0:0:
320,192,28126,1,0,0:0:0:0:
192,192,28212,1,0,0:0:0:0:
320,192,28299,1,0,0:0:0:0:
448,192,28299,1,0,0:0:0:0:
192,192,28299,1,0,0:0:0:0:
64,192,28299,1,0,0:0:0:0:
448,192,28385,1,0,0:0:0:0:
64,192,28471,1,0,0:0:0:0:
192,192,28557,1,0,0:0:0:0:
320,192,28643,1,0,0:0:0:0:
448,192,28730,1,0,0:0:0:0:
320,192,28816,1,0,0:0:0:0:
192,192,28902,1,0,0:0:0:0:
192,192,28988,1,0,0:0:0:0:
64,192,28988,1,0,0:0:0:0:
320,192,28988,1,0,0:0:0:0:
448,192,28988,1,0,0:0:0:0:
320,192,29074,1,0,0:0:0:0:
448,192,29161,1,0,0:0:0:0:
64,192,29247,1,0,0:0:0:0:
192,192,29333,1,0,0:0:0:0:
320,192,29419,1,0,0:0:0:0:
192,192,29505,1,0,0:0:0:0:
64,192,29592,1,0,0:0:0:0:
320,192,29678,1,0,0:0:0:0:
448,192,29678,1,0,0:0:0:0:
192,192,29678,1,0,0:0:0:0:
64,192,29678,1,0,0:0:0:0:
192,192,29764,1,0,0:0:0:0:
448,192,29850,1,0,0:0:0:0:
192,192,29936,1,0,0:0:0:0:
320,192,30023,1,0,0:0:0:0:
64,192,30109,1,0,0:0:0:0:
192,192,30195,1,0,0:0:0:0:
320,192,30281,1,0,0:0:0:0:
192,192,30368,1,0,0:0:0:0:
320,192,30368,1,0,0:0:0:0:
448,192,30368,1,0,0:0:0:0:
64,192,30368,1,0,0:0:0:0:
192,192,30454,1,0,0:0:0:0:
64,192,30540,1,0,0:0:0:0:
320,192,30626,1,0,0:0:0:0:
448,192,30712,1,0,0:0:0:0:
320,192,30799,1,0,0:0:0:0:
448,192,30885,1,0,0:0:0:0:
192,192,30971,1,0,0:0:0:0:
448,192,31057,1,0,0:0:0:0:
320,192,31057,1,0,0:0:0:0:
192,192,31057,1,0,0:0:0:0:
64,192,31057,1,0,0:0:0:0:
320,192,31143,1,0,0:0:0:0:
192,192,31230,1,0,0:0:0:0:
64,192,31316,1,0,0:0:0:0:
192,192,31402,1,0,0:0:0:0:
448,192,31488,1,0,0:0:0:0:
320,192,31574,1,0,0:0:0:0:
192,192,31661,1,0,0:0:0:0:
320,192,31747,1,0,0:0:0:0:
448,192,31747,1,0,0:0:0:0:
192,192,31747,1,0,0:0:0:0:
64,192,31747,1,0,0:0:0:0:
64,192,31833,1,0,0:0:0:0:
320,192,31919,1,0,0:0:0:0:
192,192,32005,1,0,0:0:0:0:
320,192,32092,1,0,0:0:0:0:
64,192,32178,1,0,0:0:0:0:
192,192,32264,1,0,0:0:0:0:
448,192,32350,1,0,0:0:0:0:
192,192,32436,1,0,0:0:0:0:
64,192,32436,1,0,0:0:0:0:
320,192,32436,1,0,0:0:0:0:
448,192,32436,1,0,0:0:0:0:
320,192,32523,1,0,0:0:0:0:
192,192,32609,1,0,0:0:0:0:
448,192,32695,1,0,0:0:0:0:
64,192,32781,1,0,0:0:0:0:
192,192,32868,1,0,0:0:0:0:
320,192,32954,1,0,0:0:0:0:
64,192,33040,1,0,0:0:0:0:
320,192,33126,1,0,0:0:0:0:
448,192,33126,1,0,0:0:0:0:
192,192,33126,1,0,0:0:0:0:
64,192,33126,1,0,0:0:0:0:
320,192,33212,1,0,0:0:0:0:
192,192,33299,1,0,0:0:0:0:
64,192,33385,1,0,0:0:0:0:
448,192,33471,1,0,0:0:0:0:
320,192,33557,1,0,0:0:0:0:
64,192,33643,1,0,0:0:0:0:
192,192,33730,1,0,0:0:0:0:
192,192,33816,1,0,0:0:0:0:
64,192,33816,1,0,0:0:0:0:
320,192,33816,1,0,0:0:0:0:
448,192,33816,1,0,0:0:0:0:
448,192,33902,1,0,0:0:0:0:
320,192,33988,1,0,0:0:0:0:
64,192,34074,1,0,0:0:0:0:
192,192,34161,1,0,0:0:0:0:
320,192,34247,1,0,0:0:0:0:
192,192,34333,1,0,0:0:0:0:
448,192,34419,1,0,0:0:0:0:
320,192,34505,1,0,0:0:0:0:
448,192,34505,1,0,0:0:0:0:
192,192,34505,1,0,0:0:0:0:
64,192,34505,1,0,0:0:0:0:
320,192,34592,1,0,0:0:0:0:
192,192,34678,1,0,0:0:0:0:
64,192,34764,1,0,0:0:0:0:
64,192,34850,1,0,0:0:0:0:
192,192,34850,1,0,0:0:0:0:
320,192,34850,1,0,0:0:0:0:
320,192,35109,1,0,0:0:0:0:
448,192,35109,1,0,0:0:0:0:
192,192,35109,1,0,0:0:0:0:
192,192,35368,1,0,0:0:0:0:
448,192,35368,1,0,0:0:0:0:
64,192,35368,1,0,0:0:0:0:
448,192,35712,1,0,0:0:0:0:
320,192,35755,1,0,0:0:0:0:
192,192,35799,1,0,0:0:0:0:
64,192,35842,1,0,0:0:0:0:
320,192,35885,1,0,0:0:0:0:
192,192,35928,1,0,0:0:0:0:
64,192,35971,1,0,0:0:0:0:
448,192,36014,1,0,0:0:0:0:
192,192,36230,1,0,0:0:0:0:
448,192,36230,1,0,0:0:0:0:
320,192,36316,1,0,0:0:0:0:
192,192,36402,1,0,0:0:0:0:
320,192,36488,1,0,0:0:0:0:
192,192,36574,1,0,0:0:0:0:
320,192,36574,1,0,0:0:0:0:
448,192,36574,1,0,0:0:0:0:
64,192,36574,1,0,0:0:0:0:
192,192,36661,1,0,0:0:0:0:
64,192,36747,1,0,0:0:0:0:
448,192,36833,1,0,0:0:0:0:
64,192,36919,1,0,0:0:0:0:
320,192,37005,1,0,0:0:0:0:
192,192,37092,1,0,0:0:0:0:
320,192,37178,1,0,0:0:0:0:
192,192,37264,1,0,0:0:0:0:
320,192,37264,1,0,0:0:0:0:
448,192,37264,1,0,0:0:0:0:
64,192,37264,1,0,0:0:0:0:
192,192,37350,1,0,0:0:0:0:
64,192,37436,1,0,0:0:0:0:
192,192,37523,1,0,0:0:0:0:
320,192,37609,1,0,0:0:0:0:
448,192,37695,1,0,0:0:0:0:
192,192,37781,1,0,0:0:0:0:
64,192,37868,1,0,0:0:0:0:
320,192,37954,1,0,0:0:0:0:
448,192,37954,1,0,0:0:0:0:
192,192,37954,1,0,0:0:0:0:
64,192,37954,1,0,0:0:0:0:
320,192,38040,1,0,0:0:0:0:
448,192,38126,1,0,0:0:0:0:
320,192,38212,1,0,0:0:0:0:
192,192,38299,1,0,0:0:0:0:
64,192,38385,1,0,0:0:0:0:
320,192,38471,1,0,0:0:0:0:
192,192,38557,1,0,0:0:0:0:
320,192,38643,1,0,0:0:0:0:
448,192,38643,1,0,0:0:0:0:
192,192,38643,1,0,0:0:0:0:
64,192,38643,1,0,0:0:0:0:
448,192,38730,1,0,0:0:0:0:
192,192,38816,1,0,0:0:0:0:
64,192,38902,1,0,0:0:0:0:
320,192,38988,1,0,0:0:0:0:
192,192,39074,1,0,0:0:0:0:
448,192,39161,1,0,0:0:0:0:
320,192,39247,1,0,0:0:0:0:
192,192,39333,1,0,0:0:0:0:
320,192,39333,1,0,0:0:0:0:
448,192,39333,1,0,0:0:0:0:
64,192,39333,1,0,0:0:0:0:
192,192,39419,1,0,0:0:0:0:
64,192,39505,1,0,0:0:0:0:
320,192,39592,1,0,0:0:0:0:
192,192,39678,1,0,0:0:0:0:
64,192,39764,1,0,0:0:0:0:
320,192,39850,1,0,0:0:0:0:
448,192,39936,1,0,0:0:0:0:
448,192,40023,1,0,0:0:0:0:
320,192,40023,1,0,0:0:0:0:
192,192,40023,1,0,0:0:0:0:
64,192,40023,1,0,0:0:0:0:
64,192,40109,1,0,0:0:0:0:
192,192,40195,1,0,0:0:0:0:
320,192,40281,1,0,0:0:0:0:
64,192,40368,1,0,0:0:0:0:
448,192,40454,1,0,0:0:0:0:
320,192,40540,1,0,0:0:0:0:
192,192,40626,1,0,0:0:0:0:
64,192,40712,1,0,0:0:0:0:
192,192,40712,1,0,0:0:0:0:
320,192,40712,1,0,0:0:0:0:
448,192,40712,1,0,0:0:0:0:
320,192,40799,1,0,0:0:0:0:
192,192,40885,1,0,0:0:0:0:
64,192,40971,1,0,0:0:0:0:
448,192,41057,1,0,0:0:0:0:
320,192,41057,1,0,0:0:0:0:
320,192,41230,1,0,0:0:0:0:
448,192,41230,1,0,0:0:0:0:
320,192,41402,1,0,0:0:0:0:
448,192,41402,1,0,0:0:0:0:
192,192,41402,1,0,0:0:0:0:
64,192,41402,1,0,0:0:0:0:
320,192,41488,1,0,0:0:0:0:
192,192,41574,1,0,0:0:0:0:
64,192,41661,1,0,0:0:0:0:
320,192,41747,1,0,0:0:0:0:
192,192,41833,1,0,0:0:0:0:
448,192,41919,1,0,0:0:0:0:
320,192,42005,1,0,0:0:0:0:
320,192,42092,1,0,0:0:0:0:
192,192,42092,1,0,0:0:0:0:
448,192,42092,1,0,0:0:0:0:
64,192,42092,1,0,0:0:0:0:
192,192,42178,1,0,0:0:0:0:
64,192,42264,1,0,0:0:0:0:
320,192,42350,1,0,0:0:0:0:
192,192,42436,1,0,0:0:0:0:
320,192,42523,1,0,0:0:0:0:
192,192,42609,1,0,0:0:0:0:
64,192,42695,1,0,0:0:0:0:
320,192,42781,1,0,0:0:0:0:
448,192,42781,1,0,0:0:0:0:
192,192,42781,1,0,0:0:0:0:
64,192,42781,1,0,0:0:0:0:
192,192,42868,1,0,0:0:0:0:
448,192,42954,1,0,0:0:0:0:
192,192,43040,1,0,0:0:0:0:
320,192,43126,1,0,0:0:0:0:
192,192,43212,1,0,0:0:0:0:
448,192,43299,1,0,0:0:0:0:
320,192,43385,1,0,0:0:0:0:
192,192,43471,1,0,0:0:0:0:
320,192,43471,1,0,0:0:0:0:
448,192,43471,1,0,0:0:0:0:
64,192,43471,1,0,0:0:0:0:
192,192,43557,1,0,0:0:0:0:
448,192,43643,1,0,0:0:0:0:
320,192,43730,1,0,0:0:0:0:
64,192,43816,1,0,0:0:0:0:
192,192,43902,1,0,0:0:0:0:
64,192,43988,1,0,0:0:0:0:
320,192,44074,1,0,0:0:0:0:
192,192,44161,1,0,0:0:0:0:
320,192,44161,1,0,0:0:0:0:
448,192,44161,1,0,0:0:0:0:
64,192,44161,1,0,0:0:0:0:
64,192,44247,1,0,0:0:0:0:
320,192,44333,1,0,0:0:0:0:
64,192,44419,1,0,0:0:0:0:
192,192,44505,1,0,0:0:0:0:
448,192,44592,1,0,0:0:0:0:
320,192,44678,1,0,0:0:0:0:
192,192,44764,1,0,0:0:0:0:
448,192,44850,1,0,0:0:0:0:
320,192,44850,1,0,0:0:0:0:
192,192,44850,1,0,0:0:0:0:
64,192,44850,1,0,0:0:0:0:
320,192,44936,1,0,0:0:0:0:
448,192,45023,1,0,0:0:0:0:
320,192,45109,1,0,0:0:0:0:
192,192,45195,1,0,0:0:0:0:
320,192,45281,1,0,0:0:0:0:
64,192,45368,1,0,0:0:0:0:
192,192,45454,1,0,0:0:0:0:
192,192,45540,1,0,0:0:0:0:
320,192,45540,1,0,0:0:0:0:
448,192,45540,1,0,0:0:0:0:
64,192,45540,1,0,0:0:0:0:
320,192,45626,1,0,0:0:0:0:
64,192,45712,1,0,0:0:0:0:
448,192,45799,1,0,0:0:0:0:
192,192,45885,1,0,0:0:0:0:
64,192,45971,1,0,0:0:0:0:
320,192,46057,1,0,0:0:0:0:
192,192,46143,1,0,0:0:0:0:
320,192,46230,1,0,0:0:0:0:
448,192,46230,1,0,0:0:0:0:
192,192,46230,1,0,0:0:0:0:
64,192,46230,1,0,0:0:0:0:
320,192,46316,1,0,0:0:0:0:
192,192,46402,1,0,0:0:0:0:
448,192,46488,1,0,0:0:0:0:
64,192,46574,1,0,0:0:0:0:
192,192,46574,1,0,0:0:0:0:
320,192,46661,1,0,0:0:0:0:
192,192,46747,1,0,0:0:0:0:
64,192,46747,1,0,0:0:0:0:
448,192,46833,1,0,0:0:0:0:
64,192,46919,128,0,47178:0:0:0:0:
192,192,46919,128,0,47178:0:0:0:0:
320,192,46919,128,0,47178:0:0:0:0:
448,192,46919,128,0,47178:0:0:0:0:
320,192,47264,1,0,0:0:0:0:
448,192,47264,1,0,0:0:0:0:
64,192,47264,1,0,0:0:0:0:
192,192,47436,1,0,0:0:0:0:
320,192,47436,1,0,0:0:0:0:
448,192,47609,1,0,0:0:0:0:
64,192,47609,1,0,0:0:0:0:
192,192,47609,1,0,0:0:0:0:
320,192,47609,1,0,0:0:0:0:
192,192,47781,1,0,0:0:0:0:
320,192,47781,1,0,0:0:0:0:
64,192,47954,1,0,0:0:0:0:
448,192,47954,1,0,0:0:0:0:
192,192,47954,1,0,0:0:0:0:
320,192,48126,1,0,0:0:0:0:
192,192,48126,1,0,0:0:0:0:
448,192,48299,1,0,0:0:0:0:
320,192,48299,1,0,0:0:0:0:
64,192,48299,1,0,0:0:0:0:
192,192,48299,1,0,0:0:0:0:
192,192,48471,1,0,0:0:0:0:
64,192,48471,1,0,0:0:0:0:
320,192,48643,1,0,0:0:0:0:
448,192,48643,1,0,0:0:0:0:
64,192,48643,1,0,0:0:0:0:
192,192,48816,1,0,0:0:0:0:
448,192,48816,1,0,0:0:0:0:
320,192,48988,1,0,0:0:0:0:
192,192,48988,1,0,0:0:0:0:
448,192,48988,1,0,0:0:0:0:
64,192,48988,1,0,0:0:0:0:
320,192,49161,1,0,0:0:0:0:
192,192,49161,1,0,0:0:0:0:
64,192,49333,1,0,0:0:0:0:
320,192,49333,1,0,0:0:0:0:
448,192,49333,1,0,0:0:0:0:
192,192,49505,1,0,0:0:0:0:
320,192,49505,1,0,0:0:0:0:
320,192,49678,1,0,0:0:0:0:
448,192,49678,1,0,0:0:0:0:
192,192,49678,1,0,0:0:0:0:
64,192,49678,1,0,0:0:0:0:
320,192,49850,1,0,0:0:0:0:
64,192,49850,1,0,0:0:0:0:
192,192,50023,1,0,0:0:0:0:
448,192,50023,1,0,0:0:0:0:
64,192,50023,1,0,0:0:0:0:
320,192,50195,1,0,0:0:0:0:
448,192,50195,1,0,0:0:0:0:
192,192,50368,1,0,0:0:0:0:
320,192,50368,1,0,0:0:0:0:
448,192,50368,1,0,0:0:0:0:
64,192,50368,1,0,0:0:0:0:
320,192,50540,1,0,0:0:0:0:
192,192,50540,1,0,0:0:0:0:
64,192,50712,1,0,0:0:0:0:
192,192,50712,1,0,0:0:0:0:
448,192,50712,1,0,0:0:0:0:
320,192,50885,1,0,0:0:0:0:
192,192,50885,1,0,0:0:0:0:
320,192,51057,1,0,0:0:0:0:
192,192,51057,1,0,0:0:0:0:
64,192,51057,1,0,0:0:0:0:
448,192,51057,1,0,0:0:0:0:
448,192,51230,1,0,0:0:0:0:
192,192,51230,1,0,0:0:0:0:
448,192,51402,1,0,0:0:0:0:
320,192,51402,1,0,0:0:0:0:
64,192,51402,1,0,0:0:0:0:
192,192,51574,1,0,0:0:0:0:
64,192,51574,1,0,0:0:0:0:
320,192,51747,1,0,0:0:0:0:
448,192,51747,1,0,0:0:0:0:
192,192,51747,1,0,0:0:0:0:
64,192,51747,1,0,0:0:0:0:
320,192,51919,1,0,0:0:0:0:
448,192,51919,1,0,0:0:0:0:
448,192,52092,1,0,0:0:0:0:
320,192,52092,1,0,0:0:0:0:
64,192,52092,1,0,0:0:0:0:
64,192,52264,1,0,0:0:0:0:
192,192,52264,1,0,0:0:0:0:
320,192,52436,1,0,0:0:0:0:
448,192,52436,1,0,0:0:0:0:
192,192,52436,1,0,0:0:0:0:
64,192,52436,1,0,0:0:0:0:
320,192,52609,1,0,0:0:0:0:
192,192,52609,1,0,0:0:0:0:
320,192,52781,1,0,0:0:0:0:
448,192,52781,1,0,0:0:0:0:
64,192,52781,1,0,0:0:0:0:
192,192,52954,1,0,0:0:0:0:
64,192,52954,1,0,0:0:0:0:
320,192,53126,1,0,0:0:0:0:
448,192,53126,1,0,0:0:0:0:
192,192,53126,1,0,0:0:0:0:
64,192,53126,1,0,0:0:0:0:
320,192,53299,1,0,0:0:0:0:
192,192,53299,1,0,0:0:0:0:
192,192,53471,1,0,0:0:0:0:
448,192,53471,1,0,0:0:0:0:
64,192,53471,1,0,0:0:0:0:
320,192,53643,1,0,0:0:0:0:
192,192,53643,1,0,0:0:0:0:
448,192,53816,1,0,0:0:0:0:
320,192,53816,1,0,0:0:0:0:
192,192,53816,1,0,0:0:0:0:
64,192,53816,1,0,0:0:0:0:
320,192,53988,1,0,0:0:0:0:
448,192,53988,1,0,0:0:0:0:
320,192,54161,1,0,0:0:0:0:
192,192,54161,1,0,0:0:0:0:
64,192,54161,1,0,0:0:0:0:
192,192,54333,1,0,0:0:0:0:
64,192,54333,1,0,0:0:0:0:
320,192,54505,1,0,0:0:0:0:
448,192,54505,1,0,0:0:0:0:
192,192,54505,1,0,0:0:0:0:
64,192,54505,1,0,0:0:0:0:
320,192,54678,1,0,0:0:0:0:
64,192,54678,1,0,0:0:0:0:
320,192,54850,1,0,0:0:0:0:
448,192,54850,1,0,0:0:0:0:
192,192,54850,1,0,0:0:0:0:
64,192,55023,1,0,0:0:0:0:
192,192,55023,1,0,0:0:0:0:
64,192,55195,1,0,0:0:0:0:
192,192,55195,1,0,0:0:0:0:
320,192,55195,1,0,0:0:0:0:
448,192,55195,1,0,0:0:0:0:
320,192,55368,1,0,0:0:0:0:
448,192,55368,1,0,0:0:0:0:
192,192,55540,1,0,0:0:0:0:
448,192,55540,1,0,0:0:0:0:
64,192,55540,1,0,0:0:0:0:
192,192,55712,1,0,0:0:0:0:
448,192,55712,1,0,0:0:0:0:
192,192,55885,1,0,0:0:0:0:
64,192,55885,1,0,0:0:0:0:
320,192,55885,1,0,0:0:0:0:
448,192,55885,1,0,0:0:0:0:
320,192,56057,1,0,0:0:0:0:
448,192,56057,1,0,0:0:0:0:
192,192,56230,1,0,0:0:0:0:
64,192,56230,1,0,0:0:0:0:
320,192,56402,1,0,0:0:0:0:
192,192,56402,1,0,0:0:0:0:
448,192,56402,1,0,0:0:0:0:
192,192,56574,1,0,0:0:0:0:
64,192,56574,1,0,0:0:0:0:
320,192,56574,1,0,0:0:0:0:
448,192,56574,1,0,0:0:0:0:
192,192,56747,1,0,0:0:0:0:
320,192,56747,1,0,0:0:0:0:
64,192,56919,1,0,0:0:0:0:
320,192,56919,1,0,0:0:0:0:
448,192,56919,1,0,0:0:0:0:
192,192,57178,1,0,0:0:0:0:
320,192,57178,1,0,0:0:0:0:
448,192,57178,1,0,0:0:0:0:
64,192,57178,1,0,0:0:0:0:
64,192,57436,128,0,57609:0:0:0:0:
192,192,57436,128,0,57695:0:0:0:0:
320,192,57436,128,0,57781:0:0:0:0:
448,192,57436,128,0,57868:0:0:0:0:
64,192,57781,1,0,0:0:0:0:
192,192,57868,1,0,0:0:0:0:
320,192,57954,1,0,0:0:0:0:
448,192,58040,1,0,0:0:0:0:
320,192,58126,1,0,0:0:0:0:
192,192,58212,1,0,0:0:0:0:
64,192,58299,1,0,0:0:0:0:
320,192,58471,1,0,0:0:0:0:
192,192,58557,1,0,0:0:0:0:
320,192,58643,1,0,0:0:0:0:
448,192,58643,1,0,0:0:0:0:
64,192,58643,1,0,0:0:0:0:
192,192,58816,1,0,0:0:0:0:
320,192,58902,1,0,0:0:0:0:
192,192,58988,1,0,0:0:0:0:
64,192,58988,1,0,0:0:0:0:
448,192,59161,1,0,0:0:0:0:
192,192,59247,1,0,0:0:0:0:
320,192,59333,1,0,0:0:0:0:
64,192,59333,1,0,0:0:0:0:
448,192,59333,1,0,0:0:0:0:
192,192,59505,1,0,0:0:0:0:
448,192,59592,1,0,0:0:0:0:
320,192,59678,1,0,0:0:0:0:
192,192,59678,1,0,0:0:0:0:
64,192,59678,1,0,0:0:0:0:
320,192,59850,1,0,0:0:0:0:
64,192,59936,1,0,0:0:0:0:
192,192,60023,1,0,0:0:0:0:
320,192,60023,1,0,0:0:0:0:
448,192,60023,1,0,0:0:0:0:
448,192,60195,1,0,0:0:0:0:
320,192,60281,1,0,0:0:0:0:
192,192,60368,1,0,0:0:0:0:
64,192,60368,1,0,0:0:0:0:
448,192,60368,1,0,0:0:0:0:
192,192,60540,1,0,0:0:0:0:
320,192,60626,1,0,0:0:0:0:
192,192,60712,1,0,0:0:0:0:
64,192,60712,1,0,0:0:0:0:
448,192,60712,1,0,0:0:0:0:
448,192,60885,1,0,0:0:0:0:
320,192,60971,1,0,0:0:0:0:
192,192,61057,1,0,0:0:0:0:
64,192,61057,1,0,0:0:0:0:
448,192,61057,1,0,0:0:0:0:
320,192,61230,1,0,0:0:0:0:
192,192,61316,1,0,0:0:0:0:
320,192,61402,1,0,0:0:0:0:
448,192,61402,1,0,0:0:0:0:
64,192,61402,1,0,0:0:0:0:
192,192,61574,1,0,0:0:0:0:
448,192,61661,1,0,0:0:0:0:
320,192,61747,1,0,0:0:0:0:
192,192,61747,1,0,0:0:0:0:
64,192,61747,1,0,0:0:0:0:
64,192,61919,1,0,0:0:0:0:
192,192,62005,1,0,0:0:0:0:
320,192,62092,1,0,0:0:0:0:
448,192,62092,1,0,0:0:0:0:
64,192,62092,1,0,0:0:0:0:
448,192,62264,1,0,0:0:0:0:
192,192,62350,1,0,0:0:0:0:
64,192,62436,1,0,0:0:0:0:
320,192,62436,1,0,0:0:0:0:
448,192,62436,1,0,0:0:0:0:
192,192,62609,1,0,0:0:0:0:
448,192,62695,1,0,0:0:0:0:
64,192,62781,1,0,0:0:0:0:
192,192,62781,1,0,0:0:0:0:
320,192,62781,1,0,0:0:0:0:
448,192,62954,1,0,0:0:0:0:
192,192,63040,1,0,0:0:0:0:
320,192,63126,1,0,0:0:0:0:
448,192,63126,1,0,0:0:0:0:
64,192,63126,1,0,0:0:0:0:
192,192,63299,1,0,0:0:0:0:
64,192,63385,1,0,0:0:0:0:
320,192,63471,1,0,0:0:0:0:
448,192,63471,1,0,0:0:0:0:
192,192,63471,1,0,0:0:0:0:
192,192,63643,1,0,0:0:0:0:
448,192,63730,1,0,0:0:0:0:
320,192,63816,1,0,0:0:0:0:
192,192,63816,1,0,0:0:0:0:
64,192,63816,1,0,0:0:0:0:
448,192,63988,1,0,0:0:0:0:
64,192,64074,1,0,0:0:0:0:
192,192,64161,1,0,0:0:0:0:
320,192,64161,1,0,0:0:0:0:
448,192,64161,1,0,0:0:0:0:
192,192,64333,1,0,0:0:0:0:
64,192,64419,1,0,0:0:0:0:
320,192,64505,1,0,0:0:0:0:
448,192,64505,1,0,0:0:0:0:
192,192,64505,1,0,0:0:0:0:
320,192,64678,1,0,0:0:0:0:
192,192,64764,1,0,0:0:0:0:
64,192,64850,1,0,0:0:0:0:
320,192,64850,1,0,0:0:0:0:
448,192,64850,1,0,0:0:0:0:
448,192,65023,1,0,0:0:0:0:
320,192,65109,1,0,0:0:0:0:
192,192,65195,1,0,0:0:0:0:
64,192,65195,1,0,0:0:0:0:
448,192,65195,1,0,0:0:0:0:
320,192,65368,1,0,0:0:0:0:
64,192,65454,1,0,0:0:0:0:
192,192,65540,1,0,0:0:0:0:
320,192,65540,1,0,0:0:0:0:
448,192,65540,1,0,0:0:0:0:
192,192,65712,1,0,0:0:0:0:
320,192,65799,1,0,0:0:0:0:
448,192,65885,1,0,0:0:0:0:
192,192,65885,1,0,0:0:0:0:
64,192,65885,1,0,0:0:0:0:
320,192,66057,1,0,0:0:0:0:
192,192,66143,1,0,0:0:0:0:
320,192,66230,1,0,0:0:0:0:
448,192,66230,1,0,0:0:0:0:
64,192,66230,1,0,0:0:0:0:
448,192,66402,1,0,0:0:0:0:
64,192,66488,1,0,0:0:0:0:
192,192,66574,1,0,0:0:0:0:
448,192,66574,1,0,0:0:0:0:
320,192,66574,1,0,0:0:0:0:
192,192,66833,1,0,0:0:0:0:
320,192,66833,1,0,0:0:0:0:
448,192,66833,1,0,0:0:0:0:
448,192,67092,1,0,0:0:0:0:
320,192,67264,1,0,0:0:0:0:
192,192,67264,1,0,0:0:0:0:
64,192,67264,1,0,0:0:0:0:
320,192,67523,1,0,0:0:0:0:
192,192,67523,1,0,0:0:0:0:
64,192,67523,1,0,0:0:0:0:
448,192,67781,1,0,0:0:0:0:
448,192,67954,1,0,0:0:0:0:
320,192,68040,1,0,0:0:0:0:
192,192,68126,1,0,0:0:0:0:
64,192,68212,1,0,0:0:0:0:
448,192,68299,1,0,0:0:0:0:
320,192,68385,1,0,0:0:0:0:
192,192,68471,1,0,0:0:0:0:
64,192,68557,1,0,0:0:0:0:
192,192,68600,1,0,0:0:0:0:
320,192,68643,1,0,0:0:0:0:
320,192,68816,1,0,0:0:0:0:
448,192,68945,1,0,0:0:0:0:
192,192,68988,128,0,69333:0:0:0:0:
64,192,68988,128,0,69333:0:0:0:0:
448,192,69333,128,0,70712:0:0:0:0:
320,192,69333,128,0,69678:0:0:0:0:
192,192,69678,128,0,70023:0:0:0:0:
320,192,70023,128,0,70368:0:0:0:0:
64,192,70368,128,0,70712:0:0:0:0:
192,192,70712,128,0,72092:0:0:0:0:
320,192,70712,128,0,71057:0:0:0:0:
448,192,71057,128,0,71402:0:0:0:0:
64,192,71402,128,0,71747:0:0:0:0:
448,192,71747,1,0,0:0:0:0:
320,192,71790,1,0,0:0:0:0:
64,192,71833,1,0,0:0:0:0:
448,192,71876,1,0,0:0:0:0:
320,192,71919,1,0,0:0:0:0:
64,192,71962,1,0,0:0:0:0:
448,192,72005,1,0,0:0:0:0:
320,192,72049,1,0,0:0:0:0:
448,192,72092,128,0,73471:0:0:0:0:
64,192,72092,128,0,72436:0:0:0:0:
192,192,72436,128,0,72781:0:0:0:0:
64,192,72781,128,0,73126:0:0:0:0:
320,192,73126,128,0,73471:0:0:0:0:
64,192,73471,128,0,74850:0:0:0:0:
192,192,73471,128,0,73816:0:0:0:0:
448,192,73816,128,0,74161:0:0:0:0:
320,192,74161,128,0,74505:0:0:0:0:
192,192,74549,1,0,0:0:0:0:
448,192,74592,1,0,0:0:0:0:
320,192,74635,1,0,0:0:0:0:
192,192,74678,1,0,0:0:0:0:
448,192,74721,1,0,0:0:0:0:
320,192,74764,1,0,0:0:0:0:
192,192,74807,1,0,0:0:0:0:
320,192,74850,128,0,76230:0:0:0:0:
448,192,74893,1,0,0:0:0:0:
192,192,74936,1,0,0:0:0:0:
64,192,74980,1,0,0:0:0:0:
192,192,75066,1,0,0:0:0:0:
448,192,75109,1,0,0:0:0:0:
64,192,75152,1,0,0:0:0:0:
192,192,75195,128,0,75540:0:0:0:0:
448,192,75540,128,0,75885:0:0:0:0:
64,192,75885,128,0,76230:0:0:0:0:
192,192,76230,128,0,77609:0:0:0:0:
448,192,76230,128,0,76574:0:0:0:0:
320,192,76574,128,0,76919:0:0:0:0:
64,192,76919,128,0,77264:0:0:0:0:
448,192,77264,128,0,77609:0:0:0:0:
320,192,77609,128,0,78988:0:0:0:0:
64,192,77609,128,0,77954:0:0:0:0:
192,192,77954,128,0,78040:0:0:0:0:
64,192,78040,128,0,78126:0:0:0:0:
192,192,78126,128,0,78212:0:0:0:0:
64,192,78212,128,0,78299:0:0:0:0:
448,192,78299,128,0,78471:0:0:0:0:
192,192,78557,128,0,78643:0:0:0:0:
64,192,78643,128,0,78730:0:0:0:0:
192,192,78730,128,0,78816:0:0:0:0:
448,192,78816,128,0,78902:0:0:0:0:
192,192,79031,1,0,0:0:0:0:
64,192,79074,1,0,0:0:0:0:
320,192,79118,1,0,0:0:0:0:
448,192,79161,1,0,0:0:0:0:
192,192,79204,1,0,0:0:0:0:
320,192,79247,1,0,0:0:0:0:
448,192,79290,1,0,0:0:0:0:
64,192,79333,1,0,0:0:0:0:
192,192,79376,1,0,0:0:0:0:
320,192,79419,1,0,0:0:0:0:
448,192,79462,1,0,0:0:0:0:
192,192,79505,1,0,0:0:0:0:
64,192,79549,1,0,0:0:0:0:
320,192,79592,1,0,0:0:0:0:
192,192,79635,1,0,0:0:0:0:
64,192,79678,1,0,0:0:0:0:
448,192,79721,1,0,0:0:0:0:
320,192,79764,1,0,0:0:0:0:
192,192,79807,1,0,0:0:0:0:
64,192,79850,1,0,0:0:0:0:
192,192,79893,1,0,0:0:0:0:
320,192,79936,1,0,0:0:0:0:
448,192,79980,1,0,0:0:0:0:
64,192,80023,1,0,0:0:0:0:
192,192,80023,1,0,0:0:0:0:
64,192,80368,1,0,0:0:0:0:
448,192,80368,1,0,0:0:0:0:
192,192,80368,1,0,0:0:0:0:
448,192,80454,1,0,0:0:0:0:
448,192,80540,1,0,0:0:0:0:
448,192,80626,1,0,0:0:0:0:
448,192,80712,1,0,0:0:0:0:
320,192,80712,1,0,0:0:0:0:
192,192,80712,1,0,0:0:0:0:
64,192,80712,1,0,0:0:0:0:
320,192,80799,1,0,0:0:0:0:
320,192,80885,1,0,0:0:0:0:
320,192,80971,1,0,0:0:0:0:
192,192,81057,1,0,0:0:0:0:
448,192,81057,1,0,0:0:0:0:
192,192,81143,1,0,0:0:0:0:
192,192,81230,1,0,0:0:0:0:
192,192,81316,1,0,0:0:0:0:
320,192,81402,1,0,0:0:0:0:
64,192,81402,1,0,0:0:0:0:
448,192,81402,1,0,0:0:0:0:
192,192,81402,1,0,0:0:0:0:
320,192,81488,1,0,0:0:0:0:
320,192,81574,1,0,0:0:0:0:
320,192,81661,1,0,0:0:0:0:
448,192,81747,1,0,0:0:0:0:
192,192,81747,1,0,0:0:0:0:
64,192,81833,1,0,0:0:0:0:
192,192,81919,1,0,0:0:0:0:
320,192,82005,1,0,0:0:0:0:
320,192,82092,1,0,0:0:0:0:
448,192,82092,1,0,0:0:0:0:
192,192,82092,1,0,0:0:0:0:
64,192,82092,1,0,0:0:0:0:
192,192,82178,1,0,0:0:0:0:
448,192,82264,1,0,0:0:0:0:
192,192,82350,1,0,0:0:0:0:
320,192,82436,1,0,0:0:0:0:
448,192,82436,1,0,0:0:0:0:
64,192,82523,1,0,0:0:0:0:
192,192,82609,1,0,0:0:0:0:
320,192,82695,1,0,0:0:0:0:
448,192,82781,1,0,0:0:0:0:
192,192,82781,1,0,0:0:0:0:
320,192,82781,1,0,0:0:0:0:
64,192,82781,1,0,0:0:0:0:
320,192,82868,1,0,0:0:0:0:
192,192,82954,1,0,0:0:0:0:
64,192,83040,1,0,0:0:0:0:
64,192,83126,1,0,0:0:0:0:
448,192,83126,1,0,0:0:0:0:
192,192,83126,1,0,0:0:0:0:
448,192,83212,1,0,0:0:0:0:
448,192,83299,1,0,0:0:0:0:
448,192,83385,1,0,0:0:0:0:
448,192,83471,1,0,0:0:0:0:
320,192,83471,1,0,0:0:0:0:
192,192,83471,1,0,0:0:0:0:
64,192,83471,1,0,0:0:0:0:
320,192,83557,1,0,0:0:0:0:
320,192,83643,1,0,0:0:0:0:
320,192,83730,1,0,0:0:0:0:
320,192,83816,1,0,0:0:0:0:
192,192,83816,1,0,0:0:0:0:
192,192,83902,1,0,0:0:0:0:
192,192,83988,1,0,0:0:0:0:
192,192,84074,1,0,0:0:0:0:
192,192,84161,1,0,0:0:0:0:
320,192,84161,1,0,0:0:0:0:
64,192,84161,1,0,0:0:0:0:
448,192,84161,1,0,0:0:0:0:
320,192,84247,1,0,0:0:0:0:
320,192,84333,1,0,0:0:0:0:
320,192,84419,1,0,0:0:0:0:
448,192,84505,1,0,0:0:0:0:
192,192,84505,1,0,0:0:0:0:
320,192,84592,1,0,0:0:0:0:
192,192,84678,1,0,0:0:0:0:
64,192,84764,1,0,0:0:0:0:
192,192,84850,1,0,0:0:0:0:
64,192,84850,1,0,0:0:0:0:
320,192,84850,1,0,0:0:0:0:
448,192,84850,1,0,0:0:0:0:
320,192,84936,1,0,0:0:0:0:
192,192,85023,1,0,0:0:0:0:
64,192,85109,1,0,0:0:0:0:
448,192,85195,1,0,0:0:0:0:
64,192,85195,1,0,0:0:0:0:
320,192,85281,1,0,0:0:0:0:
448,192,85368,1,0,0:0:0:0:
192,192,85454,1,0,0:0:0:0:
320,192,85540,1,0,0:0:0:0:
448,192,85540,1,0,0:0:0:0:
192,192,85540,1,0,0:0:0:0:
64,192,85540,1,0,0:0:0:0:
320,192,85626,1,0,0:0:0:0:
192,192,85712,1,0,0:0:0:0:
320,192,85799,1,0,0:0:0:0:
64,192,85885,1,0,0:0:0:0:
448,192,85885,1,0,0:0:0:0:
64,192,85971,1,0,0:0:0:0:
64,192,86057,1,0,0:0:0:0:
64,192,86143,1,0,0:0:0:0:
64,192,86230,1,0,0:0:0:0:
320,192,86230,1,0,0:0:0:0:
192,192,86230,1,0,0:0:0:0:
448,192,86230,1,0,0:0:0:0:
192,192,86316,1,0,0:0:0:0:
192,192,86402,1,0,0:0:0:0:
192,192,86488,1,0,0:0:0:0:
320,192,86574,1,0,0:0:0:0:
64,192,86574,1,0,0:0:0:0:
320,192,86661,1,0,0:0:0:0:
320,192,86747,1,0,0:0:0:0:
320,192,86833,1,0,0:0:0:0:
192,192,86919,1,0,0:0:0:0:
448,192,86919,1,0,0:0:0:0:
320,192,86919,1,0,0:0:0:0:
64,192,86919,1,0,0:0:0:0:
192,192,87005,1,0,0:0:0:0:
192,192,87092,1,0,0:0:0:0:
192,192,87178,1,0,0:0:0:0:
320,192,87264,1,0,0:0:0:0:
448,192,87264,1,0,0:0:0:0:
192,192,87350,1,0,0:0:0:0:
320,192,87436,1,0,0:0:0:0:
448,192,87523,1,0,0:0:0:0:
320,192,87609,1,0,0:0:0:0:
448,192,87609,1,0,0:0:0:0:
192,192,87609,1,0,0:0:0:0:
64,192,87609,1,0,0:0:0:0:
192,192,87695,1,0,0:0:0:0:
320,192,87781,1,0,0:0:0:0:
192,192,87868,1,0,0:0:0:0:
320,192,87954,1,0,0:0:0:0:
448,192,87954,1,0,0:0:0:0:
192,192,88040,1,0,0:0:0:0:
64,192,88126,1,0,0:0:0:0:
320,192,88212,1,0,0:0:0:0:
448,192,88299,1,0,0:0:0:0:
320,192,88299,1,0,0:0:0:0:
192,192,88299,1,0,0:0:0:0:
64,192,88299,1,0,0:0:0:0:
192,192,88385,1,0,0:0:0:0:
320,192,88471,1,0,0:0:0:0:
192,192,88557,1,0,0:0:0:0:
448,192,88643,1,0,0:0:0:0:
64,192,88643,1,0,0:0:0:0:
64,192,88730,1,0,0:0:0:0:
64,192,88816,1,0,0:0:0:0:
64,192,88902,1,0,0:0:0:0:
192,192,88988,1,0,0:0:0:0:
320,192,88988,1,0,0:0:0:0:
64,192,88988,1,0,0:0:0:0:
448,192,88988,1,0,0:0:0:0:
192,192,89074,1,0,0:0:0:0:
192,192,89161,1,0,0:0:0:0:
192,192,89247,1,0,0:0:0:0:
320,192,89333,1,0,0:0:0:0:
64,192,89333,1,0,0:0:0:0:
320,192,89419,1,0,0:0:0:0:
320,192,89505,1,0,0:0:0:0:
320,192,89592,1,0,0:0:0:0:
192,192,89678,1,0,0:0:0:0:
448,192,89678,1,0,0:0:0:0:
64,192,89678,1,0,0:0:0:0:
320,192,89678,1,0,0:0:0:0:
192,192,89764,1,0,0:0:0:0:
192,192,89850,1,0,0:0:0:0:
192,192,89936,1,0,0:0:0:0:
320,192,90023,1,0,0:0:0:0:
448,192,90023,1,0,0:0:0:0:
192,192,90109,1,0,0:0:0:0:
320,192,90195,1,0,0:0:0:0:
64,192,90281,1,0,0:0:0:0:
320,192,90368,1,0,0:0:0:0:
448,192,90368,1,0,0:0:0:0:
192,192,90368,1,0,0:0:0:0:
64,192,90368,1,0,0:0:0:0:
192,192,90454,1,0,0:0:0:0:
320,192,90540,1,0,0:0:0:0:
448,192,90626,1,0,0:0:0:0:
192,192,90712,1,0,0:0:0:0:
64,192,90712,1,0,0:0:0:0:
320,192,90799,1,0,0:0:0:0:
192,192,90842,1,0,0:0:0:0:
64,192,90885,1,0,0:0:0:0:
448,192,90928,1,0,0:0:0:0:
320,192,90971,1,0,0:0:0:0:
192,192,91014,1,0,0:0:0:0:
320,192,91057,1,0,0:0:0:0:
448,192,91057,1,0,0:0:0:0:
64,192,91057,1,0,0:0:0:0:
192,192,91143,1,0,0:0:0:0:
320,192,91230,1,0,0:0:0:0:
192,192,91316,1,0,0:0:0:0:
448,192,91402,1,0,0:0:0:0:
64,192,91402,1,0,0:0:0:0:
64,192,91488,1,0,0:0:0:0:
64,192,91574,1,0,0:0:0:0:
64,192,91661,1,0,0:0:0:0:
64,192,91747,1,0,0:0:0:0:
448,192,91747,1,0,0:0:0:0:
320,192,91747,1,0,0:0:0:0:
192,192,91747,1,0,0:0:0:0:
448,192,91833,1,0,0:0:0:0:
448,192,91919,1,0,0:0:0:0:
448,192,92005,1,0,0:0:0:0:
448,192,92092,1,0,0:0:0:0:
192,192,92092,1,0,0:0:0:0:
192,192,92178,1,0,0:0:0:0:
192,192,92264,1,0,0:0:0:0:
192,192,92350,1,0,0:0:0:0:
192,192,92436,1,0,0:0:0:0:
320,192,92436,1,0,0:0:0:0:
448,192,92436,1,0,0:0:0:0:
64,192,92436,1,0,0:0:0:0:
320,192,92523,1,0,0:0:0:0:
320,192,92609,1,0,0:0:0:0:
320,192,92695,1,0,0:0:0:0:
320,192,92781,1,0,0:0:0:0:
192,192,92781,1,0,0:0:0:0:
64,192,92868,1,0,0:0:0:0:
192,192,92954,1,0,0:0:0:0:
448,192,93040,1,0,0:0:0:0:
320,192,93126,1,0,0:0:0:0:
448,192,93126,1,0,0:0:0:0:
192,192,93126,1,0,0:0:0:0:
64,192,93126,1,0,0:0:0:0:
192,192,93212,1,0,0:0:0:0:
64,192,93299,1,0,0:0:0:0:
320,192,93385,1,0,0:0:0:0:
448,192,93471,1,0,0:0:0:0:
192,192,93471,1,0,0:0:0:0:
320,192,93557,1,0,0:0:0:0:
192,192,93643,1,0,0:0:0:0:
320,192,93730,1,0,0:0:0:0:
320,192,93816,1,0,0:0:0:0:
448,192,93816,1,0,0:0:0:0:
192,192,93816,1,0,0:0:0:0:
64,192,93816,1,0,0:0:0:0:
64,192,93902,1,0,0:0:0:0:
448,192,93988,1,0,0:0:0:0:
320,192,94074,1,0,0:0:0:0:
64,192,94161,1,0,0:0:0:0:
448,192,94161,1,0,0:0:0:0:
64,192,94247,1,0,0:0:0:0:
64,192,94333,1,0,0:0:0:0:
64,192,94419,1,0,0:0:0:0:
448,192,94505,1,0,0:0:0:0:
192,192,94505,1,0,0:0:0:0:
320,192,94505,1,0,0:0:0:0:
64,192,94505,1,0,0:0:0:0:
448,192,94592,1,0,0:0:0:0:
448,192,94678,1,0,0:0:0:0:
448,192,94764,1,0,0:0:0:0:
192,192,94850,1,0,0:0:0:0:
448,192,94850,1,0,0:0:0:0:
192,192,94936,1,0,0:0:0:0:
192,192,95023,1,0,0:0:0:0:
192,192,95109,1,0,0:0:0:0:
320,192,95195,1,0,0:0:0:0:
64,192,95195,1,0,0:0:0:0:
192,192,95195,1,0,0:0:0:0:
448,192,95195,1,0,0:0:0:0:
320,192,95281,1,0,0:0:0:0:
320,192,95368,1,0,0:0:0:0:
320,192,95454,1,0,0:0:0:0:
320,192,95540,1,0,0:0:0:0:
192,192,95540,1,0,0:0:0:0:
64,192,95626,1,0,0:0:0:0:
320,192,95712,1,0,0:0:0:0:
192,192,95799,1,0,0:0:0:0:
320,192,95885,1,0,0:0:0:0:
448,192,95885,1,0,0:0:0:0:
192,192,95885,1,0,0:0:0:0:
64,192,95885,1,0,0:0:0:0:
320,192,95971,1,0,0:0:0:0:
448,192,96057,1,0,0:0:0:0:
192,192,96143,1,0,0:0:0:0:
64,192,96230,1,0,0:0:0:0:
320,192,96230,1,0,0:0:0:0:
192,192,96316,1,0,0:0:0:0:
320,192,96402,1,0,0:0:0:0:
448,192,96488,1,0,0:0:0:0:
320,192,96574,1,0,0:0:0:0:
192,192,96574,1,0,0:0:0:0:
64,192,96574,1,0,0:0:0:0:
448,192,96574,1,0,0:0:0:0:
64,192,96661,1,0,0:0:0:0:
192,192,96747,1,0,0:0:0:0:
320,192,96833,1,0,0:0:0:0:
64,192,96919,1,0,0:0:0:0:
448,192,96919,1,0,0:0:0:0:
448,192,97005,1,0,0:0:0:0:
448,192,97092,1,0,0:0:0:0:
448,192,97178,1,0,0:0:0:0:
192,192,97264,1,0,0:0:0:0:
448,192,97264,1,0,0:0:0:0:
64,192,97264,1,0,0:0:0:0:
320,192,97264,1,0,0:0:0:0:
64,192,97350,1,0,0:0:0:0:
64,192,97436,1,0,0:0:0:0:
64,192,97523,1,0,0:0:0:0:
64,192,97609,1,0,0:0:0:0:
320,192,97609,1,0,0:0:0:0:
320,192,97695,1,0,0:0:0:0:
320,192,97781,1,0,0:0:0:0:
320,192,97868,1,0,0:0:0:0:
320,192,97954,1,0,0:0:0:0:
64,192,97954,1,0,0:0:0:0:
192,192,97954,1,0,0:0:0:0:
448,192,97954,1,0,0:0:0:0:
192,192,98040,1,0,0:0:0:0:
192,192,98126,1,0,0:0:0:0:
192,192,98212,1,0,0:0:0:0:
320,192,98299,1,0,0:0:0:0:
192,192,98299,1,0,0:0:0:0:
448,192,98385,1,0,0:0:0:0:
320,192,98471,1,0,0:0:0:0:
448,192,98557,1,0,0:0:0:0:
192,192,98643,1,0,0:0:0:0:
320,192,98643,1,0,0:0:0:0:
448,192,98643,1,0,0:0:0:0:
64,192,98643,1,0,0:0:0:0:
192,192,98730,1,0,0:0:0:0:
320,192,98816,1,0,0:0:0:0:
64,192,98902,1,0,0:0:0:0:
320,192,98988,1,0,0:0:0:0:
448,192,98988,1,0,0:0:0:0:
192,192,99074,1,0,0:0:0:0:
320,192,99161,1,0,0:0:0:0:
448,192,99247,1,0,0:0:0:0:
448,192,99333,1,0,0:0:0:0:
320,192,99333,1,0,0:0:0:0:
192,192,99333,1,0,0:0:0:0:
64,192,99333,1,0,0:0:0:0:
192,192,99419,1,0,0:0:0:0:
320,192,99505,1,0,0:0:0:0:
192,192,99592,1,0,0:0:0:0:
64,192,99678,1,0,0:0:0:0:
448,192,99678,1,0,0:0:0:0:
448,192,99764,1,0,0:0:0:0:
448,192,99850,1,0,0:0:0:0:
448,192,99936,1,0,0:0:0:0:
192,192,100023,1,0,0:0:0:0:
320,192,100023,1,0,0:0:0:0:
64,192,100023,1,0,0:0:0:0:
448,192,100023,1,0,0:0:0:0:
64,192,100109,1,0,0:0:0:0:
64,192,100195,1,0,0:0:0:0:
64,192,100281,1,0,0:0:0:0:
320,192,100368,1,0,0:0:0:0:
64,192,100368,1,0,0:0:0:0:
320,192,100454,1,0,0:0:0:0:
320,192,100540,1,0,0:0:0:0:
320,192,100626,1,0,0:0:0:0:
448,192,100712,1,0,0:0:0:0:
192,192,100712,1,0,0:0:0:0:
320,192,100712,1,0,0:0:0:0:
64,192,100712,1,0,0:0:0:0:
192,192,100799,1,0,0:0:0:0:
192,192,100885,1,0,0:0:0:0:
192,192,100971,1,0,0:0:0:0:
192,192,101057,1,0,0:0:0:0:
320,192,101057,1,0,0:0:0:0:
64,192,101316,1,0,0:0:0:0:
448,192,101316,1,0,0:0:0:0:
192,192,101574,1,0,0:0:0:0:
320,192,101574,1,0,0:0:0:0:
64,192,101747,1,0,0:0:0:0:
192,192,101790,1,0,0:0:0:0:
320,192,101833,1,0,0:0:0:0:
448,192,101876,1,0,0:0:0:0:
64,192,101919,1,0,0:0:0:0:
192,192,102005,1,0,0:0:0:0:
320,192,102005,1,0,0:0:0:0:
448,192,102092,1,0,0:0:0:0:
320,192,102135,1,0,0:0:0:0:
192,192,102178,1,0,0:0:0:0:
64,192,102221,1,0,0:0:0:0:
448,192,102264,1,0,0:0:0:0:
192,192,102264,1,0,0:0:0:0:
192,192,102350,1,0,0:0:0:0:
448,192,102436,1,0,0:0:0:0:
320,192,102436,1,0,0:0:0:0:
192,192,102523,1,0,0:0:0:0:
320,192,102609,1,0,0:0:0:0:
64,192,102695,1,0,0:0:0:0:
192,192,102781,1,0,0:0:0:0:
448,192,102868,1,0,0:0:0:0:
320,192,102954,1,0,0:0:0:0:
192,192,103040,1,0,0:0:0:0:
320,192,103126,1,0,0:0:0:0:
448,192,103126,1,0,0:0:0:0:
64,192,103212,1,0,0:0:0:0:
192,192,103299,1,0,0:0:0:0:
448,192,103385,1,0,0:0:0:0:
192,192,103471,1,0,0:0:0:0:
320,192,103471,1,0,0:0:0:0:
64,192,103557,1,0,0:0:0:0:
192,192,103643,1,0,0:0:0:0:
64,192,103730,1,0,0:0:0:0:
320,192,103816,128,0,103988:0:0:0:0:
448,192,103816,128,0,103988:0:0:0:0:
192,192,103988,1,0,0:0:0:0:
64,192,103988,1,0,0:0:0:0:
320,192,104074,1,0,0:0:0:0:
64,192,104074,1,0,0:0:0:0:
192,192,104161,128,0,104333:0:0:0:0:
448,192,104161,128,0,104333:0:0:0:0:
64,192,104333,128,0,104505:0:0:0:0:
320,192,104333,128,0,104505:0:0:0:0:
192,192,104505,1,0,0:0:0:0:
448,192,104505,1,0,0:0:0:0:
320,192,104592,1,0,0:0:0:0:
64,192,104592,1,0,0:0:0:0:
192,192,104678,128,0,104850:0:0:0:0:
320,192,104678,128,0,104850:0:0:0:0:
64,192,104850,1,0,0:0:0:0:
448,192,104850,1,0,0:0:0:0:
192,192,104936,128,0,105109:0:0:0:0:
320,192,104936,128,0,105109:0:0:0:0:
64,192,105109,1,0,0:0:0:0:
448,192,105109,1,0,0:0:0:0:
448,192,105195,1,0,0:0:0:0:
64,192,105195,1,0,0:0:0:0:
192,192,105368,1,0,0:0:0:0:
448,192,105368,1,0,0:0:0:0:
64,192,105454,128,0,105626:0:0:0:0:
320,192,105454,128,0,105626:0:0:0:0:
192,192,105626,1,0,0:0:0:0:
448,192,105626,1,0,0:0:0:0:
320,192,105712,128,0,105885:0:0:0:0:
64,192,105712,128,0,105885:0:0:0:0:
192,192,105885,1,0,0:0:0:0:
448,192,105885,1,0,0:0:0:0:
320,192,105971,1,0,0:0:0:0:
192,192,105971,1,0,0:0:0:0:
64,192,106057,128,0,106230:0:0:0:0:
448,192,106057,128,0,106230:0:0:0:0:
320,192,106230,1,0,0:0:0:0:
192,192,106230,1,0,0:0:0:0:
320,192,106316,1,0,0:0:0:0:
448,192,106316,1,0,0:0:0:0:
64,192,106402,1,0,0:0:0:0:
192,192,106402,1,0,0:0:0:0:
64,192,106488,1,0,0:0:0:0:
320,192,106488,1,0,0:0:0:0:
192,192,106574,128,0,106747:0:0:0:0:
448,192,106574,128,0,106747:0:0:0:0:
320,192,106747,1,0,0:0:0:0:
64,192,106747,1,0,0:0:0:0:
64,192,106919,128,0,107092:0:0:0:0:
320,192,106919,128,0,107092:0:0:0:0:
192,192,107092,128,0,107264:0:0:0:0:
448,192,107092,128,0,107264:0:0:0:0:
64,192,107350,1,0,0:0:0:0:
320,192,107350,1,0,0:0:0:0:
192,192,107436,128,0,107609:0:0:0:0:
448,192,107436,128,0,107609:0:0:0:0:
64,192,107609,1,0,0:0:0:0:
320,192,107609,1,0,0:0:0:0:
192,192,107695,128,0,107868:0:0:0:0:
448,192,107695,128,0,107868:0:0:0:0:
320,192,107868,1,0,0:0:0:0:
64,192,107868,1,0,0:0:0:0:
448,192,108040,1,0,0:0:0:0:
192,192,108040,1,0,0:0:0:0:
192,192,108126,1,0,0:0:0:0:
64,192,108126,1,0,0:0:0:0:
320,192,108212,1,0,0:0:0:0:
448,192,108212,1,0,0:0:0:0:
448,192,108299,128,0,108471:0:0:0:0:
64,192,108299,128,0,108471:0:0:0:0:
192,192,108471,128,0,108643:0:0:0:0:
64,192,108730,1,0,0:0:0:0:
320,192,108730,1,0,0:0:0:0:
64,192,108816,128,0,108988:0:0:0:0:
320,192,108816,128,0,108988:0:0:0:0:
192,192,108988,1,0,0:0:0:0:
448,192,108988,1,0,0:0:0:0:
192,192,109074,128,0,109247:0:0:0:0:
448,192,109074,128,0,109247:0:0:0:0:
320,192,109247,1,0,0:0:0:0:
64,192,109247,1,0,0:0:0:0:
192,192,109419,1,0,0:0:0:0:
320,192,109419,1,0,0:0:0:0:
320,192,109505,1,0,0:0:0:0:
192,192,109505,1,0,0:0:0:0:
192,192,109592,1,0,0:0:0:0:
64,192,109592,1,0,0:0:0:0:
448,192,109678,128,0,109850:0:0:0:0:
64,192,109678,128,0,109850:0:0:0:0:
320,192,109850,128,0,110023:0:0:0:0:
320,192,110109,1,0,0:0:0:0:
192,192,110109,1,0,0:0:0:0:
192,192,110195,128,0,110368:0:0:0:0:
64,192,110195,128,0,110368:0:0:0:0:
448,192,110368,1,0,0:0:0:0:
320,192,110368,1,0,0:0:0:0:
64,192,110454,128,0,110626:0:0:0:0:
192,192,110454,128,0,110626:0:0:0:0:
320,192,110626,1,0,0:0:0:0:
448,192,110626,1,0,0:0:0:0:
320,192,110712,128,0,110885:0:0:0:0:
448,192,110712,128,0,110885:0:0:0:0:
192,192,110885,1,0,0:0:0:0:
64,192,110885,1,0,0:0:0:0:
64,192,111057,128,0,111230:0:0:0:0:
192,192,111057,128,0,111230:0:0:0:0:
320,192,111230,128,0,111402:0:0:0:0:
448,192,111230,128,0,111402:0:0:0:0:
192,192,111402,128,0,111574:0:0:0:0:
64,192,111574,128,0,111747:0:0:0:0:
192,192,111747,1,0,0:0:0:0:
448,192,111747,1,0,0:0:0:0:
64,192,111833,128,0,112005:0:0:0:0:
320,192,111833,128,0,112005:0:0:0:0:
192,192,112005,1,0,0:0:0:0:
448,192,112005,1,0,0:0:0:0:
64,192,112092,128,0,112264:0:0:0:0:
320,192,112092,128,0,112264:0:0:0:0:
192,192,112350,1,0,0:0:0:0:
448,192,112350,1,0,0:0:0:0:
448,192,112436,1,0,0:0:0:0:
192,192,112436,1,0,0:0:0:0:
320,192,112609,128,0,112781:0:0:0:0:
64,192,112609,128,0,112781:0:0:0:0:
448,192,112609,128,0,112781:0:0:0:0:
192,192,112781,128,0,113126:0:0:0:0:
448,192,112954,1,0,0:0:0:0:
320,192,112997,1,0,0:0:0:0:
64,192,113040,1,0,0:0:0:0:
448,192,113083,1,0,0:0:0:0:
192,192,113299,1,0,0:0:0:0:
320,192,113385,1,0,0:0:0:0:
