osu file format v14

[General]
AudioFilename: audio.mp3
AudioLeadIn: 0
PreviewTime: 77565
Countdown: 0
SampleSet: Soft
StackLeniency: 0.3
Mode: 0
LetterboxInBreaks: 0
WidescreenStoryboard: 1

[Editor]
Bookmarks: 324,3082,14117,25151,36186,47220,58255,69289,77565,80324,91358,102392
DistanceSpacing: 2.1
BeatDivisor: 8
GridSize: 16
TimelineZoom: 4.399999

[Metadata]
Title:polygon
TitleUnicode:polygon
Artist:Sota Fujimori
ArtistUnicode:Sota Fujimori
Creator:Kaifin
Version:unhinged
Source:jubeat copious
Tags:REFLEC BEAT colette autumn fanzhen0019 bonzi revurii xlolicore-
BeatmapID:1182462
BeatmapSetID:559097

[Difficulty]
HPDrainRate:8
CircleSize:4
OverallDifficulty:9.5
ApproachRate:9.7
SliderMultiplier:2
SliderTickRate:1

[Events]
//Background and Video events
0,0,"polygonbg1080.png",0,0
//Break Periods
//Storyboard Layer 0 (Background)
//Storyboard Layer 1 (Fail)
//Storyboard Layer 2 (Pass)
//Storyboard Layer 3 (Foreground)
//Storyboard Sound Samples

[TimingPoints]
324,344.827586206897,4,3,0,70,1,0
2392,-100,4,2,0,50,0,0
2565,-100,4,3,0,70,0,0
2737,-100,4,3,2,50,0,0
3082,-66.6666666666667,4,2,1,70,0,0
3599,-100,4,2,1,70,0,0
4289,-66.6666666666667,4,2,1,70,0,0
6358,-100,4,2,1,70,0,0
7048,-66.6666666666667,4,2,1,70,0,0
9117,-100,4,2,1,70,0,0
9806,-66.6666666666667,4,2,1,70,0,0
11875,-100,4,2,1,70,0,0
13427,-133.333333333333,4,2,1,70,0,0
14117,-200,4,2,1,70,0,0
14461,-80,4,2,1,70,0,0
14806,-57.1428571428571,4,2,1,70,0,0
16875,-200,4,2,1,70,0,0
17220,-80,4,2,1,70,0,0
17565,-57.1428571428571,4,2,1,70,0,0
19634,-200,4,2,1,70,0,0
19979,-80,4,2,1,70,0,0
20324,-57.1428571428571,4,2,1,70,0,0
20496,-57.1428571428571,4,2,0,70,0,0
20582,-57.1428571428571,4,2,1,70,0,0
20841,-57.1428571428571,4,2,0,70,0,0
20927,-57.1428571428571,4,2,1,70,0,0
21186,-57.1428571428571,4,2,0,70,0,0
21272,-57.1428571428571,4,2,1,70,0,0
21530,-57.1428571428571,4,2,0,70,0,0
21617,-57.1428571428571,4,2,1,70,0,0
22392,-200,4,2,1,70,0,0
22479,-200,4,2,0,70,0,0
22737,-80,4,2,0,70,0,0
23082,-57.1428571428571,4,2,1,70,0,0
23168,-57.1428571428571,4,2,0,70,0,0
23513,-57.1428571428571,4,2,1,70,0,0
25496,-80,4,2,1,70,0,0
26617,-57.1428571428571,4,2,1,70,0,0
26875,-80,4,2,1,70,0,0
27910,-133.333333333333,4,2,1,70,0,0
30755,-57.1428571428571,4,2,1,70,0,0
31013,-80,4,2,1,70,0,0
32134,-57.1428571428571,4,2,1,70,0,0
32392,-80,4,2,1,70,0,0
33427,-100,4,2,1,70,0,0
35496,-100,4,2,1,40,0,0
35668,-100,4,2,1,55,0,0
35755,-100,4,2,1,70,0,0
36186,-57.1428571428571,4,2,1,70,0,0
37048,-57.1428571428571,4,2,1,70,0,0
38944,-57.1428571428571,4,2,1,70,0,0
39806,-57.1428571428571,4,2,8,70,0,0
39979,-57.1428571428571,4,2,1,70,0,0
40065,-57.1428571428571,4,2,8,70,0,0
40324,-57.1428571428571,4,2,1,70,0,0
40410,-57.1428571428571,4,2,8,70,0,0
40668,-57.1428571428571,4,2,1,70,0,0
40841,-57.1428571428571,4,2,8,70,0,0
41013,-57.1428571428571,4,2,1,70,0,0
42479,-57.1428571428571,4,2,8,70,0,0
42651,-57.1428571428571,4,2,1,70,0,0
42824,-57.1428571428571,4,2,8,70,0,0
43082,-57.1428571428571,4,2,1,70,0,0
43168,-57.1428571428571,4,2,8,70,0,0
43427,-57.1428571428571,4,2,1,70,0,0
43513,-57.1428571428571,4,2,8,70,0,0
44117,-57.1428571428571,4,2,1,70,0,0
45237,-57.1428571428571,4,2,8,70,0,0
45410,-57.1428571428571,4,2,1,70,0,0
45582,-57.1428571428571,4,2,8,70,0,0
45755,-57.1428571428571,4,2,1,70,0,0
47220,-133.333333333333,4,2,1,70,0,0
49375,-133.333333333333,4,2,8,70,0,0
49634,-133.333333333333,4,2,1,70,0,0
49720,-133.333333333333,4,2,8,70,0,0
49979,-133.333333333333,4,2,1,70,0,0
52134,-133.333333333333,4,2,8,70,0,0
52565,-133.333333333333,4,2,1,70,0,0
53772,-66.6666666666667,4,2,1,70,0,0
54892,-66.6666666666667,4,2,8,70,0,0
55151,-66.6666666666667,4,2,1,70,0,0
55237,-66.6666666666667,4,2,8,70,0,0
55496,-133.333333333333,4,2,1,70,0,0
57910,-66.6666666666667,4,2,1,70,0,0
58599,-100,4,2,1,70,0,0
58944,-80,4,2,1,70,0,0
59289,-66.6666666666667,4,2,1,70,0,0
59634,-133.333333333333,4,2,1,70,0,0
59677,-133.333333333333,4,2,1,70,0,0
59720,-133.333333333333,4,2,1,70,0,0
59763,-133.333333333333,4,2,1,70,0,0
59806,-66.6666666666667,4,2,1,70,0,0
64117,-100,4,2,1,70,0,0
64461,-80,4,2,1,70,0,0
64806,-66.6666666666667,4,2,1,70,0,0
65151,-133.333333333333,4,2,1,70,0,0
65324,-66.6666666666667,4,2,1,70,0,0
66530,-50,4,2,1,70,0,0
68599,-50,4,2,1,50,0,0
68944,-50,4,2,1,70,0,0
69289,-200,4,2,8,40,0,0
78255,-133.333333333333,4,2,8,40,0,0
79720,-133.333333333333,4,2,1,75,0,0
80324,-133.333333333333,4,2,1,75,0,1
80841,-66.6666666666667,4,2,1,75,0,1
81703,-61.9195046439628,4,2,1,75,0,1
81961,-66.6666666666667,4,2,1,75,0,1
83082,-66.6666666666667,4,2,1,75,0,1
84461,-66.6666666666667,4,2,1,75,0,1
85496,-66.6666666666667,4,2,1,75,0,1
87220,-66.6666666666667,4,2,1,75,0,1
88599,-66.6666666666667,4,2,1,75,0,1
89979,-66.6666666666667,4,2,1,75,0,1
90841,-66.6666666666667,4,2,1,75,0,1
92737,-66.6666666666667,4,2,1,75,0,1
93255,-100,4,2,1,75,0,1
93427,-80,4,2,1,75,0,1
93772,-66.6666666666667,4,2,1,75,0,1
94117,-66.6666666666667,4,2,1,75,0,1
95496,-66.6666666666667,4,2,1,75,0,1
96703,-66.6666666666667,4,2,1,75,0,1
98255,-66.6666666666667,4,2,1,75,0,1
99634,-66.6666666666667,4,2,1,75,0,1
102392,-100,4,2,1,70,0,0
112737,-66.6666666666667,4,2,1,70,0,0

[Colours]
Combo1 : 255,136,255
Combo2 : 255,155,106
Combo3 : 100,170,255
Combo4 : 243,56,84

[HitObjects]
157,291,324,5,0,0:0:0:0:
181,287,410,1,0,0:0:0:0:
217,303,496,5,2,2:0:0:0:
241,299,582,1,0,0:0:0:0:
90,378,755,5,0,0:0:0:0:
114,374,841,1,0,0:0:0:0:
18,199,1013,6,0,P|50:188|79:185,1,50,0|0,2:0|0:0,0:0:0:0:
159,212,1186,2,0,P|183:207|206:198,1,50,2|0,2:0|0:0,0:0:0:0:
278,128,1358,5,2,0:0:0:0:
68,280,1530,1,0,0:0:0:0:
2,28,1703,6,0,L|175:10,1,150,0|0,0:0|0:0,0:0:0:0:
151,129,2048,6,0,B|93:103|93:103|56:213,1,150,2|0,0:0|0:0,0:0:0:0:
133,228,2392,5,0,0:0:0:0:
208,218,2479,1,0,0:0:0:0:
300,240,2565,5,2,0:0:0:0:
375,230,2651,1,0,0:0:0:0:
467,252,2737,6,0,B|472:207|472:207|444:159|444:159|450:93,1,150,8|4,0:0|0:0,0:0:0:0:
300,240,3082,6,0,L|289:341,1,75.0000028610231,6|0,0:0|0:0,0:0:0:0:
453,115,3255,1,0,0:0:0:0:
453,115,3341,2,0,L|464:14,1,75.0000028610231,0|8,0:0|0:0,0:0:0:0:
459,328,3513,1,0,0:0:0:0:
459,328,3599,6,0,P|452:308|488:328,1,100,0|2,0:0|0:0,0:0:0:0:
394,172,3858,2,0,P|383:210|362:176,1,100
222,292,4117,5,8,0:0:0:0:
145,346,4203,1,0,0:0:0:0:
64,279,4289,2,0,L|53:380,1,75.0000028610231,2|0,0:1|0:0,0:0:0:0:
19,218,4461,6,0,P|76:204|114:220,1,75.0000028610231,2|0,3:1|0:0,0:0:0:0:
226,76,4634,1,0,0:0:0:0:
226,76,4720,2,0,P|169:90|84:52,1,150.000005722046
244,156,4979,1,0,0:0:0:0:
298,35,5151,5,2,0:0:0:0:
304,56,5237,1,0,0:0:0:0:
305,78,5324,1,0,0:0:0:0:
302,100,5410,1,0,0:0:0:0:
244,156,5496,6,0,B|314:196|314:196|431:71,1,225.000008583069,8|0,0:0|0:0,0:0:0:0:
481,36,5841,6,0,P|500:90|492:128,1,75.0000028610231,2|0,0:0|0:0,0:0:0:0:
271,323,6013,1,0,0:0:0:0:
271,323,6099,2,0,P|252:269|260:231,1,75.0000028610231,0|8,0:0|0:0,0:0:0:0:
417,95,6272,1,0,0:0:0:0:
417,95,6358,6,0,B|381:59|381:59|344:91,1,100,0|2,0:0|0:0,0:0:0:0:
308,161,6617,2,0,B|344:197|344:197|380:164,1,100
364,308,6875,5,8,0:0:0:0:
271,323,6961,1,0,0:0:0:0:
179,263,7048,2,0,L|275:248,1,75.0000028610231,2|0,0:1|0:0,0:0:0:0:
114,357,7220,6,0,L|18:342,1,75.0000028610231,2|0,3:1|0:0,0:0:0:0:
179,263,7392,1,0,0:0:0:0:
179,263,7479,2,0,L|347:236,1,150.000005722046
197,335,7737,1,0,0:0:0:0:
35,158,7910,5,2,0:0:0:0:
72,154,7996,1,0,0:0:0:0:
109,150,8082,1,0,0:0:0:0:
413,291,8255,5,8,0:0:0:0:
358,184,8341,1,0,0:0:0:0:
253,252,8427,2,0,L|327:263,1,75.0000028610231,0|8,0:0|0:0,0:0:0:0:
501,360,8599,6,0,L|427:371,1,75.0000028610231,2|0,0:0|0:0,0:0:0:0:
512,160,8772,1,0,0:0:0:0:
512,160,8858,2,0,L|438:171,1,75.0000028610231,0|8,0:0|0:0,0:0:0:0:
182,353,9030,1,0,0:0:0:0:
182,353,9117,6,0,L|280:337,1,100,0|2,0:0|0:0,0:0:0:0:
61,286,9375,2,0,L|159:270,1,100
15,210,9634,5,8,0:0:0:0:
61,286,9720,1,0,0:0:0:0:
6,380,9806,2,0,L|80:368,1,75.0000028610231,2|0,0:1|0:0,0:0:0:0:
280,337,9979,6,0,L|202:350,1,75.0000028610231,2|0,3:1|0:0,0:0:0:0:
400,227,10151,1,0,0:0:0:0:
400,227,10237,2,0,L|244:253,1,150.000005722046
479,113,10496,1,0,0:0:0:0:
506,368,10668,5,2,0:0:0:0:
483,363,10755,1,0,0:0:0:0:
461,358,10841,1,0,0:0:0:0:
439,352,10927,1,0,0:0:0:0:
357,356,11013,6,0,P|382:258|489:304,1,225.000008583069,8|0,0:0|0:0,0:0:0:0:
492,187,11358,6,0,L|472:72,1,75.0000028610231,2|0,0:0|0:0,0:0:0:0:
262,278,11530,1,0,0:0:0:0:
262,278,11617,2,0,L|282:393,1,75.0000028610231,0|8,0:0|0:0,0:0:0:0:
387,173,11789,1,0,0:0:0:0:
387,173,11875,6,0,P|344:155|344:203,1,100,0|2,0:0|0:0,0:0:0:0:
373,45,12134,2,0,P|416:63|416:15,1,100,0|0,0:0|0:0,0:0:0:0:
191,85,12392,5,8,0:0:0:0:
176,164,12479,1,0,0:0:0:0:
247,199,12565,5,0,0:0:0:0:
262,278,12652,1,8,0:0:0:0:
158,345,12737,5,4,0:0:0:0:
158,345,12996,5,4,0:0:0:0:
158,345,13255,5,4,0:0:0:0:
158,345,13513,5,0,0:0:0:0:
231,297,13599,2,0,L|225:245,1,37.5000014305115,2|2,0:0|0:0,0:0:0:0:
117,194,13772,5,2,0:0:0:0:
61,209,13858,1,2,0:0:0:0:
6,224,13944,1,2,0:0:0:0:
105,104,14117,6,0,P|136:91|152:122,1,75,6|0,0:0|0:0,0:0:0:0:
209,59,14461,6,0,B|160:11|160:11|15:43,1,187.5,8|0,0:0|0:0,0:0:0:0:
265,112,14806,6,0,P|283:72|268:5,1,87.500000834465,2|0,0:0|0:0,0:0:0:0:
43,36,14979,2,0,P|25:76|40:143,1,87.500000834465
265,112,15151,6,0,P|283:72|269:5,1,87.500000834465,8|0,0:0|0:0,0:0:0:0:
43,36,15324,2,0,P|24:76|41:142,1,87.500000834465
315,204,15496,6,0,L|171:192,1,87.500000834465,2|0,0:0|0:0,0:0:0:0:
80,260,15668,2,0,L|167:267,1,87.500000834465,0|0,0:0|0:0,0:0:0:0:
298,352,15841,5,8,0:0:0:0:
349,340,15927,1,0,0:0:0:0:
401,278,16013,5,0,0:0:0:0:
452,290,16099,1,0,0:0:0:0:
507,355,16186,5,2,0:0:0:0:
262,111,16358,1,0,0:0:0:0:
167,267,16530,5,8,0:0:0:0:
227,196,16617,1,0,0:0:0:0:
94,218,16703,2,0,P|77:266|82:313,1,87.500000834465,2|0,0:0|0:0,0:0:0:0:
288,248,16875,6,0,P|305:200|300:160,1,75,2|0,0:0|0:0,0:0:0:0:
177,61,17220,6,0,B|232:58|232:58|297:97|297:97|353:91,1,187.5,8|0,0:0|0:0,0:0:0:0:
119,116,17565,6,0,P|102:68|107:21,1,87.500000834465,2|0,0:0|0:0,0:0:0:0:
417,39,17737,2,0,P|434:87|429:134,1,87.500000834465
119,116,17910,6,0,P|102:66|108:19,1,87.500000834465,8|0,0:0|0:0,0:0:0:0:
417,39,18082,2,0,P|434:87|430:134,1,87.500000834465
243,274,18255,6,0,L|254:153,1,87.500000834465,2|0,0:0|0:0,0:0:0:0:
345,153,18427,2,0,L|334:274,1,87.500000834465,0|0,0:0|0:0,0:0:0:0:
155,308,18599,6,0,L|166:187,1,87.500000834465,8|0,0:0|0:0,0:0:0:0:
432,122,18772,2,0,L|421:243,1,87.500000834465,2|0,0:0|0:0,0:0:0:0:
503,364,18944,5,2,0:0:0:0:
468,356,19030,1,0,0:0:0:0:
433,348,19117,1,0,0:0:0:0:
328,320,19289,1,8,0:0:0:0:
232,360,19461,1,2,0:0:0:0:
36,257,19634,6,0,B|67:237|67:237|82:271,1,75,6|0,0:0|0:0,0:0:0:0:
144,231,19979,6,0,P|88:165|-3:200,1,187.5,8|0,0:0|0:0,0:0:0:0:
52,81,20324,6,0,L|172:57,1,87.500000834465,2|0,0:0|0:0,0:0:0:0:
411,299,20496,2,0,L|291:275,1,87.500000834465,2|0,0:0|0:0,0:0:0:0:
235,132,20668,6,0,P|224:176|229:220,1,87.500000834465,8|0,0:0|0:0,0:0:0:0:
313,184,20841,2,0,P|324:140|319:96,1,87.500000834465,0|0,0:0|0:0,0:0:0:0:
52,81,21013,6,0,L|172:57,1,87.500000834465,2|0,0:0|0:0,0:0:0:0:
411,299,21185,2,0,L|291:275,1,87.500000834465,2|0,0:0|0:0,0:0:0:0:
90,193,21358,5,8,0:0:0:0:
123,184,21444,1,0,0:0:0:0:
195,226,21530,5,2,0:0:0:0:
228,217,21616,1,0,0:0:0:0:
293,162,21703,5,2,0:0:0:0:
68,361,21875,1,0,0:0:0:0:
137,63,22048,5,8,0:0:0:0:
279,76,22134,1,0,0:0:0:0:
227,216,22220,2,0,L|211:131,1,87.500000834465,2|0,0:0|0:0,0:0:0:0:
137,63,22392,6,0,L|122:136,1,75,2|0,0:0|0:0,0:0:0:0:
326,170,22737,6,0,P|291:96|208:136,1,187.5,0|0,0:0|0:0,0:0:0:0:
383,219,23082,6,0,P|402:170|396:123,1,87.500000834465,2|0,0:0|0:0,0:0:0:0:
372,67,23255,2,0,P|332:32|286:21,1,87.500000834465,2|0,0:0|0:0,0:0:0:0:
210,130,23427,6,0,P|202:172|212:214,1,87.500000834465,2|0,0:0|0:0,0:0:0:0:
256,273,23600,2,0,P|293:295|336:299,1,87.500000834465,2|0,0:0|0:0,0:0:0:0:
234,56,23772,5,0,0:0:0:0:
48,313,23944,5,2,0:0:0:0:
73,308,24030,1,0,0:0:0:0:
99,303,24117,1,2,3:0:0:0:
124,298,24203,1,0,3:0:0:0:
193,343,24289,5,0,3:0:0:0:
86,100,24461,5,6,0:0:0:0:
26,318,24634,5,6,0:0:0:0:
437,237,24806,5,6,0:0:0:0:
437,237,25151,5,4,0:0:0:0:
482,336,25237,2,0,L|347:309,1,87.500000834465,0|0,0:0|0:0,0:0:0:0:
309,296,25410,1,0,0:0:0:0:
437,237,25496,6,0,L|342:218,1,62.5,8|0,0:0|0:0,0:0:0:0:
181,380,25668,2,0,L|276:361,1,62.5,0|0,3:0|3:0,0:0:0:0:
231,196,25841,5,0,0:0:0:0:
231,196,25927,1,0,3:0:0:0:
231,196,26013,1,0,3:0:0:0:
69,365,26186,5,8,0:0:0:0:
123,45,26358,5,0,0:0:0:0:
147,135,26444,1,0,0:0:0:0:
54,109,26530,5,2,0:0:0:0:
123,45,26617,2,0,L|258:72,1,87.500000834465,0|0,0:0|0:0,0:0:0:0:
44,24,26789,1,0,0:0:0:0:
269,23,26875,6,0,P|281:63|273:97,1,62.5,8|0,0:0|0:0,0:0:0:0:
156,194,27048,2,0,P|144:154|152:120,1,62.5,0|0,3:0|0:0,0:0:0:0:
286,195,27220,5,0,0:0:0:0:
328,202,27306,1,0,3:0:0:0:
370,210,27392,1,0,0:0:0:0:
413,219,27479,1,0,3:0:0:0:
455,229,27565,5,8,0:0:0:0:
399,179,27651,1,0,0:0:0:0:
328,202,27737,1,0,0:0:0:0:
310,276,27824,1,0,0:0:0:0:
382,337,27910,6,0,L|481:317,1,75.0000028610231,2|0,0:0|0:0,0:0:0:0:
310,276,28168,2,0,L|220:258,1,75.0000028610231
455,229,28427,1,0,0:0:0:0:
153,142,28599,5,0,3:0:0:0:
147,187,28686,1,0,0:0:0:0:
141,232,28772,1,0,3:0:0:0:
382,337,28944,5,8,0:0:0:0:
243,154,29117,5,0,0:0:0:0:
153,142,29203,1,0,0:0:0:0:
63,130,29289,5,2,2:0:0:0:
51,220,29375,1,8,0:0:0:0:
382,337,29548,5,2,2:0:0:0:
370,247,29634,1,8,0:0:0:0:
63,130,29806,6,0,L|57:167,1,37.5000014305115,8|0,2:0|2:0,2:0:0:0:
202,361,29979,5,0,0:0:0:0:
292,349,30065,1,8,0:0:0:0:
382,337,30151,6,0,L|376:299,1,37.5000014305115,8|0,2:0|2:0,2:0:0:0:
41,282,30324,5,8,0:0:0:0:
436,160,30496,1,2,0:0:0:0:
270,91,30668,5,6,0:0:0:0:
343,172,30755,2,0,L|365:54,1,87.500000834465,0|0,0:0|0:0,0:0:0:0:
377,8,30927,1,0,0:0:0:0:
270,91,31013,6,0,L|255:176,1,62.5,8|0,0:0|0:0,0:0:0:0:
425,221,31186,2,0,L|440:136,1,62.5,0|0,0:0|0:0,0:0:0:0:
235,274,31358,5,0,3:0:0:0:
235,274,31444,1,0,3:0:0:0:
235,274,31530,1,0,3:0:0:0:
452,67,31703,5,8,0:0:0:0:
423,342,31875,5,0,3:0:0:0:
344,297,31961,1,0,0:0:0:0:
419,253,32048,5,0,3:0:0:0:
329,211,32134,2,0,L|346:308,1,87.500000834465,0|0,3:0|3:0,0:0:0:0:
423,342,32306,1,0,0:0:0:0:
285,148,32392,6,0,P|315:138|346:137,1,62.5,8|0,0:0|0:0,0:0:0:0:
483,330,32565,2,0,P|453:340|422:341,1,62.5,0|0,3:0|3:0,0:0:0:0:
221,291,32737,5,0,3:0:0:0:
210,284,32824,1,0,3:0:0:0:
198,279,32910,1,0,3:0:0:0:
185,276,32996,1,0,3:0:0:0:
130,263,33082,5,8,0:0:0:0:
185,258,33168,1,0,0:0:0:0:
241,250,33255,1,0,3:3:0:0:
296,243,33341,1,0,3:3:0:0:
397,199,33427,6,0,P|396:168|347:191,1,100,0|0,3:0|0:0,0:0:0:0:
432,314,33686,2,0,P|446:354|482:330,1,100,0|0,0:0|0:0,0:0:0:0:
365,80,33944,6,0,L|282:69,1,50,0|0,3:0|3:0,0:0:0:0:
491,170,34117,5,0,3:0:0:0:
502,131,34203,1,0,0:0:0:0:
512,92,34289,1,0,3:0:0:0:
343,352,34461,5,8,0:0:0:0:
243,200,34634,5,0,3:0:0:0:
211,284,34720,1,8,3:0:0:0:
104,177,34806,6,0,L|187:166,1,50,4|0,0:0|0:0,0:0:0:0:
315,73,34979,5,0,0:0:0:0:
356,204,35065,1,4,0:0:0:0:
329,57,35237,5,0,0:0:0:0:
300,284,35324,1,4,0:0:0:0:
256,192,35410,12,2,36013,0:0:0:0:
153,170,36186,6,0,P|191:146|233:146,1,87.500000834465,4|0,0:0|0:0,0:0:0:0:
298,216,36358,1,0,0:0:0:0:
199,68,36444,1,0,0:0:0:0:
101,233,36530,6,0,L|93:352,1,87.500000834465,8|0,0:0|0:0,0:0:0:0:
307,116,36703,2,0,L|315:-3,1,87.500000834465
481,317,36875,6,0,B|421:281|421:281|299:366,1,175.00000166893,2|0,0:0|0:0,0:0:0:0:
383,173,37134,2,0,P|447:135|487:225,1,175.00000166893
481,317,37392,6,0,B|421:281|421:281|299:366,1,175.00000166893,0|2,0:0|0:0,0:0:0:0:
383,173,37651,2,0,P|447:135|487:225,1,175.00000166893
428,371,37910,6,0,L|236:342,1,175.00000166893,8|0,0:0|0:0,0:0:0:0:
21,242,38168,2,0,L|213:213,1,175.00000166893,0|0,0:0|0:0,0:0:0:0:
124,147,38427,5,2,3:0:0:0:
79,309,38513,1,0,0:0:0:0:
134,125,38686,5,2,3:0:0:0:
192,383,38772,1,0,3:0:0:0:
489,160,38944,6,0,P|451:136|409:136,1,87.500000834465,2|0,0:0|0:0,0:0:0:0:
300,201,39117,1,0,0:0:0:0:
300,201,39203,2,0,P|338:225|380:225,1,87.500000834465,0|8,0:0|0:0,0:0:0:0:
246,122,39375,1,0,0:0:0:0:
205,310,39461,1,0,0:0:0:0:
154,31,39634,5,2,0:0:0:0:
285,356,39806,1,0,0:0:0:0:
35,165,39979,5,8,0:0:0:0:
344,64,40151,2,0,L|370:197,1,87.500000834465,0|0,0:0|0:0,0:0:0:0:
285,356,40324,1,2,0:0:0:0:
205,310,40410,2,0,L|179:177,1,87.500000834465,2|0,0:0|0:0,0:0:0:0:
379,225,40582,5,2,0:0:0:0:
459,271,40668,2,0,L|485:404,1,87.500000834465,8|0,0:0|0:0,0:0:0:0:
311,282,40841,2,0,L|285:149,1,87.500000834465,2|0,0:0|0:0,0:0:0:0:
509,87,41013,5,2,0:0:0:0:
405,68,41099,1,0,0:0:0:0:
300,51,41186,1,2,0:0:0:0:
509,87,41358,5,8,0:0:0:0:
300,51,41530,1,2,0:0:0:0:
509,87,41703,6,0,P|517:137|496:199,1,87.500000834465,4|0,0:0|0:0,0:0:0:0:
322,282,41875,1,0,0:0:0:0:
261,226,41961,2,0,P|270:176|311:125,1,87.500000834465,0|8,0:0|0:0,0:0:0:0:
475,356,42134,5,0,0:0:0:0:
322,282,42220,2,0,L|311:369,1,87.500000834465
509,172,42392,5,2,0:0:0:0:
174,64,42565,1,2,0:0:0:0:
509,172,42737,1,8,0:0:0:0:
59,294,42910,6,0,L|257:272,1,175.00000166893,2|2,0:0|0:0,0:0:0:0:
383,215,43168,2,0,L|185:193,1,175.00000166893,2|0,0:0|0:0,0:0:0:0:
311,368,43427,6,0,L|410:357,1,87.500000834465,10|0,0:0|0:0,0:0:0:0:
187,119,43599,2,0,L|-11:97,1,175.00000166893,0|2,0:0|0:0,0:0:0:0:
198,96,43944,5,2,0:3:0:0:
233,275,44030,1,0,0:0:0:0:
208,74,44203,5,0,0:0:0:0:
147,319,44289,1,2,0:3:0:0:
431,107,44461,6,0,L|294:88,1,87.500000834465,2|0,0:0|0:0,0:0:0:0:
376,184,44634,1,0,0:0:0:0:
486,30,44720,1,0,0:0:0:0:
253,2,44806,6,0,P|220:39|208:75,1,87.500000834465,8|0,0:0|0:0,0:0:0:0:
416,262,44979,2,0,P|448:224|460:188,1,87.500000834465,0|0,0:0|0:0,0:0:0:0:
208,74,45151,6,0,P|215:122|235:155,1,87.500000834465,2|0,0:0|0:0,0:0:0:0:
459,188,45324,2,0,P|451:139|431:106,1,87.500000834465,2|0,0:0|0:0,0:0:0:0:
244,374,45496,5,8,0:0:0:0:
244,374,45668,1,2,0:0:0:0:
431,107,45841,5,2,3:0:0:0:
459,188,45927,1,0,0:0:0:0:
244,374,46099,5,0,3:0:0:0:
216,293,46186,1,2,3:0:0:0:
443,278,46358,5,0,3:0:0:0:
444,278,46444,2,0,L|487:268,2,43.7500004172325,0|0|2,0:0|0:0|3:0,0:0:0:0:
28,237,46703,5,2,0:0:0:0:
447,130,46875,1,4,0:0:0:0:
447,130,47220,6,0,P|408:124|403:158,1,75.0000028610231,4|0,0:0|3:0,0:0:0:0:
294,78,47479,1,0,0:0:0:0:
294,78,47565,2,0,P|333:84|338:50,1,75.0000028610231,0|0,0:0|0:0,0:0:0:0:
419,37,47824,1,0,0:0:0:0:
495,20,47910,5,2,0:0:0:0:
322,174,48082,1,0,3:0:0:0:
447,130,48255,5,0,0:0:0:0:
471,204,48341,1,0,0:0:0:0:
193,357,48513,1,2,0:0:0:0:
217,283,48599,6,0,L|292:273,1,75.0000028610231,2|0,0:0|0:3,0:0:0:0:
52,233,48858,1,0,0:0:0:0:
52,233,48944,2,0,L|127:223,1,75.0000028610231,2|0,0:0|0:3,0:0:0:0:
339,55,49289,5,2,0:0:0:0:
326,61,49375,1,0,0:0:0:0:
312,64,49461,1,2,0:0:0:0:
297,64,49548,1,2,0:0:0:0:
210,38,49634,5,2,0:0:0:0:
217,72,49720,1,0,0:0:0:0:
224,105,49806,1,0,0:0:0:0:
232,138,49892,1,2,0:0:0:0:
302,185,49979,5,2,0:0:0:0:
0,155,50151,1,0,3:0:0:0:
73,139,50237,1,0,0:0:0:0:
147,123,50324,5,0,0:0:0:0:
60,343,50496,1,0,0:0:0:0:
0,235,50668,5,0,3:0:0:0:
73,219,50754,1,0,0:0:0:0:
147,203,50841,1,0,3:0:0:0:
298,321,51013,5,0,0:0:0:0:
225,303,51100,1,0,0:0:0:0:
415,232,51272,1,2,0:0:0:0:
484,197,51358,6,0,L|467:110,1,75.0000028610231,2|0,0:0|0:0,0:0:0:0:
429,305,51617,1,0,0:0:0:0:
429,305,51703,2,0,L|412:218,1,75.0000028610231,2|0,0:0|0:0,0:0:0:0:
318,123,51961,1,0,0:0:0:0:
272,195,52048,5,2,0:0:0:0:
253,191,52134,1,0,0:0:0:0:
234,187,52220,1,0,3:0:0:0:
215,183,52306,1,0,0:0:0:0:
166,252,52392,5,0,3:0:0:0:
361,45,52565,1,2,3:0:0:0:
278,51,52651,1,0,0:0:0:0:
192,59,52737,6,0,P|146:27|116:97,1,150.000005722046,2|0,0:0|0:0,0:0:0:0:
421,268,53255,1,0,0:0:0:0:
426,227,53341,1,0,0:0:0:0:
432,186,53427,1,2,3:0:0:0:
438,145,53513,1,0,0:0:0:0:
444,104,53599,1,0,3:0:0:0:
455,338,53772,6,0,P|424:345|374:330,1,75.0000028610231,0|0,0:0|0:0,0:0:0:0:
297,268,53944,2,0,P|261:258|224:265,1,75.0000028610231,2|2,0:0|0:0,0:0:0:0:
133,354,54117,6,0,L|117:240,1,75.0000028610231,0|0,3:0|0:0,0:0:0:0:
110,199,54289,1,0,0:0:0:0:
45,327,54375,1,0,0:0:0:0:
20,244,54461,5,2,0:0:0:0:
247,100,54634,1,0,3:0:0:0:
242,141,54720,1,0,0:0:0:0:
236,182,54806,1,2,0:0:0:0:
230,223,54892,1,0,0:0:0:0:
224,264,54978,1,0,0:0:0:0:
70,35,55151,5,2,0:0:0:0:
88,115,55237,1,0,0:0:0:0:
381,298,55410,1,0,0:0:0:0:
363,218,55496,6,0,P|330:210|320:257,1,75.0000028610231,2|0,0:0|3:0,0:0:0:0:
409,373,55755,2,0,P|442:381|452:334,1,75.0000028610231,0|0,0:0|0:0,0:0:0:0:
236,182,56013,6,0,L|223:275,1,75.0000028610231,0|0,0:0|3:0,0:0:0:0:
447,246,56272,2,0,L|434:153,1,75.0000028610231,0|0,0:0|0:0,0:0:0:0:
214,346,56530,5,2,0:0:0:0:
501,80,56703,5,0,0:0:0:0:
423,70,56789,1,2,0:0:0:0:
345,59,56875,1,4,0:0:0:0:
0,196,57134,5,4,0:0:0:0:
512,359,57392,5,4,0:0:0:0:
226,140,57737,6,0,L|233:171,1,18.7500007152558,10|0,0:0|0:0,0:0:0:0:
260,164,57824,2,0,L|267:195,1,18.7500007152558,8|0,0:0|0:0,0:0:0:0:
313,242,57910,6,0,B|247:279|247:279|134:174,1,225.000008583069,8|0,0:0|0:0,0:0:0:0:
51,71,58255,5,2,0:0:0:0:
132,60,58341,1,0,0:0:0:0:
213,49,58427,1,0,0:0:0:0:
294,36,58513,1,0,0:0:0:0:
373,87,58599,6,0,L|383:143,1,50,8|0,0:0|0:0,0:0:0:0:
471,90,58772,5,0,0:0:0:0:
458,82,58858,1,0,0:0:0:0:
373,87,58944,6,0,L|386:160,1,62.5,2|0,0:0|0:0,0:0:0:0:
471,90,59117,5,0,0:0:0:0:
458,82,59203,1,0,0:0:0:0:
373,87,59289,6,0,L|393:200,1,75.0000028610231,8|0,0:0|0:0,0:0:0:0:
493,194,59461,2,0,L|473:307,1,75.0000028610231,0|0,0:0|0:0,0:0:0:0:
426,350,59634,6,0,L|408:354,1,18.7500007152558,2|0,0:0|0:0,0:0:0:0:
380,329,59720,2,0,L|399:333,1,18.7500007152558
410,243,59806,6,0,P|446:249|479:266,1,75.0000028610231
199,332,59979,5,8,0:0:0:0:
262,268,60065,1,0,0:0:0:0:
290,353,60151,1,0,0:0:0:0:
179,245,60237,6,0,L|353:214,1,150.000005722046
40,129,60582,5,0,0:0:0:0:
150,108,60668,1,8,0:0:0:0:
261,85,60755,1,0,0:0:0:0:
368,130,60841,5,0,0:0:0:0:
363,156,60927,1,0,0:0:0:0:
358,182,61013,1,2,0:0:0:0:
150,108,61186,5,0,0:0:0:0:
290,353,61358,1,8,0:0:0:0:
13,200,61530,1,0,0:0:0:0:
108,186,61703,5,2,0:0:0:0:
103,212,61789,1,0,0:0:0:0:
98,238,61875,1,0,0:0:0:0:
368,130,62048,5,8,0:0:0:0:
14,336,62220,1,0,0:0:0:0:
223,172,62392,5,2,0:0:0:0:
400,275,62564,1,0,0:0:0:0:
14,336,62737,5,8,0:0:0:0:
368,130,62910,1,0,0:0:0:0:
108,186,63082,5,2,0:0:0:0:
103,212,63168,1,2,0:0:0:0:
98,238,63254,1,2,0:0:0:0:
297,353,63427,5,2,0:0:0:0:
292,327,63513,1,2,0:0:0:0:
220,289,63599,5,2,0:0:0:0:
225,263,63685,1,0,0:0:0:0:
306,193,63772,5,6,0:0:0:0:
225,180,63858,1,0,0:0:0:0:
144,169,63944,1,0,0:0:0:0:
63,158,64031,1,0,0:0:0:0:
27,83,64117,6,0,L|50:14,1,50,8|0,0:0|0:0,0:0:0:0:
50,173,64289,5,0,0:0:0:0:
37,165,64375,1,0,0:0:0:0:
27,83,64461,6,0,L|50:13,1,62.5,2|0,0:0|0:0,0:0:0:0:
50,173,64633,5,0,0:0:0:0:
37,165,64719,1,0,0:0:0:0:
27,83,64806,6,0,L|58:-9,1,75.0000028610231,8|0,0:0|0:0,0:0:0:0:
144,169,64979,2,0,L|175:261,1,75.0000028610231,0|0,0:0|0:0,0:0:0:0:
235,89,65151,6,0,L|266:95,1,18.7500007152558,2|0,0:0|0:0,0:0:0:0:
280,110,65237,2,0,L|249:116,1,18.7500007152558
174,21,65324,6,0,P|231:2|271:13,1,75.0000028610231,0|2,0:0|0:0,0:0:0:0:
397,260,65496,5,8,0:0:0:0:
387,179,65582,1,0,0:0:0:0:
378,98,65668,1,2,0:0:0:0:
174,21,65755,6,0,P|213:4|317:43,1,150.000005722046,0|0,0:0|0:0,0:0:0:0:
216,251,66099,5,2,0:0:0:0:
225,170,66185,1,8,0:0:0:0:
235,89,66271,1,0,0:0:0:0:
314,133,66358,5,2,0:0:0:0:
300,138,66444,1,0,0:0:0:0:
149,104,66530,6,0,B|112:75|112:75|44:129|51:219,1,200,4|0,0:0|0:0,0:0:0:0:
216,251,66789,2,0,L|243:23,1,200,4|0,0:0|0:0,0:0:0:0:
136,186,67048,1,2,0:0:0:0:
372,344,67220,5,4,0:0:0:0:
433,296,67306,2,0,P|390:270|337:274,1,100,0|0,0:0|0:0,0:0:0:0:
375,172,67479,6,0,B|426:112|426:112|472:227,1,200,4|0,0:0|0:0,0:0:0:0:
363,64,67737,2,0,P|406:38|459:42,1,100,0|0,1:0|0:0,0:0:0:0:
271,192,67910,5,0,3:0:0:0:
241,197,67996,1,0,0:0:0:0:
170,273,68082,5,0,0:0:0:0:
200,278,68168,1,6,0:0:0:0:
285,341,68255,5,0,0:0:0:0:
209,365,68341,1,0,0:0:0:0:
131,345,68427,1,4,0:0:0:0:
87,278,68513,1,0,0:0:0:0:
99,199,68599,5,4,0:0:0:0:
99,199,68772,5,4,0:0:0:0:
99,199,68944,5,4,3:0:0:0:
129,61,69289,6,0,P|152:55|177:57,1,50,4|0,3:0|0:0,0:0:0:0:
244,102,69634,2,0,P|268:103|292:97,1,50,0|0,0:0|3:0,0:0:0:0:
362,51,69979,2,0,L|368:10,2,25
406,117,70324,5,0,3:0:0:0:
414,140,70496,1,0,0:0:0:0:
352,197,70668,5,0,0:0:0:0:
344,220,70840,1,0,3:0:0:0:
476,283,71013,5,0,0:0:0:0:
427,270,71186,1,0,0:0:0:0:
383,294,71358,1,0,3:0:0:0:
367,341,71530,1,0,0:0:0:0:
482,205,71703,6,0,L|488:164,1,25,0|0,3:0|0:0,0:0:0:0:
414,140,71875,2,0,L|408:99,1,25,0|0,0:0|0:0,0:0:0:0:
460,52,72048,5,0,3:0:0:0:
486,38,72220,1,0,0:0:0:0:
503,62,72392,1,0,0:0:0:0:
477,76,72564,1,0,3:0:0:0:
341,22,72737,5,0,0:0:0:0:
331,101,72910,1,0,0:0:0:0:
259,47,73082,6,0,L|255:22,3,25,0|0|0|0,3:0|0:0|0:0|0:0,0:0:0:0:
331,101,73427,2,0,L|334:125,3,25,0|0|0|0,0:0|0:0|3:0|0:0,0:0:0:0:
212,129,73772,6,0,P|188:135|163:133,1,50,0|0,0:0|0:0,0:0:0:0:
96,80,74117,2,0,P|71:78|47:84,1,50,0|0,3:0|0:0,0:0:0:0:
13,196,74461,5,0,3:0:0:0:
21,190,74548,1,0,0:0:0:0:
30,193,74634,1,0,0:0:0:0:
38,187,74721,1,0,0:0:0:0:
46,192,74806,6,0,L|51:228,1,25,0|0,3:0|0:0,0:0:0:0:
158,156,74979,2,0,L|163:120,1,25,2|0,0:0|0:0,0:0:0:0:
172,52,75151,5,0,0:0:0:0:
172,52,75237,1,0,0:0:0:0:
172,52,75324,1,0,3:0:0:0:
260,143,75496,6,0,L|141:129,1,100,2|0,0:0|3:0,0:0:0:0:
55,247,76013,2,0,L|174:233,1,100,0|0,0:0|3:0,0:0:0:0:
271,309,76530,1,0,3:0:0:0:
289,306,76617,1,0,0:0:0:0:
308,304,76703,1,0,3:0:0:0:
406,181,76875,6,0,L|416:246,1,50,0|2,3:0|0:0,0:0:0:0:
271,309,77220,1,0,3:0:0:0:
509,356,77392,1,0,0:0:0:0:
301,193,77565,6,0,L|307:149,1,25,2|0,3:0|0:0,0:0:0:0:
391,101,77737,2,0,L|385:57,1,25,2|0,0:0|0:0,0:0:0:0:
278,43,77910,5,0,0:0:0:0:
213,37,77996,1,0,0:0:0:0:
148,31,78082,1,0,0:0:0:0:
83,24,78168,1,0,0:0:0:0:
21,84,78255,6,0,L|7:155,1,37.5000014305115,0|0,0:0|0:0,0:0:0:0:
102,219,78427,5,0,0:0:0:0:
179,208,78513,1,0,0:0:0:0:
256,193,78599,6,0,L|270:264,1,37.5000014305115,0|0,0:0|0:0,0:0:0:0:
79,308,78772,5,0,0:0:0:0:
102,219,78858,1,0,0:0:0:0:
279,104,79030,5,0,0:0:0:0:
256,193,79117,2,0,P|227:214|208:175,1,75.0000028610231,0|2,0:0|0:0,0:0:0:0:
105,81,79375,2,0,L|168:68,1,37.5000014305115,2|2,0:0|0:0,0:0:0:0:
279,104,79548,5,2,0:0:0:0:
55,334,79720,5,2,0:0:0:0:
120,273,79806,1,2,0:0:0:0:
204,342,79892,1,2,0:0:0:0:
256,193,79979,5,2,0:0:0:0:
256,193,80324,5,2,0:0:0:0:
328,154,80410,1,0,0:0:0:0:
407,173,80496,1,0,0:0:0:0:
453,240,80582,1,0,0:0:0:0:
289,281,80668,5,8,0:0:0:0:
348,227,80755,1,0,0:0:0:0:
365,304,80841,2,0,L|349:410,1,75.0000028610231
62,91,81013,5,2,0:0:0:0:
143,76,81099,1,0,0:0:0:0:
225,62,81186,1,0,0:0:0:0:
306,48,81272,1,0,0:0:0:0:
358,160,81358,5,8,0:0:0:0:
343,157,81444,1,0,0:0:0:0:
328,154,81530,1,2,3:0:0:0:
62,91,81703,6,0,L|161:73,1,80.7499981363774,2|0,0:0|0:0,0:0:0:0:
265,280,81875,5,0,0:0:0:0:
204,147,81961,2,0,L|189:248,1,75.0000028610231,2|8,0:0|0:0,0:0:0:0:
161,368,82134,5,0,0:0:0:0:
316,79,82220,2,0,L|331:180,1,75.0000028610231,2|0,0:0|0:0,0:0:0:0:
419,341,82392,6,0,P|448:354|446:303,1,75.0000028610231,2|0,0:0|0:0,0:0:0:0:
363,60,82565,2,0,P|334:47|336:98,1,75.0000028610231,2|0,0:0|0:0,0:0:0:0:
265,280,82737,6,0,L|366:265,1,75.0000028610231,8|0,0:0|0:0,0:0:0:0:
204,147,82910,2,0,L|103:162,1,75.0000028610231,2|0,0:0|0:0,0:0:0:0:
445,201,83082,5,2,0:0:0:0:
453,149,83168,1,0,0:0:0:0:
460,96,83255,1,0,0:0:0:0:
467,44,83341,1,0,0:0:0:0:
478,95,83427,5,8,0:0:0:0:
486,147,83513,1,0,0:0:0:0:
493,200,83600,1,0,0:0:0:0:
500,252,83686,1,0,0:0:0:0:
454,226,83772,5,2,0:0:0:0:
388,189,83858,1,0,0:0:0:0:
313,186,83944,1,0,0:0:0:0:
246,220,84030,1,0,0:0:0:0:
212,287,84117,5,8,0:0:0:0:
256,295,84203,1,0,0:0:0:0:
298,282,84289,1,2,3:0:0:0:
323,244,84375,1,0,0:0:0:0:
253,145,84461,6,0,L|240:269,1,75.0000028610231,2|0,0:0|0:0,0:0:0:0:
333,32,84634,5,0,0:0:0:0:
174,119,84720,2,0,L|161:243,1,75.0000028610231,2|8,0:0|0:0,0:0:0:0:
482,331,84892,5,0,0:0:0:0:
323,244,84978,2,0,L|336:120,1,75.0000028610231,2|0,0:0|0:0,0:0:0:0:
395,307,85151,5,2,0:0:0:0:
405,343,85237,1,0,0:0:0:0:
368,352,85324,1,2,0:0:0:0:
358,316,85410,1,0,0:0:0:0:
323,244,85496,5,8,0:0:0:0:
482,331,85582,1,0,0:0:0:0:
284,384,85668,1,2,3:0:0:0:
42,65,85841,5,6,0:0:0:0:
116,55,85927,1,0,0:0:0:0:
190,47,86013,1,0,0:0:0:0:
264,41,86099,1,0,0:0:0:0:
182,91,86186,5,8,0:0:0:0:
186,69,86272,1,0,0:0:0:0:
190,47,86358,2,0,L|209:158,1,75.0000028610231,0|0,0:0|0:0,0:0:0:0:
69,329,86530,5,2,0:0:0:0:
148,353,86617,1,0,0:0:0:0:
130,272,86703,1,0,0:0:0:0:
69,329,86789,1,0,0:0:0:0:
18,256,86875,5,8,0:0:0:0:
33,253,86961,1,0,0:0:0:0:
48,250,87047,1,2,3:0:0:0:
402,137,87220,6,0,L|383:248,1,75.0000028610231,2|0,0:0|0:0,0:0:0:0:
320,90,87392,5,0,0:0:0:0:
482,210,87479,2,0,L|501:321,1,75.0000028610231,2|8,0:0|0:0,0:0:0:0:
485,65,87651,5,0,0:0:0:0:
325,282,87738,2,0,L|306:393,1,75.0000028610231,2|0,0:0|0:0,0:0:0:0:
97,131,87910,6,0,B|112:97|112:97|134:127,1,75.0000028610231,2|0,0:0|0:0,0:0:0:0:
325,282,88082,6,0,L|207:273,1,75.0000028610231,2|0,0:0|0:0,0:0:0:0:
52,335,88255,2,0,L|126:340,1,75.0000028610231,8|0,0:0|0:0,0:0:0:0:
134,127,88427,6,0,B|112:97|112:97|97:131,1,75.0000028610231,2|0,0:0|0:0,0:0:0:0:
237,191,88599,5,2,0:0:0:0:
296,202,88686,1,0,0:0:0:0:
353,186,88772,1,0,0:0:0:0:
378,131,88858,1,0,0:0:0:0:
357,74,88944,5,8,0:0:0:0:
346,155,89030,1,0,0:0:0:0:
330,236,89117,1,0,0:0:0:0:
314,316,89203,1,0,0:0:0:0:
392,291,89289,5,2,0:0:0:0:
399,289,89375,1,0,0:0:0:0:
406,287,89461,1,0,0:0:0:0:
413,285,89548,1,0,0:0:0:0:
473,229,89634,5,8,0:0:0:0:
314,316,89720,1,0,0:0:0:0:
512,369,89806,1,2,3:0:0:0:
290,25,89979,6,0,L|276:126,1,75.0000028610231,2|0,0:0|0:0,0:0:0:0:
236,341,90151,5,0,0:0:0:0:
392,291,90237,2,0,L|381:216,1,75.0000028610231,2|8,0:0|0:0,0:0:0:0:
357,74,90410,5,0,0:0:0:0:
201,124,90496,2,0,L|187:225,1,75.0000028610231,2|0,0:0|0:0,0:0:0:0:
447,152,90668,5,2,0:0:0:0:
443,136,90755,1,0,0:0:0:0:
429,141,90841,1,2,0:0:0:0:
432,157,90928,1,2,0:0:0:0:
488,70,91013,5,10,0:0:0:0:
377,59,91099,1,2,0:0:0:0:
266,49,91186,1,2,0:0:0:0:
10,255,91358,5,6,0:0:0:0:
81,276,91444,1,0,0:0:0:0:
155,270,91530,1,0,0:0:0:0:
219,230,91617,1,0,0:0:0:0:
246,160,91703,5,8,0:0:0:0:
239,138,91789,1,0,0:0:0:0:
216,141,91875,1,0,0:0:0:0:
223,163,91961,1,0,0:0:0:0:
297,215,92048,5,2,0:0:0:0:
341,209,92134,1,0,0:0:0:0:
385,203,92220,1,0,0:0:0:0:
429,197,92306,1,0,0:0:0:0:
465,190,92392,5,8,0:0:0:0:
391,180,92478,1,0,0:0:0:0:
318,170,92564,1,2,3:0:0:0:
246,160,92650,1,2,3:0:0:0:
171,149,92737,6,0,L|194:49,1,75.0000028610231,2|0,0:0|0:0,0:0:0:0:
482,99,92910,5,0,0:0:0:0:
465,190,92996,2,0,L|442:290,1,75.0000028610231,2|8,0:0|0:0,0:0:0:0:
155,240,93168,5,0,0:0:0:0:
172,149,93255,2,0,L|191:64,1,50,2|0,0:0|0:0,0:0:0:0:
466,190,93427,6,0,L|448:265,1,62.5,2|0,0:0|0:0,0:0:0:0:
172,149,93599,2,0,L|189:74,1,62.5,0|0,3:0|3:0,0:0:0:0:
466,190,93772,6,0,L|443:290,1,75.0000028610231,2|0,3:2|3:0,0:0:0:0:
172,149,93944,2,0,L|195:49,1,75.0000028610231,2|0,3:2|3:0,0:0:0:0:
376,31,94117,5,2,0:0:0:0:
397,26,94203,1,0,0:0:0:0:
417,34,94289,1,0,0:0:0:0:
426,54,94375,1,0,0:0:0:0:
423,76,94461,5,8,0:0:0:0:
376,31,94548,1,0,0:0:0:0:
312,19,94634,1,0,0:0:0:0:
253,39,94720,1,0,0:0:0:0:
201,103,94806,5,2,0:0:0:0:
199,110,94892,1,0,0:0:0:0:
197,117,94979,1,0,0:0:0:0:
195,124,95065,1,0,0:0:0:0:
169,202,95151,5,8,0:0:0:0:
272,188,95237,1,0,0:0:0:0:
375,174,95324,1,2,3:0:0:0:
47,188,95496,6,0,L|80:314,1,75.0000028610231,2|0,0:0|0:0,0:0:0:0:
224,354,95668,5,0,0:0:0:0:
102,95,95755,2,0,L|-7:118,1,75.0000028610231,2|8,0:0|0:0,0:0:0:0:
25,349,95927,5,0,0:0:0:0:
291,260,96013,2,0,L|258:134,1,75.0000028610231,2|0,0:0|0:0,0:0:0:0:
377,299,96186,5,2,0:0:0:0:
408,376,96272,1,0,0:0:0:0:
484,345,96358,1,2,0:0:0:0:
453,269,96444,1,2,0:0:0:0:
424,331,96530,5,2,0:0:0:0:
424,331,96617,1,2,0:0:0:0:
424,331,96703,2,0,L|390:345,1,37.5000014305115,2|0,0:0|0:0,0:0:0:0:
424,331,96789,2,0,L|486:304,1,37.5000014305115,2|0,0:0|0:0,0:0:0:0:
500,205,96875,5,6,0:0:0:0:
447,152,96961,1,0,0:0:0:0:
373,133,97048,1,0,0:0:0:0:
300,152,97134,1,0,0:0:0:0:
249,207,97220,5,8,0:0:0:0:
259,163,97306,1,0,0:0:0:0:
269,119,97392,1,0,0:0:0:0:
278,74,97479,1,0,0:0:0:0:
291,31,97565,5,2,0:0:0:0:
309,111,97651,1,0,0:0:0:0:
327,191,97737,1,0,0:0:0:0:
345,271,97824,1,0,0:0:0:0:
363,351,97910,5,8,0:0:0:0:
197,277,97996,1,0,0:0:0:0:
458,203,98082,1,2,3:0:0:0:
36,52,98255,6,0,L|166:33,1,75.0000028610231,2|0,0:0|0:0,0:0:0:0:
308,107,98427,5,0,0:0:0:0:
20,152,98513,2,0,L|94:141,1,75.0000028610231,2|8,0:0|0:0,0:0:0:0:
295,209,98686,5,0,0:0:0:0:
7,254,98772,2,0,L|81:243,1,75.0000028610231,2|0,0:0|0:0,0:0:0:0:
389,347,98944,6,0,B|363:323|363:323|347:359,1,75.0000028610231,2|0,0:0|0:0,0:0:0:0:
444,286,99117,5,2,0:0:0:0:
451,264,99203,1,0,0:0:0:0:
391,207,99289,5,2,0:0:0:0:
384,185,99375,1,2,0:0:0:0:
472,132,99461,5,2,0:0:0:0:
479,110,99547,1,2,0:0:0:0:
454,64,99634,5,2,0:0:0:0:
380,77,99720,1,0,0:0:0:0:
306,90,99806,1,0,0:0:0:0:
232,102,99892,1,0,0:0:0:0:
129,181,99979,5,8,0:0:0:0:
184,190,100065,1,0,0:0:0:0:
240,200,100151,1,0,0:0:0:0:
295,209,100237,1,0,0:0:0:0:
397,249,100324,5,2,0:0:0:0:
391,207,100410,1,0,0:0:0:0:
385,165,100496,1,0,0:0:0:0:
379,123,100582,1,0,0:0:0:0:
295,209,100668,5,8,0:0:0:0:
277,335,100755,1,0,0:0:0:0:
290,240,100841,5,2,3:0:0:0:
281,303,100927,1,0,0:0:0:0:
286,272,101013,5,6,0:0:0:0:
286,272,101272,5,6,0:0:0:0:
286,272,101530,5,6,0:0:0:0:
85,118,101703,5,2,0:0:0:0:
225,180,101789,2,0,L|177:189,1,37.5000014305115,2|0,0:0|0:0,0:0:0:0:
23,249,101875,2,0,L|14:297,2,37.5000014305115,2|0|0,0:0|0:0|0:0,0:0:0:0:
242,94,102048,5,2,0:0:0:0:
134,278,102134,1,2,0:0:0:0:
18,27,102220,1,2,0:0:0:0:
331,112,102392,6,0,L|316:205,1,50,4|0,0:0|0:0,0:0:0:0:
407,300,102565,1,0,0:0:0:0:
407,300,102651,2,0,L|422:207,1,50,0|8,0:0|0:0,0:0:0:0:
509,143,102824,5,0,0:0:0:0:
420,128,102910,1,0,0:0:0:0:
331,112,102996,1,0,0:0:0:0:
242,94,103082,5,2,0:0:0:0:
509,143,103255,1,0,0:0:0:0:
331,112,103427,5,8,0:0:0:0:
420,128,103513,1,0,0:0:0:0:
145,258,103686,5,0,0:0:0:0:
56,274,103772,1,2,0:0:0:0:
242,94,103944,5,0,0:0:0:0:
259,182,104030,1,0,0:0:0:0:
276,271,104117,1,8,0:0:0:0:
242,94,104289,5,0,0:0:0:0:
454,305,104461,5,2,0:0:0:0:
437,217,104547,1,0,0:0:0:0:
420,128,104634,1,0,0:0:0:0:
107,82,104806,5,8,0:0:0:0:
124,171,104893,1,0,0:0:0:0:
389,37,105065,5,2,0:0:0:0:
396,30,105151,1,2,0:0:0:0:
405,34,105237,1,0,0:0:0:0:
412,27,105323,1,0,0:0:0:0:
420,32,105410,1,0,0:0:0:0:
212,194,105582,5,0,0:0:0:0:
124,171,105669,1,0,0:0:0:0:
281,351,105841,5,2,0:0:0:0:
369,328,105928,1,0,0:0:0:0:
454,305,106013,1,0,0:0:0:0:
36,145,106186,5,8,0:0:0:0:
10,241,106272,1,0,0:0:0:0:
305,219,106444,5,0,0:0:0:0:
279,123,106530,1,2,0:0:0:0:
198,371,106703,5,0,0:0:0:0:
381,14,106875,1,8,0:0:0:0:
512,384,107048,1,0,0:0:0:0:
206,209,107220,5,2,0:0:0:0:
305,219,107306,1,0,0:0:0:0:
404,229,107392,1,0,0:0:0:0:
178,101,107565,5,8,0:0:0:0:
79,111,107651,1,0,0:0:0:0:
381,14,107824,5,10,0:0:0:0:
76,333,107996,5,0,0:0:0:0:
132,269,108082,1,0,0:0:0:0:
49,251,108168,1,0,0:0:0:0:
206,342,108255,6,0,L|219:255,1,50,8|0,0:0|0:0,0:0:0:0:
79,111,108427,2,0,L|66:198,1,50,0|0,0:0|0:0,0:0:0:0:
210,46,108599,5,2,0:0:0:0:
234,49,108686,1,0,0:0:0:0:
258,52,108772,1,0,0:0:0:0:
384,145,108944,5,8,0:0:0:0:
304,155,109030,1,0,0:0:0:0:
132,269,109203,5,0,0:0:0:0:
439,374,109375,5,0,0:0:0:0:
456,296,109461,1,0,0:0:0:0:
471,216,109548,1,0,0:0:0:0:
330,325,109634,6,0,L|416:315,1,50,8|0,0:0|0:0,0:0:0:0:
505,89,109806,2,0,L|419:79,1,50,0|0,0:0|0:0,0:0:0:0:
220,168,109979,5,2,0:0:0:0:
215,192,110066,1,0,0:0:0:0:
210,216,110152,1,0,0:0:0:0:
384,145,110324,5,8,0:0:0:0:
374,97,110410,1,0,0:0:0:0:
123,219,110582,5,2,0:0:0:0:
38,319,110668,6,0,L|25:243,1,50,2|0,0:0|0:0,0:0:0:0:
211,118,110841,2,0,L|224:194,1,50,0|0,0:0|0:0,0:0:0:0:
326,283,111013,5,8,0:0:0:0:
27,118,111186,1,0,0:0:0:0:
350,167,111358,5,2,0:0:0:0:
200,249,111531,1,2,0:0:0:0:
501,313,111703,5,2,0:0:0:0:
495,268,111789,1,2,0:0:0:0:
489,223,111875,1,0,0:0:0:0:
482,178,111961,1,2,0:0:0:0:
474,133,112048,5,4,0:0:0:0:
474,133,112306,5,4,0:0:0:0:
474,133,112565,5,4,0:0:0:0:
328,319,112737,6,0,L|453:291,1,75.0000028610231,2|0,0:0|0:0,0:0:0:0:
92,272,112910,2,0,L|83:235,2,37.5000014305115,2|0|0,0:0|0:0|0:0,0:0:0:0:
130,264,113082,2,0,L|255:236,1,75.0000028610231,2|0,0:0|0:0,0:0:0:0:
461,47,113341,5,2,3:0:0:0:
