osu file format v14

[General]
AudioFilename: audio.mp3
AudioLeadIn: 0
PreviewTime: 77565
Countdown: 0
SampleSet: Soft
StackLeniency: 0.6
Mode: 0
LetterboxInBreaks: 0
WidescreenStoryboard: 1

[Editor]
DistanceSpacing: 1.4
BeatDivisor: 8
GridSize: 8
TimelineZoom: 4.199998

[Metadata]
Title:polygon
TitleUnicode:polygon
Artist:Sota Fujimori
ArtistUnicode:Sota Fujimori
Creator:Kaifin
Version:fanzhen's Another
Source:jubeat copious
Tags:REFLEC BEAT colette autumn fanzhen0019 bonzi revurii xlolicore-
BeatmapID:1232328
BeatmapSetID:559097

[Difficulty]
HPDrainRate:5.5
CircleSize:4
OverallDifficulty:7.5
ApproachRate:9
SliderMultiplier:1.6
SliderTickRate:1

[Events]
//Background and Video events
0,0,"polygonbg1080.png",0,0
//Break Periods
//Storyboard Layer 0 (Background)
//Storyboard Layer 1 (Fail)
//Storyboard Layer 2 (Pass)
//Storyboard Layer 3 (Foreground)
//Storyboard Sound Samples

[TimingPoints]
324,344.827586206897,4,3,0,70,1,0
2392,-100,4,2,0,50,0,0
2565,-100,4,3,0,70,0,0
2737,-133.333333333333,4,3,2,50,0,0
3082,-100,4,2,1,70,0,0
11013,-66.6666666666667,4,2,1,70,0,0
19634,-100,4,2,1,70,0,0
20496,-100,4,2,0,70,0,0
20582,-100,4,2,1,70,0,0
20841,-100,4,2,0,70,0,0
20927,-100,4,2,1,70,0,0
21186,-100,4,2,0,70,0,0
21272,-100,4,2,1,70,0,0
21530,-100,4,2,0,70,0,0
21617,-100,4,2,1,70,0,0
22479,-100,4,2,0,70,0,0
23082,-100,4,2,1,70,0,0
23168,-100,4,2,0,70,0,0
23513,-100,4,2,1,70,0,0
35496,-100,4,2,1,40,0,0
35668,-100,4,2,1,55,0,0
35755,-50,4,2,1,70,0,0
36186,-66.6666666666667,4,2,1,70,0,0
37048,-66.6666666666667,4,2,0,70,0,0
38944,-66.6666666666667,4,2,1,70,0,0
39806,-66.6666666666667,4,2,8,70,0,0
39979,-66.6666666666667,4,2,1,70,0,0
40065,-66.6666666666667,4,2,8,70,0,0
40324,-66.6666666666667,4,2,1,70,0,0
40410,-66.6666666666667,4,2,8,70,0,0
40668,-66.6666666666667,4,2,1,70,0,0
40841,-66.6666666666667,4,2,8,70,0,0
41013,-66.6666666666667,4,2,1,70,0,0
42479,-66.6666666666667,4,2,8,70,0,0
42651,-66.6666666666667,4,2,1,70,0,0
42824,-66.6666666666667,4,2,8,70,0,0
44117,-66.6666666666667,4,2,1,70,0,0
45237,-66.6666666666667,4,2,8,70,0,0
45410,-66.6666666666667,4,2,1,70,0,0
45582,-66.6666666666667,4,2,8,70,0,0
45755,-66.6666666666667,4,2,1,70,0,0
46875,-133.333333333333,4,2,1,70,0,0
47220,-100,4,2,1,70,0,0
49375,-100,4,2,8,70,0,0
49634,-100,4,2,1,70,0,0
49720,-100,4,2,8,70,0,0
49979,-100,4,2,1,70,0,0
52134,-100,4,2,8,70,0,0
52565,-100,4,2,1,70,0,0
54892,-100,4,2,8,70,0,0
55151,-100,4,2,1,70,0,0
55237,-100,4,2,8,70,0,0
55496,-100,4,2,1,70,0,0
68599,-100,4,2,1,50,0,0
68944,-133.333333333333,4,2,1,70,0,0
69289,-100,4,2,8,40,0,0
78944,-100,4,2,8,40,0,0
79030,-100,4,2,8,40,0,0
79203,-100,4,2,8,40,0,0
79375,-100,4,2,8,40,0,0
79548,-100,4,2,8,40,0,0
79720,-100,4,2,1,75,0,0
80324,-66.6666666666667,4,2,1,75,0,1
80668,-100,4,2,1,75,0,1
81013,-200,4,2,1,75,0,1
81358,-66.6666666666667,4,2,1,75,0,1
81703,-66.6666666666667,4,2,8,75,0,1
83082,-66.6666666666667,4,2,1,75,0,1
83427,-100,4,2,1,75,0,1
83772,-200,4,2,1,75,0,1
84289,-66.6666666666667,4,2,1,75,0,1
84461,-66.6666666666667,4,2,8,75,0,1
85151,-100,4,2,8,75,0,1
85496,-100,4,2,1,75,0,1
85841,-66.6666666666667,4,2,1,75,0,1
86186,-100,4,2,1,75,0,1
86530,-200,4,2,1,75,0,1
87220,-66.6666666666667,4,2,8,75,0,1
88599,-66.6666666666667,4,2,1,75,0,1
88944,-100,4,2,1,75,0,1
89289,-200,4,2,1,75,0,1
89979,-66.6666666666667,4,2,8,75,0,1
90841,-66.6666666666667,4,2,1,75,0,1
91013,-50,4,2,1,75,0,1
91186,-50,4,2,1,75,0,1
91358,-66.6666666666667,4,2,1,75,0,1
91703,-100,4,2,1,75,0,1
92048,-200,4,2,1,75,0,1
92737,-66.6666666666667,4,2,8,75,0,1
94117,-66.6666666666667,4,2,1,75,0,1
94461,-100,4,2,1,75,0,1
94806,-200,4,2,1,75,0,1
95496,-66.6666666666667,4,2,8,75,0,1
96703,-66.6666666666667,4,2,1,75,0,1
97220,-100,4,2,1,75,0,1
97565,-200,4,2,1,75,0,1
98255,-66.6666666666667,4,2,8,75,0,1
99634,-66.6666666666667,4,2,1,75,0,1
99979,-100,4,2,1,75,0,1
100324,-200,4,2,1,75,0,1
101013,-66.6666666666667,4,2,1,75,0,1
102392,-100,4,2,1,70,0,0
112737,-50,4,2,1,70,0,0
112910,-200,4,2,1,70,0,0

[Colours]
Combo1 : 255,136,255
Combo2 : 255,155,106
Combo3 : 100,170,255
Combo4 : 243,56,84

[HitObjects]
448,200,324,6,0,L|456:256,1,40
456,280,496,2,0,P|424:336|360:280,1,160,2|0,2:0|0:0,0:0:0:0:
352,256,927,2,0,L|346:216,1,40,0|0,0:0|2:0,0:0:0:0:
208,80,1186,1,2,2:0:0:0:
192,160,1358,1,2,0:0:0:0:
128,104,1530,1,0,0:0:0:0:
64,200,1703,6,0,L|56:256,1,40
80,272,1875,2,0,L|72:328,1,40,0|0,2:0|0:0,0:0:0:0:
40,336,2048,2,0,P|88:336|136:384,1,120,2|2,0:0|0:0,0:0:0:0:
136,384,2392,1,0,0:0:0:0:
200,272,2565,5,2,0:0:0:0:
232,296,2651,1,0,0:0:0:0:
264,320,2737,2,0,P|320:336|352:304,1,90.0000034332277,8|4,0:0|0:0,0:0:0:0:
392,256,3082,5,6,0:0:0:0:
277,211,3341,1,0,0:0:0:0:
468,57,3599,5,0,0:0:0:0:
353,13,3858,1,0,0:0:0:0:
487,178,4117,5,8,0:0:0:0:
373,135,4289,1,2,0:1:0:0:
257,90,4461,5,2,0:1:0:0:
468,57,4720,1,0,0:0:0:0:
392,256,4979,1,0,0:0:0:0:
320,304,5151,5,0,0:0:0:0:
320,304,5237,1,0,0:0:0:0:
320,304,5324,1,0,0:0:0:0:
248,352,5496,2,0,L|160:344,1,80,8|0,0:0|0:0,0:0:0:0:
120,256,5840,5,0,0:0:0:0:
235,211,6099,1,0,0:0:0:0:
44,57,6357,5,0,0:0:0:0:
159,13,6616,1,0,0:0:0:0:
25,178,6875,5,8,0:0:0:0:
139,135,7047,1,2,0:1:0:0:
255,90,7219,5,2,0:1:0:0:
44,57,7478,1,0,0:0:0:0:
120,256,7737,1,0,0:0:0:0:
160,352,7910,5,0,0:0:0:0:
208,288,8082,1,0,0:0:0:0:
280,256,8255,1,8,0:0:0:0:
280,256,8341,1,0,0:0:0:0:
280,256,8427,2,0,L|328:248,1,40,0|8,0:0|0:0,0:0:0:0:
392,264,8599,5,0,0:0:0:0:
312,72,8772,1,0,0:0:0:0:
312,72,8858,1,0,0:0:0:0:
408,144,9117,1,0,0:0:0:0:
512,96,9289,1,0,0:0:0:0:
512,96,9375,1,0,0:0:0:0:
424,24,9548,1,0,0:0:0:0:
424,24,9634,5,8,0:0:0:0:
408,144,9806,1,2,0:1:0:0:
392,264,9979,5,2,0:1:0:0:
504,216,10151,1,0,0:0:0:0:
504,216,10237,1,0,0:0:0:0:
304,192,10410,1,0,0:0:0:0:
304,192,10496,1,0,0:0:0:0:
256,296,10668,5,0,0:0:0:0:
224,288,10755,1,0,0:0:0:0:
192,312,10841,1,0,0:0:0:0:
311,292,11013,6,2,L|128:336,1,180.000006866455,8|0,0:0|0:0,0:0:0:0:
120,264,11358,5,0,0:0:0:0:
200,72,11531,1,0,0:0:0:0:
200,72,11617,1,0,0:0:0:0:
104,144,11876,1,0,0:0:0:0:
0,96,12048,1,0,0:0:0:0:
0,96,12134,1,0,0:0:0:0:
88,24,12307,1,0,0:0:0:0:
88,24,12393,5,8,0:0:0:0:
104,144,12565,1,0,0:0:0:0:
112,205,12651,1,8,0:0:0:0:
120,264,12738,5,4,0:0:0:0:
8,216,12996,1,4,0:0:0:0:
208,192,13255,1,4,0:0:0:0:
256,296,13427,5,2,0:0:0:0:
368,344,13599,2,2,L|376:376,3,30.0000011444092
376,304,13772,5,2,0:0:0:0:
400,276,13858,1,0,0:0:0:0:
432,264,13944,1,2,0:0:0:0:
393,23,14117,6,0,B|414:124|414:124|393:199,1,180.000006866455,6|0,0:0|0:0,0:0:0:0:
289,164,14461,2,0,B|315:91|315:91|392:24,1,180.000006866455,8|0,0:0|0:0,0:0:0:0:
456,110,14806,5,2,0:0:0:0:
393,199,14979,1,0,0:0:0:0:
289,56,15151,5,8,0:0:0:0:
289,164,15324,1,0,0:0:0:0:
393,24,15496,5,2,0:0:0:0:
393,199,15668,1,0,0:0:0:0:
289,56,15841,1,8,0:0:0:0:
456,110,16013,1,0,0:0:0:0:
289,164,16186,1,2,0:0:0:0:
118,23,16530,1,8,0:0:0:0:
118,23,16703,1,2,0:0:0:0:
118,23,16875,6,0,B|98:124|98:124|119:199,1,180.000006866455,2|0,0:0|0:0,0:0:0:0:
222,164,17220,2,0,B|197:91|197:91|120:24,1,180.000006866455,8|0,0:0|0:0,0:0:0:0:
55,110,17564,5,2,0:0:0:0:
118,199,17737,1,0,0:0:0:0:
222,56,17909,5,8,0:0:0:0:
222,164,18082,1,0,0:0:0:0:
118,23,18254,5,2,0:0:0:0:
118,199,18426,1,0,0:0:0:0:
222,56,18599,1,8,0:0:0:0:
55,110,18771,1,2,0:0:0:0:
222,164,18944,1,2,0:0:0:0:
256,344,19203,1,2,0:0:0:0:
256,344,19289,5,8,0:0:0:0:
256,248,19461,1,2,0:0:0:0:
368,176,19634,6,0,L|424:56,1,120,6|0,0:0|0:0,0:0:0:0:
418,67,19979,2,0,L|431:199,1,120,8|0,0:0|0:0,0:0:0:0:
392,248,20324,5,2,0:0:0:0:
418,67,20496,1,2,0:0:0:0:
288,176,20668,1,8,0:0:0:0:
496,224,20841,1,0,0:0:0:0:
512,48,21013,5,2,0:0:0:0:
336,96,21186,1,2,0:0:0:0:
480,128,21358,1,8,0:0:0:0:
336,16,21530,1,2,0:0:0:0:
392,248,21703,1,2,0:0:0:0:
120,248,22048,1,8,0:0:0:0:
144,176,22220,1,2,0:0:0:0:
144,176,22392,6,0,L|168:96,1,80,2|2,0:0|0:0,0:0:0:0:
0,144,22737,2,0,L|72:208,1,80,0|2,0:0|0:0,0:0:0:0:
193,286,23082,5,2,0:0:0:0:
188,362,23255,1,2,0:0:0:0:
113,382,23427,1,2,0:0:0:0:
71,317,23599,1,2,0:0:0:0:
120,248,23772,5,0,0:0:0:0:
232,184,23944,1,2,0:0:0:0:
320,280,24117,2,2,L|312:312,4,20
424,208,24461,5,6,0:0:0:0:
256,136,24634,1,6,0:0:0:0:
120,248,24806,1,6,0:0:0:0:
384,336,25151,6,0,L|464:328,1,80,4|0,0:0|0:0,0:0:0:0:
424,208,25496,1,8,0:0:0:0:
280,256,25668,1,0,3:0:0:0:
288,288,25755,1,0,3:0:0:0:
384,336,25927,1,0,3:0:0:0:
376,368,26013,1,0,3:0:0:0:
264,360,26186,2,0,P|208:376|168:360,1,80,8|0,0:0|0:0,0:0:0:0:
160,352,26444,1,0,0:0:0:0:
144,320,26530,5,0,0:0:0:0:
280,256,26703,1,0,0:0:0:0:
128,240,26875,1,8,0:0:0:0:
280,176,27048,2,0,L|280:120,1,40,0|0,3:0|3:0,3:0:0:0:
112,160,27306,2,0,L|103:113,3,40,0|0|0|8,3:0|3:0|3:0|0:0,0:0:0:0:
192,48,27737,1,0,0:0:0:0:
192,48,27824,1,8,0:0:0:0:
192,48,27910,6,0,P|240:64|312:48,1,120,2|0,0:0|0:0,0:0:0:0:
352,24,28255,2,0,P|376:72|368:120,1,80,8|0,0:0|3:0,0:0:0:0:
352,144,28513,2,0,L|360:224,1,80,0|0,3:0|3:0,0:0:0:0:
368,296,28772,1,0,3:0:0:0:
368,296,28858,1,0,0:0:0:0:
368,296,28944,1,8,0:0:0:0:
280,264,29117,2,0,L|276:215,1,40,0|0,3:0|3:0,3:0:0:0:
280,264,29289,6,0,P|256:304|192:280,1,120,0|0,3:0|0:0,0:0:0:0:
168,256,29634,1,8,0:0:0:0:
181,231,29720,1,0,3:0:0:0:
180,204,29806,1,0,3:0:0:0:
162,181,29892,2,0,P|130:144|132:98,1,80,0|8,0:0|0:0,0:0:0:0:
135,87,30151,2,0,L|162:44,1,40
222,111,30324,6,0,L|249:68,1,40,10|0,0:0|0:0,0:0:0:0:
310,136,30496,2,0,L|337:93,1,40,2|8,0:0|0:0,0:0:0:0:
394,161,30668,6,0,L|448:69,1,80,6|0,0:0|0:0,0:0:0:0:
434,233,31013,1,8,0:0:0:0:
400,307,31186,1,0,3:0:0:0:
385,330,31272,2,0,P|328:348|294:334,1,80,0|0,3:0|3:0,0:0:0:0:
285,330,31530,2,0,L|203:344,2,80,0|8|0,3:0|0:0|3:0,0:0:0:0:
295,303,31961,1,0,0:0:0:0:
290,275,32048,5,0,3:0:0:0:
294,247,32134,1,0,3:0:0:0:
298,219,32220,1,0,3:0:0:0:
302,191,32306,1,0,0:0:0:0:
307,163,32392,1,8,0:0:0:0:
184,183,32565,5,0,3:0:0:0:
188,210,32651,1,0,3:0:0:0:
70,243,32824,5,0,3:0:0:0:
76,215,32910,1,0,3:0:0:0:
82,187,32996,1,0,3:0:0:0:
88,159,33082,1,8,0:0:0:0:
110,47,33255,1,0,3:3:0:0:
110,47,33341,1,0,3:3:0:0:
110,47,33427,6,0,P|174:68|221:50,1,120,2|0,0:0|0:0,0:0:0:0:
243,32,33772,2,0,L|324:30,1,80,8|0,0:0|3:0,0:0:0:0:
350,33,34030,2,0,L|301:124,1,80,0|0,3:0|0:0,0:0:0:0:
301,129,34289,2,0,L|251:48,1,80,0|8,3:0|0:0,0:0:0:0:
83,160,34634,5,0,0:0:0:0:
72,185,34720,1,8,0:0:0:0:
60,210,34806,5,4,0:0:0:0:
256,344,35065,1,4,0:0:0:0:
452,210,35324,1,4,0:0:0:0:
256,232,35496,2,2,L|256:264,6,20
256,192,35841,6,2,B|264:160|240:136|256:112,1,80
256,40,36013,1,2,0:0:0:0:
152,184,36186,6,0,P|96:208|40:168,1,120.000004577637,4|0,0:0|0:0,0:0:0:0:
32,152,36444,1,0,0:0:0:0:
32,112,36530,1,8,0:0:0:0:
152,184,36703,1,0,0:0:0:0:
200,96,36875,1,0,0:0:0:0:
184,8,37048,6,0,L|112:0,1,60.0000022888184,0|2,0:0|0:0,0:0:0:0:
312,112,37392,1,0,0:0:0:0:
200,96,37565,2,0,L|128:88,1,60.0000022888184,0|2,0:0|0:0,0:0:0:0:
323,206,37910,1,0,0:0:0:0:
211,190,38083,2,0,L|139:182,2,60.0000022888184,0|2|0,0:0|0:0|0:0,0:0:0:0:
419,316,38427,2,0,L|408:128,1,180.000006866455,2|2,3:0|3:0,0:0:0:0:
408,104,38772,1,0,3:0:0:0:
360,184,38944,6,0,P|416:208|472:168,1,120.000004577637,2|0,0:0|0:0,0:0:0:0:
480,152,39202,1,0,0:0:0:0:
480,112,39288,1,8,0:0:0:0:
360,184,39461,1,0,0:0:0:0:
312,96,39633,1,2,0:0:0:0:
328,8,39806,1,0,0:0:0:0:
280,88,39979,1,8,0:0:0:0:
256,112,40065,1,2,0:2:0:0:
224,128,40151,5,0,0:0:0:0:
64,128,40324,2,0,L|48:56,1,60.0000022888184,2|2,0:0|0:0,0:0:0:0:
160,224,40582,2,0,L|144:152,1,60.0000022888184,2|8,0:0|0:0,0:0:0:0:
40,312,40841,2,0,L|16:194,1,120.000004577637,2|2,0:0|0:0,0:0:0:0:
160,224,41186,1,2,0:0:0:0:
40,312,41358,1,8,0:0:0:0:
176,344,41530,1,2,0:0:0:0:
216,352,41617,1,0,0:0:0:0:
256,344,41703,5,4,0:0:0:0:
408,248,41875,1,0,0:0:0:0:
432,224,41961,1,0,0:0:0:0:
448,256,42048,2,0,P|432:280|424:368,1,120.000004577637,8|0,0:0|0:0,0:0:0:0:
336,272,42392,1,2,0:0:0:0:
344,176,42565,1,2,0:0:0:0:
336,272,42737,1,2,0:0:0:0:
248,208,42910,6,0,L|184:216,1,60.0000022888184,2|0,0:0|0:0,0:0:0:0:
440,144,43168,2,0,L|504:136,1,60.0000022888184,2|0,0:0|0:0,0:0:0:0:
248,112,43427,6,0,L|184:120,1,60.0000022888184,2|0,0:0|0:0,0:0:0:0:
440,48,43685,2,0,L|504:40,1,60.0000022888184,2|0,0:0|0:0,0:0:0:0:
344,176,43944,1,2,0:3:0:0:
248,208,44117,1,2,0:0:0:0:
232,232,44203,1,0,0:0:0:0:
232,256,44289,1,2,0:3:0:0:
256,344,44461,5,2,0:0:0:0:
104,248,44633,1,0,0:0:0:0:
80,224,44719,1,0,0:0:0:0:
64,256,44806,2,0,P|80:280|88:368,1,120.000004577637,8|0,0:0|0:0,0:0:0:0:
176,272,45150,1,2,0:0:0:0:
168,176,45323,1,2,0:0:0:0:
176,272,45495,1,8,0:0:0:0:
160,72,45668,1,2,0:0:0:0:
72,136,45841,6,0,L|8:128,1,60.0000022888184,2|2,3:0|3:0,3:0:0:0:
160,72,46013,2,0,L|154:6,1,60.0000022888184,0|0,3:0|3:0,0:0:0:0:
256,120,46186,2,0,L|321:103,1,60.0000022888184,2|2,3:0|3:0,0:0:0:0:
264,224,46358,2,0,B|277:233|277:233|288:224|288:224|299:238|299:238|308:231|308:231|328:256|384:216,1,120.000004577637,0|2,3:0|3:0,0:0:0:0:
448,176,46703,1,2,0:0:0:0:
448,272,46875,6,0,B|416:304|416:304|432:360,1,90.0000034332277,4|0,0:0|0:0,0:0:0:0:
440,376,47220,6,0,L|352:384,1,80,4|0,0:0|3:0,0:0:0:0:
448,272,47910,2,0,L|360:280,1,80,2|0,0:0|3:0,0:0:0:0:
472,136,48427,1,2,0:0:0:0:
464,152,48513,1,2,0:0:0:0:
456,168,48599,6,0,L|368:176,1,80,2|0,0:0|0:3,0:0:0:0:
464,64,48944,2,0,L|376:72,1,80,2|0,0:0|0:3,0:0:0:0:
208,88,49289,6,0,L|152:104,1,40,2|2,0:0|0:0,0:0:0:0:
48,136,49461,2,0,L|104:152,1,40,2|2,0:0|0:0,0:0:0:0:
152,232,49634,6,0,L|208:248,1,40,2|2,0:0|0:0,0:0:0:0:
312,280,49806,2,0,L|256:296,1,40,0|2,0:0|0:0,0:0:0:0:
151,383,49979,6,0,L|72:376,1,80,2|0,0:0|3:0,0:0:0:0:
143,279,50669,2,0,L|64:272,1,80,2|0,0:0|3:0,0:0:0:0:
152,144,51186,1,2,0:0:0:0:
144,160,51272,1,2,0:0:0:0:
135,175,51358,6,0,L|56:168,1,80,2|0,0:0|3:0,0:0:0:0:
48,64,51703,2,0,L|136:72,1,80,2|0,0:0|3:0,0:0:0:0:
272,240,52048,6,0,L|328:256,1,40,2|2,0:0|0:0,0:0:0:0:
464,136,52220,2,0,L|408:152,1,40,0|0,0:0|0:0,0:0:0:0:
272,160,52393,6,0,L|328:176,1,40,2|0,0:0|0:0,0:0:0:0:
462,61,52565,2,0,L|424:72,1,40,2|2,0:0|0:0,0:0:0:0:
448,224,52737,6,0,L|456:336,1,80,2|0,0:0|3:0,0:0:0:0:
272,240,53255,1,0,3:0:0:0:
344,264,53427,2,0,L|352:376,1,80,2|0,0:0|3:0,0:0:0:0:
160,280,53944,1,2,0:0:0:0:
196,293,54030,1,2,0:0:0:0:
232,304,54117,6,0,L|240:416,1,80,2|0,0:0|3:0,0:0:0:0:
448,224,54461,2,0,L|456:336,1,80,2|0,0:0|3:0,0:0:0:0:
288,192,54806,6,0,L|296:144,1,40,2|2,0:0|0:0,0:0:0:0:
320,40,54979,2,0,L|272:32,1,40,2|2,0:0|0:0,0:0:0:0:
176,16,55151,2,0,L|168:64,1,40,2|2,0:0|0:0,0:0:0:0:
144,168,55324,2,0,L|192:176,1,40,0|2,0:0|0:0,0:0:0:0:
64,224,55496,6,0,L|56:336,1,80,2|0,0:0|3:0,0:0:0:0:
240,240,56014,1,0,3:0:0:0:
168,264,56186,2,0,L|160:376,1,80,2|0,0:0|3:0,0:0:0:0:
274,383,56530,2,0,L|280:304,1,80,2|2,0:0|0:0,0:0:0:0:
240,240,56789,1,2,0:0:0:0:
208,168,56875,6,0,P|200:120|232:56,1,120,4|4,0:0|0:0,0:0:0:0:
368,88,57392,2,0,P|376:136|344:200,1,120,4|0,0:0|0:0,0:0:0:0:
240,140,57737,6,0,P|240:112|256:88,1,40,10|10,0:0|0:0,0:0:0:0:
336,120,57910,2,0,P|337:143|322:166,1,40,8|0,0:0|0:0,0:0:0:0:
184,320,58255,5,2,0:0:0:0:
152,328,58341,1,0,0:0:0:0:
120,336,58427,1,0,0:0:0:0:
88,328,58513,1,0,0:0:0:0:
56,320,58599,1,8,0:0:0:0:
8,176,58772,6,0,L|56:112,1,80,0|2,0:0|0:0,0:0:0:0:
88,104,59030,1,0,0:0:0:0:
120,96,59117,1,0,0:0:0:0:
152,104,59203,1,0,0:0:0:0:
184,112,59289,2,0,L|232:176,1,80,8|0,0:0|0:0,0:0:0:0:
240,208,59548,1,0,0:0:0:0:
224,240,59634,6,0,L|176:256,3,40,2|0|0|0,0:0|0:0|0:0|0:0,0:0:0:0:
120,256,59979,1,8,0:0:0:0:
8,176,60151,1,0,0:0:0:0:
0,208,60237,1,0,0:0:0:0:
16,240,60324,6,0,L|64:256,3,40,2|0|0|0,0:0|0:0|0:0|0:0,0:0:0:0:
120,256,60668,1,8,0:0:0:0:
120,96,60841,2,0,L|120:152,1,40,2|0,0:0|0:0,0:0:0:0:
184,184,61013,6,0,P|224:160|232:112,1,80,2|0,0:0|0:0,0:0:0:0:
232,96,61272,1,0,0:0:0:0:
224,64,61358,1,8,0:0:0:0:
16,64,61530,1,0,0:0:0:0:
8,96,61617,1,0,0:0:0:0:
7,138,61703,1,2,0:0:0:0:
25,166,61789,1,0,0:0:0:0:
56,184,61875,1,0,0:0:0:0:
184,184,62048,1,8,0:0:0:0:
120,256,62220,2,0,L|120:304,1,40
40,336,62392,5,2,0:0:0:0:
120,256,62565,1,0,0:0:0:0:
200,336,62737,1,8,0:0:0:0:
160,352,62824,1,0,0:0:0:0:
120,336,62910,1,0,0:0:0:0:
72,352,62996,1,0,0:0:0:0:
40,336,63082,6,0,L|0:352,2,40,2|0|0,0:0|0:0|0:0,0:0:0:0:
200,336,63427,5,2,0:0:0:0:
216,344,63513,1,2,0:0:0:0:
232,352,63599,1,2,0:0:0:0:
328,320,63772,5,6,0:0:0:0:
360,328,63858,1,0,0:0:0:0:
392,336,63944,1,0,0:0:0:0:
424,328,64030,1,0,0:0:0:0:
456,320,64116,1,8,0:0:0:0:
456,224,64289,6,0,L|464:184,1,40
456,112,64461,1,2,0:0:0:0:
424,104,64547,1,0,0:0:0:0:
392,96,64634,1,0,0:0:0:0:
360,104,64720,1,0,0:0:0:0:
328,112,64806,1,8,0:0:0:0:
328,224,64979,6,0,L|320:184,2,40,0|0|2,0:0|0:0|0:0,0:0:0:0:
336,256,65237,2,0,B|336:304|336:304|360:328,1,80,0|2,0:0|0:0,0:0:0:0:
392,336,65496,1,8,0:0:0:0:
456,224,65668,6,0,L|464:184,2,40,2|0|2,0:0|0:0|0:0,0:0:0:0:
448,256,65926,2,0,B|448:304|448:304|424:328,1,80,0|2,0:0|0:0,0:0:0:0:
392,336,66185,1,8,0:0:0:0:
392,136,66358,2,0,L|392:96,1,40,2|8,0:0|0:0,0:0:0:0:
320,40,66530,6,0,B|304:128|304:128|256:160,1,120,4|4,0:0|0:0,0:0:0:0:
392,16,67048,1,0,1:0:0:0:
464,40,67220,6,0,B|480:128|480:128|528:160,1,120,4|4,0:0|0:0,0:0:0:0:
392,16,67737,1,0,1:0:0:0:
344,200,67910,5,6,0:0:0:0:
376,208,67996,1,0,0:0:0:0:
408,208,68082,1,0,0:0:0:0:
440,200,68168,2,0,P|393:169|344:202,1,120,6|4,0:0|0:0,0:0:0:0:
336,232,68470,2,2,L|336:264,2,20
312,208,68599,5,4,0:0:0:0:
256,40,68772,1,2,0:0:0:0:
200,208,68944,2,0,B|183:263|183:263|152:280,1,90.0000034332277,4|0,3:0|0:0,0:0:0:0:
120,296,69289,5,4,3:0:0:0:
56,320,69461,1,0,0:0:0:0:
32,256,69634,1,0,0:0:0:0:
56,128,69806,5,0,3:0:0:0:
32,64,69978,1,0,0:0:0:0:
96,40,70151,1,0,0:0:0:0:
232,64,70324,5,0,3:0:0:0:
296,40,70496,1,0,0:0:0:0:
320,104,70669,1,0,0:0:0:0:
296,232,70841,5,0,3:0:0:0:
320,296,71013,1,0,0:0:0:0:
256,320,71186,1,0,0:0:0:0:
128,104,71358,5,0,3:0:0:0:
256,128,71530,1,0,0:0:0:0:
224,256,71703,1,0,3:0:0:0:
96,232,71875,2,0,L|80:191,1,40
56,128,72048,5,0,3:0:0:0:
32,64,72220,1,0,0:0:0:0:
96,40,72393,1,0,0:0:0:0:
232,64,72566,5,0,3:0:0:0:
296,40,72738,1,0,0:0:0:0:
320,104,72911,1,0,0:0:0:0:
296,232,73083,5,0,3:0:0:0:
320,296,73255,1,0,0:0:0:0:
256,320,73428,1,0,0:0:0:0:
120,296,73599,5,0,3:0:0:0:
56,320,73771,1,0,0:0:0:0:
32,256,73944,1,0,0:0:0:0:
256,128,74117,5,0,3:0:0:0:
224,256,74290,1,0,0:0:0:0:
96,232,74461,1,0,3:0:0:0:
120,104,74634,2,0,L|176:88,1,40,0|0,0:0|3:0,0:0:0:0:
232,64,74806,5,0,3:0:0:0:
296,40,74978,1,2,0:0:0:0:
320,104,75151,1,0,0:0:0:0:
296,232,75323,5,0,3:0:0:0:
307,266,75410,1,0,0:0:0:0:
320,296,75495,1,2,0:0:0:0:
286,309,75582,1,2,0:0:0:0:
256,320,75668,1,2,0:0:0:0:
120,296,75841,5,0,3:0:0:0:
56,320,76013,5,2,0:0:0:0:
32,256,76186,1,2,0:0:0:0:
56,128,76358,5,0,3:3:0:0:
32,64,76530,1,2,0:0:0:0:
96,40,76703,2,0,L|141:27,1,40
232,64,76875,5,2,3:2:0:0:
265,51,76961,1,2,0:0:0:0:
296,40,77047,1,2,0:0:0:0:
320,104,77220,1,0,3:0:0:0:
296,232,77392,5,0,3:0:0:0:
320,296,77564,1,2,3:0:0:0:
287,309,77651,1,2,0:0:0:0:
256,320,77737,1,2,0:0:0:0:
96,232,77910,6,0,L|48:248,1,40
120,104,78082,6,0,L|104:56,1,40
256,128,78255,6,0,L|304:112,1,40
232,256,78427,6,0,L|248:304,1,40
176,184,78599,5,0,0:0:0:0:
176,184,78686,1,0,0:0:0:0:
176,184,78772,1,0,0:0:0:0:
176,184,78858,1,0,0:0:0:0:
176,184,78944,6,0,L|184:152,24,20,2|2|2|2|2|2|2|2|2|2|2|2|2|2|2|2|2|2|2|2|2|2|2|2|2,0:0|0:0|0:0|0:0|0:0|0:0|0:0|0:0|0:0|0:0|0:0|0:0|0:0|0:0|0:0|0:0|0:0|0:0|0:0|0:0|0:0|0:0|0:0|0:0|0:0,0:0:0:0:
256,8,80151,1,2,0:0:0:0:
192,56,80324,6,0,B|120:48|120:48|56:136,1,180.000006866455,4|0,0:0|0:0,0:0:0:0:
112,184,80668,6,0,B|154:124|154:124|210:131,1,120,8|0,0:0|0:0,0:0:0:0:
192,200,81013,6,0,L|141:271,1,80,2|8,0:0|0:0,0:0:0:0:
88,360,81530,1,2,3:0:0:0:
88,360,81617,1,2,3:0:0:0:
88,360,81703,6,0,P|168:368|200:336,1,120.000004577637,2|0,0:0|0:0,0:0:0:0:
200,304,81961,2,0,P|256:286|312:304,1,120.000004577637,2|0,0:0|0:0,0:0:0:0:
317,345,82220,2,0,P|344:368|424:360,1,120.000004577637,2|2,0:0|0:0,0:0:0:0:
384,272,82565,1,0,0:0:0:0:
256,384,82737,1,2,0:0:0:0:
128,272,82910,1,2,0:0:0:0:
320,56,83082,6,0,B|392:48|392:48|456:136,1,180.000006866455,2|0,0:0|0:0,0:0:0:0:
400,184,83427,6,0,B|358:124|358:124|302:131,1,120,8|0,0:0|0:0,0:0:0:0:
320,200,83772,6,0,L|371:271,1,80,2|8,0:0|0:0,0:0:0:0:
424,360,84289,1,2,3:0:0:0:
424,360,84376,1,0,3:0:0:0:
424,360,84461,6,0,P|360:312|256:320,1,180.000006866455,2|2,0:0|0:0,0:0:0:0:
70,330,84979,1,2,0:0:0:0:
70,330,85151,6,0,P|134:378|222:362,1,160,0|2,0:0|0:0,0:0:0:0:
200,72,85668,1,2,0:0:0:0:
168,64,85755,1,2,0:0:0:0:
136,56,85841,6,0,B|96:184|96:184|148:200,1,180.000006866455,6|0,0:0|0:0,0:0:0:0:
208,224,86186,6,0,B|230:155|230:155|176:137,1,120,8|0,0:0|0:0,0:0:0:0:
140,197,86530,6,0,L|114:283,1,80,2|8,0:0|0:0,0:0:0:0:
96,352,87048,1,2,3:0:0:0:
112,360,87134,1,2,3:0:0:0:
136,368,87220,6,0,P|208:376|288:288,1,180.000006866455,2|2,0:0|0:0,0:0:0:0:
304,224,87565,1,0,0:0:0:0:
256,104,87737,1,2,0:0:0:0:
208,224,87910,1,2,0:0:0:0:
228,307,88082,2,0,P|304:376|376:368,1,180.000006866455,2|0,0:0|0:0,0:0:0:0:
440,336,88427,1,2,0:0:0:0:
376,56,88599,6,0,B|416:184|416:184|360:204,1,180.000006866455,2|0,0:0|0:0,0:0:0:0:
304,224,88944,6,0,B|282:155|282:155|336:137,1,120,8|0,0:0|0:0,0:0:0:0:
374,200,89289,6,0,L|401:286,1,80,2|8,0:0|0:0,0:0:0:0:
416,352,89806,1,2,3:0:0:0:
400,360,89892,1,0,0:0:0:0:
384,368,89979,6,0,P|396:278|480:248,1,180.000006866455,2|2,0:0|0:0,0:0:0:0:
470,246,90324,1,2,0:0:0:0:
256,320,90496,1,2,0:0:0:0:
41,246,90668,1,0,0:0:0:0:
144,168,90841,1,2,0:0:0:0:
136,136,90927,1,2,0:0:0:0:
128,104,91013,6,0,B|85:146|85:146|144:168|144:168|156:231,1,160,2|2,0:0|0:0,0:0:0:0:
392,184,91358,6,0,B|400:96|400:96|312:64,1,180.000006866455,6|0,0:0|0:0,0:0:0:0:
260,116,91703,6,0,B|268:176|268:176|320:209,1,120,8|0,0:0|0:0,0:0:0:0:
396,101,92048,6,0,L|473:55,1,80,2|8,0:0|0:0,0:0:0:0:
464,192,92565,1,2,3:0:0:0:
464,208,92651,1,2,3:0:0:0:
464,224,92737,6,0,P|368:232|328:336,1,180.000006866455,2|2,0:0|0:0,0:0:0:0:
344,368,93082,2,0,L|464:352,1,120.000004577637,0|2,0:0|0:0,0:0:0:0:
360,200,93427,1,2,0:0:0:0:
239,281,93599,1,0,3:0:0:0:
209,301,93686,1,0,3:0:0:0:
173,304,93772,1,2,3:2:0:0:
139,291,93858,1,0,3:0:0:0:
119,260,93944,1,2,3:2:0:0:
116,224,94030,1,0,3:0:0:0:
120,184,94117,6,0,B|112:96|112:96|200:64,1,180.000006866455,2|0,0:0|0:0,0:0:0:0:
252,116,94462,6,0,B|244:176|244:176|192:209,1,120,8|0,0:0|0:0,0:0:0:0:
116,101,94807,6,0,L|39:55,1,80,2|8,0:0|0:0,0:0:0:0:
48,192,95324,1,2,3:0:0:0:
48,208,95410,1,0,0:0:0:0:
48,224,95496,6,0,P|128:288|192:256,1,180.000006866455,2|2,0:0|0:0,0:0:0:0:
256,200,95841,2,0,L|240:80,1,120.000004577637,0|2,0:0|0:0,0:0:0:0:
184,8,96186,1,2,0:0:0:0:
56,96,96358,1,0,0:0:0:0:
80,120,96444,1,0,0:0:0:0:
112,136,96530,2,0,B|216:168|184:96|296:128,1,180.000006866455,2|2,0:0|0:0,0:0:0:0:
360,152,96875,6,0,B|448:136|448:136|480:32,1,180.000006866455,6|0,0:0|0:0,0:0:0:0:
411,10,97220,6,0,B|395:74|395:74|337:84,1,120,8|0,0:0|0:0,0:0:0:0:
396,69,97565,6,0,L|453:140,1,80,2|8,0:0|0:0,0:0:0:0:
432,288,98082,1,2,3:0:0:0:
432,272,98168,1,2,3:0:0:0:
432,256,98255,6,0,P|376:240|296:320,1,180.000006866455,2|2,0:0|0:0,0:0:0:0:
360,368,98599,1,0,0:0:0:0:
216,328,98772,2,0,L|88:344,2,120.000004577637,2|2|0,0:0|0:0|0:0,0:0:0:0:
267,218,99289,1,2,0:0:0:0:
245,191,99375,1,2,0:0:0:0:
223,165,99461,1,2,0:0:0:0:
188,158,99548,1,0,0:0:0:0:
152,152,99634,6,0,B|64:136|64:136|32:32,1,180.000006866455,2|0,0:0|0:0,0:0:0:0:
102,12,99979,6,0,B|118:76|118:76|176:86,1,120,8|0,0:0|0:0,0:0:0:0:
115,69,100324,6,0,L|58:140,1,80,2|8,0:0|0:0,0:0:0:0:
80,288,100841,1,2,3:0:0:0:
80,272,100927,1,0,0:0:0:0:
80,256,101013,6,0,L|216:216,1,120.000004577637,6|0,0:0|0:0,0:0:0:0:
208,296,101272,2,0,L|344:256,1,120.000004577637,6|0,0:0|0:0,0:0:0:0:
336,336,101530,2,0,L|472:296,1,120.000004577637,6|2,0:0|0:0,0:0:0:0:
460,308,101789,1,2,0:0:0:0:
460,308,101875,1,2,0:0:0:0:
448,104,102048,5,2,0:0:0:0:
384,56,102134,1,2,0:0:0:0:
376,136,102220,1,2,0:0:0:0:
88,80,102392,5,4,0:0:0:0:
48,176,102565,1,0,0:0:0:0:
56,200,102651,1,0,0:0:0:0:
64,224,102737,1,8,0:0:0:0:
144,192,102910,5,0,0:0:0:0:
152,216,102996,1,0,0:0:0:0:
160,240,103082,2,0,L|192:328,1,80,2|0,0:0|0:0,0:0:0:0:
272,304,103427,5,8,0:0:0:0:
280,328,103513,2,0,L|381:341,1,80
352,312,103772,1,2,0:0:0:0:
424,272,103944,5,0,0:0:0:0:
416,248,104030,1,0,0:0:0:0:
408,224,104116,1,8,0:0:0:0:
472,160,104289,1,0,0:0:0:0:
384,144,104461,5,2,0:0:0:0:
376,120,104547,1,0,0:0:0:0:
368,96,104633,1,0,0:0:0:0:
280,72,104806,5,8,0:0:0:0:
272,48,104892,1,0,0:0:0:0:
184,48,105065,5,2,0:0:0:0:
176,24,105151,1,2,0:0:0:0:
88,80,105324,5,0,0:0:0:0:
80,104,105410,1,0,0:0:0:0:
72,128,105496,1,8,0:0:0:0:
64,152,105582,1,0,0:0:0:0:
56,176,105668,1,0,0:0:0:0:
168,144,105841,5,2,0:0:0:0:
160,168,105927,1,0,0:0:0:0:
152,192,106013,2,0,L|128:272,1,80,0|8,0:0|0:0,0:0:0:0:
120,296,106272,2,0,L|200:328,1,80
188,348,106530,5,2,0:0:0:0:
248,176,106703,2,0,L|224:256,1,80,0|8,0:0|0:0,0:0:0:0:
336,144,107048,1,0,0:0:0:0:
424,112,107220,5,2,0:0:0:0:
432,88,107306,1,0,0:0:0:0:
440,64,107392,1,0,0:0:0:0:
360,56,107565,5,8,0:0:0:0:
368,32,107651,1,0,0:0:0:0:
288,24,107824,1,10,0:0:0:0:
272,40,107910,5,2,0:0:0:0:
248,48,107996,1,0,0:0:0:0:
224,56,108082,1,0,0:0:0:0:
200,64,108168,1,0,0:0:0:0:
176,72,108255,1,8,0:0:0:0:
88,104,108427,1,0,0:0:0:0:
264,136,108599,5,2,0:0:0:0:
240,144,108686,1,0,0:0:0:0:
216,152,108772,1,0,0:0:0:0:
112,232,108944,5,8,0:0:0:0:
136,224,109030,1,0,0:0:0:0:
272,232,109203,1,0,0:0:0:0:
248,240,109289,5,2,0:0:0:0:
272,248,109375,1,0,0:0:0:0:
296,256,109461,1,0,0:0:0:0:
320,264,109548,1,0,0:0:0:0:
344,272,109634,1,8,0:0:0:0:
432,296,109806,1,0,0:0:0:0:
256,328,109979,5,2,0:0:0:0:
280,336,110065,1,0,0:0:0:0:
304,344,110151,1,0,0:0:0:0:
400,376,110324,1,8,0:0:0:0:
424,384,110410,1,2,0:0:0:0:
432,296,110582,1,2,0:0:0:0:
456,304,110668,6,0,L|488:216,1,80,2|0,0:0|0:0,0:0:0:0:
472,208,110927,1,0,0:0:0:0:
456,184,111013,2,0,L|488:96,1,80,8|0,0:0|0:0,0:0:0:0:
440,24,111358,5,2,0:0:0:0:
336,64,111530,1,2,0:0:0:0:
232,104,111703,1,2,0:0:0:0:
224,96,111789,1,2,0:0:0:0:
128,144,111962,1,2,0:0:0:0:
120,160,112048,5,4,0:0:0:0:
392,160,112306,1,4,0:0:0:0:
256,312,112479,2,0,L|256:368,1,40,0|4,0:0|0:0,0:0:0:0:
256,368,112737,6,2,B|216:288|304:312|256:216,1,160,2|2,0:0|1:0,1:0:0:0:
256,208,112953,6,0,L|256:192,2,10
256,168,113082,6,0,L|256:100,1,60,2|2,0:0|3:0,0:0:0:0:
