osu file format v14

[General]
AudioFilename: audio.mp3
AudioLeadIn: 0
PreviewTime: 77565
Countdown: 0
SampleSet: Soft
StackLeniency: 0.6
Mode: 0
LetterboxInBreaks: 0
WidescreenStoryboard: 1

[Editor]
DistanceSpacing: 1.1
BeatDivisor: 4
GridSize: 32
TimelineZoom: 4.199999

[Metadata]
Title:polygon
TitleUnicode:polygon
Artist:Sota Fujimori
ArtistUnicode:Sota Fujimori
Creator:Kaifin
Version:Normal
Source:jubeat copious
Tags:REFLEC BEAT colette autumn fanzhen0019 bonzi revurii xlolicore-
BeatmapID:1213580
BeatmapSetID:559097

[Difficulty]
HPDrainRate:4
CircleSize:3
OverallDifficulty:4
ApproachRate:4.5
SliderMultiplier:0.999999999999999
SliderTickRate:1

[Events]
//Background and Video events
0,0,"polygonbg1080.png",0,0
//Break Periods
2,69489,76245
//Storyboard Layer 0 (Background)
//Storyboard Layer 1 (Fail)
//Storyboard Layer 2 (Pass)
//Storyboard Layer 3 (Foreground)
//Storyboard Sound Samples

[TimingPoints]
324,344.827586206897,4,3,0,70,1,0
2737,-100,4,3,2,50,0,0
3082,-100,4,2,1,70,0,0
20496,-100,4,2,0,70,0,0
20582,-100,4,2,1,70,0,0
20841,-100,4,2,0,70,0,0
20927,-100,4,2,1,70,0,0
21186,-100,4,2,0,70,0,0
21272,-100,4,2,1,70,0,0
21530,-100,4,2,0,70,0,0
21617,-100,4,2,1,70,0,0
22479,-100,4,2,0,70,0,0
23082,-100,4,2,1,70,0,0
23168,-100,4,2,0,70,0,0
23513,-100,4,2,1,70,0,0
35496,-100,4,2,1,40,0,0
35668,-100,4,2,1,55,0,0
35755,-100,4,2,1,70,0,0
36186,-100,4,2,1,70,0,1
39806,-100,4,2,8,70,0,1
39979,-100,4,2,1,70,0,1
40065,-100,4,2,8,70,0,1
40324,-100,4,2,1,70,0,1
40410,-100,4,2,8,70,0,1
40668,-100,4,2,1,70,0,1
40841,-100,4,2,8,70,0,1
41013,-100,4,2,1,70,0,1
42479,-100,4,2,8,70,0,1
42651,-100,4,2,1,70,0,1
42824,-100,4,2,8,70,0,1
43082,-100,4,2,1,70,0,1
43168,-100,4,2,8,70,0,1
43427,-100,4,2,1,70,0,1
43513,-100,4,2,8,70,0,1
44117,-100,4,2,1,70,0,1
45237,-100,4,2,8,70,0,1
45410,-100,4,2,1,70,0,1
45582,-100,4,2,8,70,0,1
45755,-100,4,2,1,70,0,1
47220,-100,4,2,1,70,0,0
49375,-100,4,2,8,70,0,0
49634,-100,4,2,1,70,0,0
49720,-100,4,2,8,70,0,0
49979,-100,4,2,1,70,0,0
52134,-100,4,2,8,70,0,0
52565,-100,4,2,1,70,0,0
54892,-100,4,2,8,70,0,0
55151,-100,4,2,1,70,0,0
55237,-100,4,2,8,70,0,0
55496,-100,4,2,1,70,0,0
68599,-100,4,2,1,50,0,0
68944,-100,4,2,1,70,0,0
69289,-100,4,2,8,40,0,0
79720,-100,4,2,1,75,0,0
80324,-100,4,2,1,75,0,1
81703,-100,4,2,1,75,0,1
83082,-100,4,2,1,75,0,1
84461,-100,4,2,1,75,0,1
85496,-100,4,2,1,75,0,1
87220,-100,4,2,1,75,0,1
88599,-100,4,2,1,75,0,1
89979,-100,4,2,1,75,0,1
90841,-100,4,2,1,75,0,1
92737,-100,4,2,1,75,0,1
94117,-100,4,2,1,75,0,1
95496,-100,4,2,1,75,0,1
96703,-100,4,2,1,75,0,1
98255,-100,4,2,1,75,0,1
99634,-100,4,2,1,75,0,1
102392,-100,4,2,1,70,0,0

[Colours]
Combo1 : 255,136,255
Combo2 : 255,155,106
Combo3 : 100,170,255
Combo4 : 243,56,84

[HitObjects]
256,192,324,12,2,2048,0:0:0:0:
324,298,3082,6,0,L|438:281,1,99.9999999999999,6|8,0:0|0:0,0:0:0:0:
465,181,3772,2,0,L|351:198,1,99.9999999999999,2|8,0:0|0:0,0:0:0:0:
257,213,4461,1,2,3:1:0:0:
257,213,4806,1,8,0:0:0:0:
148,229,5151,2,0,L|155:169,1,50,2|0,0:0|0:0,0:0:0:0:
162,124,5496,2,0,L|169:64,1,50,8|0,0:0|0:0,0:0:0:0:
217,50,5841,6,0,P|265:39|325:58,1,99.9999999999999,2|8,0:0|0:0,0:0:0:0:
410,102,6530,2,0,P|422:53|411:5,1,99.9999999999999,2|8,0:0|0:0,0:0:0:0:
313,51,7220,1,2,3:1:0:0:
313,51,7565,1,8,0:0:0:0:
264,149,7910,2,0,L|257:209,1,50,2|0,0:0|0:0,0:0:0:0:
250,254,8255,2,0,L|243:314,1,50,8|0,0:0|0:0,0:0:0:0:
191,317,8599,6,0,L|81:321,1,99.9999999999999,2|8,0:0|0:0,0:0:0:0:
35,225,9289,2,0,L|145:221,1,99.9999999999999,2|8,0:0|0:0,0:0:0:0:
185,123,9979,1,2,3:1:0:0:
185,123,10324,1,8,0:0:0:0:
89,69,10668,2,0,L|81:133,1,50,2|0,0:0|0:0,0:0:0:0:
75,173,11013,2,0,L|67:237,1,50,8|0,0:0|0:0,0:0:0:0:
98,269,11358,6,0,P|149:270|208:241,1,99.9999999999999,2|8,0:0|0:0,0:0:0:0:
285,190,12048,2,0,P|303:236|302:285,1,99.9999999999999,2|8,0:0|0:0,0:0:0:0:
215,354,12737,2,0,L|129:368,2,74.9999999999999,4|4|4,0:0|0:0|0:0,0:0:0:0:
490,365,14117,6,0,L|501:248,1,99.9999999999999,6|8,0:0|0:0,0:0:0:0:
428,181,14806,1,2,0:0:0:0:
390,284,15151,1,8,0:0:0:0:
499,265,15496,1,2,0:0:0:0:
428,181,15841,2,0,L|311:170,1,99.9999999999999,8|2,0:0|0:0,0:0:0:0:
218,162,16530,2,0,L|228:97,1,50,8|2,0:0|0:0,0:0:0:0:
264,73,16875,6,0,L|381:84,1,99.9999999999999,2|8,0:0|0:0,0:0:0:0:
472,101,17565,1,2,0:0:0:0:
401,185,17910,1,8,0:0:0:0:
363,82,18255,1,2,0:0:0:0:
472,101,18599,2,0,P|485:152|491:213,1,99.9999999999999,8|2,0:0|0:0,0:0:0:0:
410,275,19289,2,0,L|341:269,1,50,8|2,0:0|0:0,0:0:0:0:
320,308,19634,6,0,L|220:317,1,99.9999999999999,6|8,0:0|0:0,0:0:0:0:
110,327,20324,1,2,0:0:0:0:
156,227,20669,1,8,0:0:0:0:
220,317,21014,1,2,0:0:0:0:
110,327,21358,2,0,L|10:336,1,99.9999999999999,8|2,0:0|0:0,0:0:0:0:
22,226,22048,2,0,L|71:230,1,50,8|2,0:0|0:0,0:0:0:0:
117,200,22392,6,0,P|159:172|206:178,1,99.9999999999999,2|0,0:0|0:0,0:0:0:0:
298,239,23082,2,0,P|346:244|387:217,1,99.9999999999999,2|2,0:0|0:0,0:0:0:0:
474,149,23772,2,0,L|492:266,1,99.9999999999999,0|2,0:0|0:0,0:0:0:0:
404,317,24461,2,0,L|392:382,2,50,6|6|6,0:0|0:0|0:0,0:0:0:0:
303,362,25151,6,0,L|204:346,1,99.9999999999999,4|8,0:0|0:0,0:0:0:0:
125,269,25841,2,0,L|223:253,1,99.9999999999999,0|8,0:0|0:0,0:0:0:0:
332,238,26530,1,2,0:0:0:0:
317,129,26875,1,8,0:0:0:0:
208,144,27220,1,0,0:0:0:0:
223,253,27565,1,8,0:0:0:0:
332,238,27910,6,0,P|380:241|414:207,1,99.9999999999999,2|8,0:0|0:0,0:0:0:0:
488,126,28599,2,0,L|512:246,1,99.9999999999999,0|8,3:0|0:0,0:0:0:0:
434,305,29289,2,0,L|410:185,1,99.9999999999999,0|8,3:0|0:0,0:0:0:0:
396,98,29979,1,2,0:0:0:0:
315,172,30324,2,0,L|249:165,1,50,8|2,0:0|0:0,0:0:0:0:
223,131,30668,6,0,L|124:146,1,99.9999999999999,6|8,0:0|0:0,0:0:0:0:
45,224,31358,2,0,L|143:239,1,99.9999999999999,0|8,3:0|0:0,0:0:0:0:
252,255,32047,1,0,3:0:0:0:
237,364,32392,1,8,0:0:0:0:
128,349,32737,1,0,3:0:0:0:
143,240,33082,1,8,0:0:0:0:
252,255,33427,6,0,L|228:135,1,99.9999999999999,0|8,3:0|0:0,0:0:0:0:
335,195,34117,2,0,L|455:171,1,99.9999999999999,0|8,3:0|0:0,0:0:0:0:
395,278,34806,2,0,L|413:370,2,74.9999999999999,4|4|4,0:0|0:0|0:0,0:0:0:0:
163,128,36186,6,0,P|209:114|272:127,1,99.9999999999999,4|8,0:0|0:0,0:0:0:0:
354,177,36875,2,0,P|403:184|450:170,1,99.9999999999999,2|8,0:0|0:0,0:0:0:0:
395,74,37565,1,2,0:0:0:0:
299,18,37910,1,8,0:0:0:0:
259,121,38255,2,0,L|246:235,1,99.9999999999999,2|8,0:0|0:0,0:0:0:0:
302,315,38944,6,0,P|256:329|193:316,1,99.9999999999999,2|8,0:0|0:0,0:0:0:0:
111,266,39634,2,0,P|61:258|14:272,1,99.9999999999999,2|8,0:0|0:0,0:0:0:0:
71,367,40324,1,2,0:0:0:0:
71,367,40668,1,8,0:0:0:0:
178,345,41013,2,0,L|193:276,1,50,2|2,0:0|0:0,0:0:0:0:
240,276,41358,2,0,L|255:207,1,50,8|2,0:0|0:0,0:0:0:0:
302,207,41703,6,0,B|333:183|333:183|414:192,1,99.9999999999999,4|8,0:0|0:0,0:0:0:0:
473,265,42392,2,0,B|442:289|442:289|361:280,1,99.9999999999999,2|8,0:0|0:0,0:0:0:0:
307,363,43082,1,2,0:0:0:0:
240,276,43427,1,10,0:0:0:0:
173,363,43772,2,0,L|59:350,1,99.9999999999999,2|8,0:0|0:0,0:0:0:0:
6,264,44461,6,0,L|19:150,1,99.9999999999999,2|8,0:0|0:0,0:0:0:0:
105,97,45151,2,0,L|219:110,1,99.9999999999999,2|8,0:0|0:0,0:0:0:0:
272,196,45841,1,2,3:0:0:0:
272,196,46186,1,2,3:0:0:0:
321,98,46530,2,0,L|329:46,2,50,2|2|4,3:0|0:0|0:0,0:0:0:0:
378,192,47220,6,0,B|436:243|436:243|502:139,1,200,4|2,0:0|0:0,0:0:0:0:
423,61,48255,1,2,0:0:0:0:
313,45,48599,6,0,L|213:56,1,99.9999999999999,2|2,0:0|0:0,0:0:0:0:
104,69,49289,1,2,0:0:0:0:
117,178,49634,1,2,0:0:0:0:
226,165,49979,6,0,L|248:363,1,200,2|2,0:0|0:0,0:0:0:0:
352,371,51014,1,2,0:0:0:0:
412,279,51358,6,0,L|511:267,1,99.9999999999999,2|2,0:0|0:0,0:0:0:0:
512,377,52048,1,2,0:0:0:0:
402,366,52392,2,0,L|352:372,1,50,0|2,3:0|3:0,0:0:0:0:
300,352,52737,6,0,L|288:253,1,99.9999999999999,2|0,0:0|0:0,0:0:0:0:
185,212,53427,2,0,L|197:311,1,99.9999999999999,2|0,3:0|0:0,0:0:0:0:
287,252,54117,6,0,L|386:240,1,99.9999999999999,0|2,3:0|0:0,0:0:0:0:
427,137,54807,2,0,L|328:149,1,99.9999999999999,2|2,0:0|0:0,0:0:0:0:
218,162,55496,5,2,0:0:0:0:
109,175,55841,1,0,0:0:0:0:
122,284,56186,1,0,3:0:0:0:
231,271,56530,1,2,0:0:0:0:
218,162,56875,6,0,L|209:87,2,74.9999999999999,4|4|4,0:0|0:0|0:0,0:0:0:0:
475,64,58255,6,0,B|408:27|408:27|304:93,1,200,2|2,0:0|0:0,0:0:0:0:
218,162,59289,1,8,0:0:0:0:
321,200,59634,2,0,L|419:184,1,99.9999999999999,2|8,0:0|0:0,0:0:0:0:
494,266,60324,2,0,L|395:281,1,99.9999999999999,2|8,0:0|0:0,0:0:0:0:
286,298,61013,6,0,L|187:313,1,99.9999999999999,2|8,0:0|0:0,0:0:0:0:
84,353,61703,2,0,L|68:254,1,99.9999999999999,2|8,0:0|0:0,0:0:0:0:
29,151,62392,2,0,L|127:135,1,99.9999999999999,2|8,0:0|0:0,0:0:0:0:
231,96,63082,2,0,L|246:194,1,99.9999999999999,2|2,0:0|0:0,0:0:0:0:
286,298,63772,6,0,P|379:310|426:215,1,200,6|2,0:0|0:0,0:0:0:0:
348,152,64806,1,8,0:0:0:0:
246,194,65151,2,0,L|148:179,1,99.9999999999999,2|8,0:0|0:0,0:0:0:0:
105,76,65841,2,0,L|203:91,1,99.9999999999999,2|8,0:0|0:0,0:0:0:0:
314,78,66530,6,0,P|382:78|428:155,1,150,4|0,0:0|0:0,0:0:0:0:
471,173,67220,2,0,L|306:188,1,150,4|0,0:0|1:0,0:0:0:0:
266,191,67910,1,0,0:0:0:0:
181,261,68255,1,0,0:0:0:0:
266,331,68599,2,0,L|334:326,2,50,4|4|4,0:0|0:0|3:0,0:0:0:0:
163,369,69289,5,4,0:0:0:0:
256,192,77565,12,2,79289,0:0:0:0:
328,323,80324,6,0,L|436:314,1,99.9999999999999,2|8,0:0|0:0,0:0:0:0:
486,221,81013,2,0,L|378:230,1,99.9999999999999,2|8,0:0|0:0,0:0:0:0:
276,226,81703,1,2,0:0:0:0:
213,316,82048,1,8,0:0:0:0:
165,217,82392,2,0,L|169:163,1,50,2|2,0:0|0:0,0:0:0:0:
213,134,82737,2,0,L|217:80,1,50,8|2,0:0|0:0,0:0:0:0:
261,51,83082,6,0,L|360:59,1,99.9999999999999,2|8,0:0|0:0,0:0:0:0:
438,137,83772,2,0,L|338:145,1,99.9999999999999,2|8,0:0|0:0,0:0:0:0:
258,221,84461,1,2,0:0:0:0:
338,297,84806,1,8,0:0:0:0:
258,373,85151,2,0,L|204:368,1,50,2|2,0:0|0:0,0:0:0:0:
167,331,85496,2,0,L|113:335,1,50,8|2,0:0|0:0,0:0:0:0:
76,373,85841,6,0,P|60:323|68:255,1,99.9999999999999,6|8,0:0|0:0,0:0:0:0:
144,203,86530,2,0,P|141:150|111:89,1,99.9999999999999,2|8,0:0|0:0,0:0:0:0:
17,77,87220,1,2,0:0:0:0:
17,77,87565,1,8,0:0:0:0:
101,6,87910,2,0,L|155:11,1,50,2|2,0:0|0:0,0:0:0:0:
193,45,88255,2,0,L|247:41,1,50,8|2,0:0|0:0,0:0:0:0:
277,84,88600,6,0,P|293:134|285:202,1,99.9999999999999,2|8,0:0|0:0,0:0:0:0:
237,276,89289,2,0,P|240:329|270:390,1,99.9999999999999,2|8,0:0|0:0,0:0:0:0:
366,355,89979,1,2,0:0:0:0:
475,338,90324,1,8,0:0:0:0:
403,255,90668,2,0,L|407:201,1,50,2|2,0:0|0:0,0:0:0:0:
455,179,91013,2,0,L|451:125,1,50,10|2,0:0|0:0,0:0:0:0:
403,103,91358,6,0,P|359:82|304:87,1,99.9999999999999,6|8,0:0|0:0,0:0:0:0:
207,128,92048,2,0,P|157:131|112:110,1,99.9999999999999,2|8,0:0|0:0,0:0:0:0:
28,39,92737,1,2,0:0:0:0:
11,147,93082,1,8,0:0:0:0:
28,255,93427,2,0,L|91:245,1,50,2|0,0:0|3:0,0:0:0:0:
122,278,93772,2,0,L|185:288,1,50,2|2,3:2|3:2,0:0:0:0:
216,255,94117,6,0,P|260:234|315:239,1,99.9999999999999,2|8,0:0|0:0,0:0:0:0:
412,280,94807,2,0,P|461:283|509:262,1,99.9999999999999,2|8,0:0|0:0,0:0:0:0:
442,172,95496,1,2,0:0:0:0:
442,172,95841,1,8,0:0:0:0:
340,129,96186,2,0,L|277:119,1,50,2|2,0:0|0:0,0:0:0:0:
246,152,96531,2,0,L|183:162,1,50,2|2,0:0|0:0,0:0:0:0:
149,132,96875,6,0,L|167:17,1,99.9999999999999,6|8,0:0|0:0,0:0:0:0:
274,22,97565,2,0,L|292:136,1,99.9999999999999,2|8,0:0|0:0,0:0:0:0:
308,229,98255,1,2,0:0:0:0:
199,248,98599,1,8,0:0:0:0:
218,357,98944,2,0,L|278:347,1,50,2|2,0:0|0:0,0:0:0:0:
321,338,99289,2,0,L|381:328,1,50,2|2,0:0|0:0,0:0:0:0:
424,319,99634,6,0,L|405:204,1,99.9999999999999,2|8,0:0|0:0,0:0:0:0:
484,139,100324,2,0,L|502:253,1,99.9999999999999,2|8,0:0|0:0,0:0:0:0:
408,220,101013,2,0,L|333:231,2,74.9999999999999,6|6|6,0:0|0:0|0:0,0:0:0:0:
400,165,101703,2,0,L|381:50,1,99.9999999999999,2|2,0:0|0:0,0:0:0:0:
276,46,102392,6,0,L|161:64,1,99.9999999999999,4|8,0:0|0:0,0:0:0:0:
157,170,103082,2,0,L|175:284,1,99.9999999999999,2|8,0:0|0:0,0:0:0:0:
281,289,103772,2,0,L|395:270,1,99.9999999999999,2|8,0:0|0:0,0:0:0:0:
400,165,104461,2,0,L|381:50,1,99.9999999999999,2|8,0:0|0:0,0:0:0:0:
276,46,105151,5,2,0:0:0:0:
169,66,105496,1,8,0:0:0:0:
62,86,105841,2,0,L|80:200,1,99.9999999999999,2|8,0:0|0:0,0:0:0:0:
184,164,106530,2,0,L|168:65,1,99.9999999999999,2|8,0:0|0:0,0:0:0:0:
276,46,107220,1,2,0:0:0:0:
296,153,107565,1,8,0:0:0:0:
316,260,107910,6,0,L|202:279,1,99.9999999999999,2|8,0:0|0:0,0:0:0:0:
123,333,108599,2,0,L|104:219,1,99.9999999999999,2|8,0:0|0:0,0:0:0:0:
50,140,109289,2,0,L|164:121,1,99.9999999999999,2|8,0:0|0:0,0:0:0:0:
243,67,109979,2,0,L|262:181,1,99.9999999999999,2|8,0:0|0:0,0:0:0:0:
316,260,110668,5,2,0:0:0:0:
378,169,111013,1,8,0:0:0:0:
259,165,111358,2,0,L|202:174,1,50,2|2,0:0|0:0,0:0:0:0:
169,210,111703,2,0,L|119:218,1,50,2|0,0:0|0:0,0:0:0:0:
79,255,112048,6,0,L|91:328,2,74.9999999999999,4|4|4,0:0|0:0|0:0,0:0:0:0:
194,372,113082,2,0,L|268:360,1,74.9999999999999,2|2,0:0|3:0,0:0:0:0:
