osu file format v14

[General]
AudioFilename: audio.mp3
AudioLeadIn: 0
PreviewTime: 77565
Countdown: 0
SampleSet: None
StackLeniency: 0.3
Mode: 0
LetterboxInBreaks: 0
WidescreenStoryboard: 1

[Editor]
Bookmarks: 58255
DistanceSpacing: 1
BeatDivisor: 4
GridSize: 32
TimelineZoom: 4.199999

[Metadata]
Title:polygon
TitleUnicode:polygon
Artist:Sota Fujimori
ArtistUnicode:Sota Fujimori
Creator:Kaifin
Version:Lolirii's Collab Expert
Source:jubeat copious
Tags:REFLEC BEAT colette autumn fanzhen0019 bonzi revurii xlolicore-
BeatmapID:1225627
BeatmapSetID:559097

[Difficulty]
HPDrainRate:6
CircleSize:4
OverallDifficulty:8.5
ApproachRate:9.4
SliderMultiplier:2
SliderTickRate:1

[Events]
//Background and Video events
0,0,"polygonbg1080.png",0,0
//Break Periods
//Storyboard Layer 0 (Background)
//Storyboard Layer 1 (Fail)
//Storyboard Layer 2 (Pass)
//Storyboard Layer 3 (Foreground)
//Storyboard Sound Samples

[TimingPoints]
324,344.827586206897,4,3,0,70,1,0
2392,-100,4,2,0,50,0,0
2565,-100,4,3,0,70,0,0
2737,-88.4955752212389,4,3,2,50,0,0
3082,-66.6666666666667,4,2,1,70,0,0
3599,-100,4,2,1,70,0,0
4117,-66.6666666666667,4,2,1,70,0,0
5151,-100,4,2,1,70,0,0
5496,-66.6666666666667,4,2,1,70,0,0
6358,-100,4,2,1,70,0,0
6875,-66.6666666666667,4,2,1,70,0,0
7910,-100,4,2,1,70,0,0
8255,-66.6666666666667,4,2,1,70,0,0
9117,-100,4,2,1,70,0,0
9634,-66.6666666666667,4,2,1,70,0,0
10668,-100,4,2,1,70,0,0
11013,-66.6666666666667,4,2,1,70,0,0
11358,-100,4,2,1,70,0,0
12737,-50,4,2,1,70,0,0
13427,-133.333333333333,4,2,1,70,0,0
14117,-90.9090909090909,4,2,1,70,0,0
14461,-80,4,2,1,70,0,0
14806,-100,4,2,1,70,0,0
16875,-90.9090909090909,4,2,1,70,0,0
17220,-80,4,2,1,70,0,0
17565,-57.1428571428571,4,2,1,70,0,0
19289,-80,4,2,1,70,0,0
19634,-90.9090909090909,4,2,1,70,0,0
19979,-80,4,2,1,70,0,0
20324,-57.1428571428571,4,2,1,70,0,0
20496,-57.1428571428571,4,2,0,70,0,0
20582,-57.1428571428571,4,2,1,70,0,0
20841,-57.1428571428571,4,2,0,70,0,0
20927,-57.1428571428571,4,2,1,70,0,0
21186,-57.1428571428571,4,2,0,70,0,0
21272,-57.1428571428571,4,2,1,70,0,0
21530,-57.1428571428571,4,2,0,70,0,0
21617,-57.1428571428571,4,2,1,70,0,0
21703,-80,4,2,1,70,0,0
22392,-100,4,2,1,70,0,0
22479,-100,4,2,0,70,0,0
22737,-80,4,2,0,70,0,0
23082,-57.1428571428571,4,2,1,70,0,0
23168,-57.1428571428571,4,2,0,70,0,0
23427,-80,4,2,0,70,0,0
23513,-80,4,2,1,70,0,0
24806,-60.6060606060606,4,2,1,70,0,0
25151,-80,4,2,1,70,0,0
34806,-64.5161290322581,4,2,1,70,0,0
35324,-80,4,2,1,70,0,0
35496,-80,4,2,1,40,0,0
35668,-80,4,2,1,55,0,0
35755,-80,4,2,1,70,0,0
36186,-74.0740740740741,4,2,1,70,0,1
37048,-74.0740740740741,4,2,1,70,0,1
37134,-60.6060606060606,4,2,1,70,0,1
37392,-74.0740740740741,4,2,1,70,0,1
38944,-74.0740740740741,4,2,1,70,0,1
39806,-74.0740740740741,4,2,8,70,0,1
39979,-74.0740740740741,4,2,1,70,0,1
40065,-74.0740740740741,4,2,8,70,0,1
40324,-74.0740740740741,4,2,1,70,0,1
40410,-74.0740740740741,4,2,8,70,0,1
40668,-74.0740740740741,4,2,1,70,0,1
40841,-74.0740740740741,4,2,8,70,0,1
41013,-74.0740740740741,4,2,1,70,0,1
42479,-74.0740740740741,4,2,8,70,0,1
42651,-74.0740740740741,4,2,1,70,0,1
42824,-74.0740740740741,4,2,8,70,0,1
43082,-74.0740740740741,4,2,1,70,0,1
43168,-74.0740740740741,4,2,8,70,0,1
43427,-74.0740740740741,4,2,1,70,0,1
43513,-74.0740740740741,4,2,8,70,0,1
44117,-74.0740740740741,4,2,1,70,0,1
45237,-74.0740740740741,4,2,8,70,0,1
45410,-74.0740740740741,4,2,1,70,0,1
45582,-74.0740740740741,4,2,8,70,0,1
45755,-74.0740740740741,4,2,1,70,0,1
46875,-86.9565217391304,4,2,1,70,0,1
47220,-100,4,2,1,70,0,0
49375,-100,4,2,8,70,0,0
49634,-100,4,2,1,70,0,0
49720,-100,4,2,8,70,0,0
49979,-100,4,2,1,70,0,0
52134,-100,4,2,8,70,0,0
52565,-100,4,2,1,70,0,0
54892,-100,4,2,8,70,0,0
55151,-100,4,2,1,70,0,0
55237,-100,4,2,8,70,0,0
55496,-76.9230769230769,4,2,1,70,0,0
56875,-66.6666666666667,4,2,1,70,0,0
57910,-83.3333333333333,4,2,1,70,0,0
58255,-100,4,2,1,70,0,0
59548,-76.9230769230769,4,2,1,70,0,0
61013,-100,4,2,1,70,0,0
63255,-66.6666666666667,4,2,1,70,0,0
63772,-100,4,2,1,70,0,0
65065,-76.9230769230769,4,2,1,70,0,0
66530,-62.5,4,2,1,70,0,0
68599,-100,4,2,1,50,0,0
68944,-52.6315789473684,4,2,1,70,0,0
69289,-125,4,2,8,40,0,0
69461,-125,4,2,8,40,0,0
69634,-125,4,2,8,40,0,0
69806,-125,4,2,8,40,0,0
69979,-125,4,2,8,40,0,0
77565,-62.5,4,2,8,40,0,0
78944,-100,4,2,8,40,0,0
79289,-66.6666666666667,4,2,8,40,0,0
79634,-50,4,2,8,40,0,0
79720,-50,4,2,1,75,0,0
79806,-40,4,2,1,75,0,0
80324,-76.9230769230769,4,2,1,75,0,1
81703,-76.9230769230769,4,2,1,75,0,1
83082,-76.9230769230769,4,2,1,75,0,1
84461,-76.9230769230769,4,2,1,75,0,1
85496,-76.9230769230769,4,2,1,75,0,1
87220,-76.9230769230769,4,2,1,75,0,1
88599,-76.9230769230769,4,2,1,75,0,1
89979,-76.9230769230769,4,2,1,75,0,1
90841,-76.9230769230769,4,2,1,75,0,0
91358,-66.6666666666667,4,2,1,75,0,1
92737,-66.6666666666667,4,2,1,75,0,1
94117,-66.6666666666667,4,2,1,75,0,1
95496,-66.6666666666667,4,2,1,75,0,1
96703,-66.6666666666667,4,2,1,75,0,1
98255,-66.6666666666667,4,2,1,75,0,1
99634,-66.6666666666667,4,2,1,75,0,1
101875,-50,4,2,1,75,0,1
102392,-125,4,2,1,70,0,0
103772,-111.111111111111,4,2,1,70,0,0
105151,-100,4,2,1,70,0,0
106530,-90.9090909090909,4,2,1,70,0,0
107910,-83.3333333333333,4,2,1,70,0,0
109289,-90.9090909090909,4,2,1,70,0,0
110668,-100,4,2,1,70,0,0
112048,-111.111111111111,4,2,1,70,0,0
112737,-66.6666666666667,4,2,1,70,0,0
113082,-200,4,2,1,70,0,0

[Colours]
Combo1 : 255,136,255
Combo2 : 255,155,106
Combo3 : 100,170,255
Combo4 : 243,56,84

[HitObjects]
133,336,324,5,0,0:0:0:0:
129,306,410,1,0,0:0:0:0:
125,276,496,1,2,2:0:0:0:
122,246,582,1,0,0:0:0:0:
199,182,755,1,0,0:0:0:0:
199,182,841,2,0,L|212:303,1,100,0|0,0:0|2:0,0:0:0:0:
142,83,1186,5,2,2:0:0:0:
142,83,1272,1,0,0:0:0:0:
142,83,1359,2,0,L|202:78,1,50,2|0,0:0|0:0,0:0:0:0:
322,67,1531,2,0,L|382:62,1,50,0|0,0:0|0:0,0:0:0:0:
251,122,1703,6,0,B|231:73|231:73|247:8,1,100,0|0,0:0|2:0,0:0:0:0:
308,182,2048,2,0,P|249:205|170:135,1,150,2|0,0:0|0:0,0:0:0:0:
251,122,2392,5,0,0:0:0:0:
321,95,2479,1,0,0:0:0:0:
382,136,2565,5,2,0:0:0:0:
389,210,2651,1,0,0:0:0:0:
338,262,2737,6,0,P|318:184|381:136,1,169.500000517273,8|4,0:0|0:0,0:0:0:0:
413,296,3082,6,0,B|311:283|311:283|249:307,1,150.000005722046,6|0,0:0|0:0,0:0:0:0:
267,300,3341,1,0,0:0:0:0:
100,171,3513,1,0,0:0:0:0:
100,171,3599,6,0,B|88:223|88:223|109:279,1,100,0|2,0:0|0:0,0:0:0:0:
108,362,3858,2,0,B|120:310|120:310|99:254,1,100,0|0,0:0|0:0,0:0:0:0:
25,168,4117,6,0,L|112:171,1,75.0000028610231,8|0,0:0|0:0,0:0:0:0:
202,70,4289,2,0,L|289:73,1,75.0000028610231,2|0,0:1|0:0,0:0:0:0:
389,210,4461,6,0,B|414:135|414:135|389:61,1,150.000005722046,2|0,3:1|0:0,0:0:0:0:
316,240,4720,2,0,P|364:287|444:270,1,150.000005722046,0|0,0:0|0:0,0:0:0:0:
322,161,4979,2,0,P|279:169|251:197,1,75.0000028610231,0|0,0:0|0:0,0:0:0:0:
146,315,5151,5,2,0:0:0:0:
142,290,5237,1,0,0:0:0:0:
139,264,5324,1,0,0:0:0:0:
135,239,5410,1,0,0:0:0:0:
120,158,5496,6,0,B|113:221|113:221|140:287|140:287|126:382,1,225.000008583069,8|0,0:0|0:0,0:0:0:0:
58,296,5841,6,0,B|33:230|33:230|44:134,1,150.000005722046,2|0,0:0|0:0,0:0:0:0:
42,151,6099,1,0,0:0:0:0:
1,8,6272,1,0,0:0:0:0:
1,8,6358,6,0,P|53:-9|116:13,1,100,0|2,0:0|0:0,0:0:0:0:
170,18,6617,2,0,P|222:35|285:13,1,100,0|0,0:0|0:0,0:0:0:0:
353,0,6875,6,0,B|344:41|344:41|358:89,1,75.0000028610231,8|0,0:0|0:0,0:0:0:0:
417,177,7048,2,0,B|426:218|426:218|412:266,1,75.0000028610231,2|0,0:1|0:0,0:0:0:0:
345,343,7220,6,0,P|312:282|366:190,1,150.000005722046,2|0,3:1|0:0,0:0:0:0:
422,352,7479,2,0,B|365:352|365:352|345:342|345:342|327:352|327:352|265:352,1,150.000005722046,0|0,0:0|0:0,0:0:0:0:
190,375,7737,2,0,P|190:338|209:294,1,75.0000028610231,0|0,0:0|0:0,0:0:0:0:
246,120,7910,5,2,0:0:0:0:
266,113,7996,1,0,0:0:0:0:
286,111,8082,1,0,0:0:0:0:
306,115,8168,1,0,0:0:0:0:
328,135,8255,6,0,L|339:226,1,75.0000028610231,8|0,0:0|0:0,0:0:0:0:
124,250,8427,2,0,L|133:175,1,75.0000028610231,0|8,0:0|0:0,0:0:0:0:
391,275,8599,6,0,P|309:295|250:260,1,150.000005722046,2|0,0:0|0:0,0:0:0:0:
254,265,8858,1,0,0:0:0:0:
472,182,9030,1,0,0:0:0:0:
472,182,9117,6,0,B|422:199|422:199|375:188,1,100,0|2,0:0|0:0,0:0:0:0:
376,57,9375,2,0,B|422:47|422:47|472:65,1,100,0|0,0:0|0:0,0:0:0:0:
318,141,9634,6,0,B|283:151|283:151|230:135,1,75.0000028610231,8|0,0:0|0:0,0:0:0:0:
151,67,9806,2,0,B|116:57|116:57|63:73,1,75.0000028610231,2|0,0:1|0:0,0:0:0:0:
283,51,9979,5,2,3:1:0:0:
139,166,10151,1,0,0:0:0:0:
139,166,10237,2,0,P|126:202|191:302,1,150.000005722046,0|0,0:0|0:0,0:0:0:0:
173,295,10496,1,0,0:0:0:0:
68,126,10668,5,2,0:0:0:0:
86,102,10755,1,0,0:0:0:0:
113,90,10841,1,0,0:0:0:0:
142,87,10927,1,0,0:0:0:0:
207,142,11013,6,0,P|146:172|67:52,1,225.000008583069,8|0,0:0|0:0,0:0:0:0:
142,87,11358,5,2,0:0:0:0:
169,65,11444,1,0,0:0:0:0:
203,57,11530,1,0,0:0:0:0:
237,62,11617,1,0,0:0:0:0:
293,124,11703,5,8,0:0:0:0:
330,137,11789,1,0,0:0:0:0:
369,138,11875,1,0,0:0:0:0:
406,124,11961,1,0,0:0:0:0:
484,100,12048,5,2,0:0:0:0:
482,119,12134,1,0,0:0:0:0:
480,138,12220,1,0,0:0:0:0:
478,157,12306,1,0,0:0:0:0:
418,211,12392,5,8,0:0:0:0:
421,235,12479,1,0,0:0:0:0:
423,259,12565,1,0,0:0:0:0:
425,283,12651,1,8,0:0:0:0:
428,362,12737,6,0,P|351:308|380:219,1,200,4|0,0:0|0:0,0:0:0:0:
425,283,12996,6,0,B|318:252|349:350|233:320,1,200,4|0,0:0|0:0,0:0:0:0:
175,231,13255,6,0,B|227:216|227:216|270:234,1,100,4|0,0:0|0:0,0:0:0:0:
96,348,13427,5,2,0:0:0:0:
91,329,13513,1,0,0:0:0:0:
85,311,13599,2,0,L|88:276,2,18.7500007152558,2|0|2,0:0|0:0|0:0,0:0:0:0:
197,124,13772,5,2,0:0:0:0:
200,181,13858,1,0,0:0:0:0:
175,231,13944,1,2,0:0:0:0:
89,54,14117,6,0,L|216:50,1,110.000003356934,6|0,0:0|0:0,0:0:0:0:
320,188,14461,6,0,B|254:199|254:199|187:176,1,125,8|0,0:0|0:0,0:0:0:0:
406,61,14806,5,2,0:0:0:0:
380,277,14979,1,0,0:0:0:0:
256,115,15151,1,8,0:0:0:0:
412,204,15324,1,0,0:0:0:0:
412,204,15410,1,0,0:0:0:0:
412,204,15496,5,2,0:0:0:0:
191,163,15668,1,0,0:0:0:0:
406,61,15841,1,8,0:0:0:0:
287,253,16013,1,0,0:0:0:0:
145,95,16186,6,0,P|192:83|259:117,1,100,2|0,0:0|0:0,0:0:0:0:
351,295,16530,1,8,0:0:0:0:
363,273,16617,1,0,0:0:0:0:
363,248,16703,1,2,0:0:0:0:
358,223,16789,1,0,0:0:0:0:
287,253,16875,6,0,L|422:244,1,110.000003356934,2|0,0:0|0:0,0:0:0:0:
145,95,17220,6,0,B|38:86|38:86|78:109,1,125,8|0,0:0|0:0,0:0:0:0:
191,238,17565,5,2,0:0:0:0:
231,12,17737,1,0,0:0:0:0:
91,167,17910,1,8,0:0:0:0:
286,115,18082,1,0,0:0:0:0:
286,115,18168,1,0,0:0:0:0:
286,115,18255,5,2,0:0:0:0:
86,7,18427,1,0,0:0:0:0:
190,239,18599,2,0,L|196:145,1,87.500000834465,8|0,0:0|0:0,0:0:0:0:
363,52,18772,2,0,L|368:139,1,87.500000834465,2|0,0:0|0:0,0:0:0:0:
237,313,18944,5,2,0:0:0:0:
203,324,19030,1,0,0:0:0:0:
167,324,19117,1,0,0:0:0:0:
136,306,19203,1,2,0:0:0:0:
116,276,19289,6,0,L|121:189,1,62.5,8|0,0:0|0:0,0:0:0:0:
282,52,19461,2,0,L|285:114,1,62.5,2|0,0:0|0:0,0:0:0:0:
427,334,19634,6,0,B|370:339|370:339|317:308,1,110.000003356934,6|0,0:0|0:0,0:0:0:0:
81,203,19979,6,0,P|142:198|189:238,1,125,8|0,0:0|0:0,0:0:0:0:
120,363,20324,6,0,L|115:270,1,87.500000834465,2|0,0:0|0:0,0:0:0:0:
107,87,20496,1,2,0:0:0:0:
324,312,20668,6,0,P|276:332|218:314,1,87.500000834465,8|0,0:0|0:0,0:0:0:0:
27,280,20841,1,0,0:0:0:0:
27,280,20927,1,0,0:0:0:0:
27,280,21013,6,0,L|120:275,1,87.500000834465,2|0,0:0|0:0,0:0:0:0:
270,258,21186,1,2,0:0:0:0:
120,363,21358,6,0,L|115:270,1,87.500000834465,8|0,0:0|0:0,0:0:0:0:
279,61,21530,2,0,L|275:149,1,87.500000834465,2|0,0:0|0:0,0:0:0:0:
439,297,21703,6,0,P|370:286|309:329,1,125,2|0,0:0|0:0,0:0:0:0:
194,359,22048,1,8,0:0:0:0:
170,368,22134,1,0,0:0:0:0:
145,369,22220,1,2,0:0:0:0:
120,363,22306,1,0,0:0:0:0:
61,310,22392,6,0,P|132:285|197:349,1,150,2|0,0:0|0:0,0:0:0:0:
120,363,22737,6,0,B|118:321|118:321|109:303|109:303|117:289|117:289|113:168,1,187.5,0|0,0:0|0:0,0:0:0:0:
109,103,23082,5,2,0:0:0:0:
188,324,23255,1,2,0:0:0:0:
28,231,23427,5,2,0:0:0:0:
218,181,23599,1,2,0:0:0:0:
0,133,23772,5,0,0:0:0:0:
112,373,23944,1,2,0:0:0:0:
112,373,24030,1,0,0:0:0:0:
112,373,24117,6,0,B|93:311|93:311|107:241,1,125,2|0,0:0|0:0,0:0:0:0:
130,181,24375,1,0,0:0:0:0:
130,181,24461,6,0,L|57:187,1,62.5,6|0,0:0|0:0,0:0:0:0:
235,301,24634,2,0,L|297:306,1,62.5,6|0,0:0|0:0,0:0:0:0:
435,154,24806,6,0,B|344:137|370:205|261:175,1,165.000001573563,6|0,0:0|0:0,0:0:0:0:
201,69,25151,5,4,0:0:0:0:
201,69,25237,2,0,P|261:60|308:99,1,125,0|0,0:0|0:0,0:0:0:0:
243,200,25496,6,0,L|239:138,1,62.5,8|0,0:0|0:0,0:0:0:0:
404,289,25668,2,0,L|408:226,1,62.5,0|0,3:0|3:0,0:0:0:0:
235,301,25841,5,0,0:0:0:0:
269,286,25927,1,0,3:0:0:0:
305,292,26013,1,0,3:0:0:0:
330,319,26099,1,0,0:0:0:0:
349,351,26186,1,8,0:0:0:0:
380,371,26272,1,0,0:0:0:0:
417,374,26358,1,0,0:0:0:0:
452,361,26444,1,0,0:0:0:0:
476,332,26530,6,0,L|482:259,1,62.5,2|0,0:0|0:0,0:0:0:0:
408,226,26703,2,0,L|402:288,1,62.5,0|0,0:0|0:0,0:0:0:0:
492,191,26875,6,0,L|498:118,1,62.5,8|0,0:0|0:0,0:0:0:0:
424,85,27048,2,0,L|418:147,1,62.5,0|0,3:0|0:0,0:0:0:0:
466,13,27220,5,0,0:0:0:0:
423,1,27306,1,0,3:0:0:0:
381,14,27392,1,0,0:0:0:0:
352,47,27479,1,0,3:0:0:0:
342,89,27565,1,8,0:0:0:0:
313,122,27651,1,0,0:0:0:0:
271,136,27737,1,0,0:0:0:0:
228,125,27824,1,0,0:0:0:0:
199,92,27910,5,2,0:0:0:0:
162,27,27996,2,0,P|240:27|270:69,1,125,0|0,0:0|0:0,0:0:0:0:
207,216,28255,2,0,L|198:76,1,125,8|0,0:0|0:0,0:0:0:0:
361,186,28599,6,0,P|324:202|282:196,1,62.5,0|0,3:0|0:0,0:0:0:0:
102,165,28772,1,0,3:0:0:0:
313,122,28944,5,8,0:0:0:0:
211,278,29117,2,0,L|205:200,1,62.5,0|0,0:0|0:0,0:0:0:0:
307,39,29289,5,0,3:0:0:0:
343,45,29375,1,0,0:0:0:0:
372,67,29461,2,0,L|367:129,1,62.5,0|0,0:0|0:0,0:0:0:0:
412,348,29634,5,8,0:0:0:0:
449,358,29720,1,0,3:0:0:0:
485,346,29806,1,8,0:0:0:0:
509,316,29892,1,0,0:0:0:0:
512,278,29978,1,2,0:0:0:0:
494,244,30065,1,8,0:0:0:0:
459,226,30151,1,0,0:0:0:0:
421,230,30237,1,0,0:0:0:0:
392,255,30324,6,0,P|360:261|324:252,1,62.5,8|0,0:0|0:0,0:0:0:0:
312,121,30496,2,0,P|281:115|251:121,1,62.5,2|0,0:0|0:0,0:0:0:0:
151,342,30668,5,6,0:0:0:0:
151,342,30755,2,0,B|132:279|132:279|153:208,1,125,0|0,0:0|0:0,0:0:0:0:
273,281,31013,6,0,L|199:277,1,62.5,8|0,0:0|0:0,0:0:0:0:
6,222,31186,2,0,L|80:218,1,62.5,0|0,0:0|0:0,0:0:0:0:
251,120,31358,5,0,3:0:0:0:
261,84,31444,1,0,3:0:0:0:
250,49,31530,1,0,3:0:0:0:
220,27,31616,1,0,0:0:0:0:
183,26,31702,1,8,0:0:0:0:
153,46,31789,1,0,0:0:0:0:
139,81,31875,1,0,3:0:0:0:
148,116,31961,1,0,0:0:0:0:
176,141,32048,6,0,L|173:203,1,62.5,0|0,3:0|3:0,0:0:0:0:
71,281,32220,2,0,L|68:219,1,62.5,0|0,3:0|0:0,0:0:0:0:
243,310,32392,6,0,P|211:304|175:312,1,62.5,8|0,0:0|0:0,0:0:0:0:
104,360,32565,2,0,P|72:366|36:358,1,62.5,0|0,3:0|3:0,0:0:0:0:
224,229,32737,5,0,3:0:0:0:
268,228,32824,1,0,3:0:0:0:
305,250,32910,1,0,3:0:0:0:
322,289,32996,1,0,3:0:0:0:
340,328,33082,1,8,0:0:0:0:
369,359,33168,1,0,0:0:0:0:
411,369,33255,1,0,3:3:0:0:
453,357,33341,1,0,3:3:0:0:
483,325,33427,5,0,3:0:0:0:
508,249,33513,2,0,P|438:260|406:311,1,125,0|0,0:0|0:0,0:0:0:0:
483,325,33772,2,0,B|507:246|507:246|475:182,1,125,8|0,0:0|3:0,0:0:0:0:
324,104,34117,6,0,L|319:183,1,62.5,0|0,3:0|0:0,0:0:0:0:
408,301,34289,1,0,3:0:0:0:
459,33,34461,6,0,P|413:23|369:40,1,62.5,8|0,0:0|0:0,0:0:0:0:
263,243,34634,1,0,3:0:0:0:
337,237,34720,1,8,3:0:0:0:
411,231,34806,6,0,P|362:167|284:186,1,155.000001182556,4|0,0:0|0:0,0:0:0:0:
206,310,35065,6,0,B|173:335|173:335|188:198,1,155.000001182556,4|0,0:0|0:0,0:0:0:0:
152,51,35324,5,4,0:0:0:0:
152,51,35496,5,2,0:0:0:0:
194,40,35582,1,0,0:0:0:0:
236,47,35668,2,0,L|241:-2,1,31.25,2|2,0:0|0:0,0:0:0:0:
270,74,35754,2,0,L|279:36,1,31.25,2|0,0:0|0:0,0:0:0:0:
289,112,35841,5,2,0:0:0:0:
346,135,35927,1,0,0:0:0:0:
407,123,36013,2,0,L|413:46,1,62.5,2|0,0:0|0:0,0:0:0:0:
199,130,36186,6,0,B|171:209|171:209|197:272,1,135.000000514984,4|0,0:0|0:0,0:0:0:0:
320,211,36444,1,0,0:0:0:0:
320,211,36531,2,0,L|236:207,1,67.5000002574921,8|0,0:0|0:0,0:0:0:0:
94,204,36703,2,0,L|10:200,1,67.5000002574921,0|0,0:0|0:0,0:0:0:0:
149,262,36875,6,0,P|173:192|132:133,1,135.000000514984,2|0,0:0|0:0,0:0:0:0:
59,279,37134,2,0,B|151:309|128:231|232:259,1,165.000001573563,0|0,0:0|0:0,0:0:0:0:
307,357,37392,6,0,P|244:375|192:337,1,135.000000514984,0|2,0:0|0:0,0:0:0:0:
309,213,37651,2,0,B|317:249|317:249|313:294,1,67.5000002574921,0|0,0:0|0:0,0:0:0:0:
99,207,37824,1,0,0:0:0:0:
99,207,37910,5,8,0:0:0:0:
136,192,37996,1,0,0:0:0:0:
161,161,38082,1,0,0:0:0:0:
171,121,38168,1,0,0:0:0:0:
162,81,38255,5,2,0:0:0:0:
204,101,38341,1,0,0:0:0:0:
250,96,38427,1,2,3:0:0:0:
291,72,38513,1,0,0:0:0:0:
317,32,38600,5,8,0:0:0:0:
364,35,38686,1,2,0:0:0:0:
411,38,38772,2,0,L|406:119,1,67.5000002574921,0|0,3:0|0:0,0:0:0:0:
259,302,38944,6,0,L|252:143,1,135.000000514984,2|0,0:0|0:0,0:0:0:0:
340,309,39203,1,0,0:0:0:0:
340,309,39289,2,0,P|326:352|298:374,1,67.5000002574921,8|0,0:0|0:0,0:0:0:0:
208,368,39461,2,0,P|186:342|178:310,1,67.5000002574921,0|0,0:0|0:0,0:0:0:0:
395,239,39634,6,0,B|363:224|363:224|306:227,1,67.5000002574921,2|0,0:0|0:0,0:0:0:0:
189,135,39806,2,0,B|221:150|221:150|278:147,1,67.5000002574921,0|0,0:0|0:0,0:0:0:0:
392,81,39979,5,8,0:0:0:0:
259,302,40151,2,0,L|256:223,1,67.5000002574921,0|0,0:0|0:0,0:0:0:0:
191,67,40324,6,0,L|188:134,1,67.5000002574921,2|2,0:0|0:0,0:0:0:0:
93,262,40496,1,0,0:0:0:0:
93,262,40582,1,2,0:0:0:0:
93,262,40668,2,0,L|90:194,1,67.5000002574921,8|0,0:0|0:0,0:0:0:0:
85,65,40841,1,2,0:0:0:0:
178,235,41013,6,0,L|175:334,1,67.5000002574921,2|0,0:0|0:0,0:0:0:0:
281,130,41186,2,0,L|278:62,1,67.5000002574921,2|0,0:0|0:0,0:0:0:0:
341,301,41358,5,8,0:0:0:0:
188,134,41530,1,2,0:0:0:0:
128,374,41703,6,0,P|200:385|254:339,1,135.000000514984,4|0,0:0|0:0,0:0:0:0:
169,234,41961,1,0,0:0:0:0:
169,234,42048,2,0,L|175:302,1,67.5000002574921,8|0,0:0|0:0,0:0:0:0:
335,368,42220,2,0,L|340:300,1,67.5000002574921,0|0,0:0|0:0,0:0:0:0:
356,139,42392,5,2,0:0:0:0:
260,266,42565,1,2,0:0:0:0:
440,203,42737,1,8,0:0:0:0:
282,99,42910,2,0,P|272:137|280:174,1,67.5000002574921,2|0,0:0|0:0,0:0:0:0:
413,278,43082,5,2,0:0:0:0:
440,203,43168,2,0,P|359:221|334:276,1,135.000000514984,2|0,0:0|0:0,0:0:0:0:
327,359,43427,5,10,0:0:0:0:
286,355,43513,1,0,0:0:0:0:
245,352,43599,1,0,0:0:0:0:
204,350,43686,1,2,0:0:0:0:
163,348,43772,5,2,0:0:0:0:
141,305,43858,1,0,0:3:0:0:
143,257,43944,1,2,0:0:0:0:
177,223,44031,1,0,0:0:0:0:
223,217,44117,5,8,0:0:0:0:
219,170,44203,1,0,0:0:0:0:
215,123,44289,2,0,L|128:131,1,67.5000002574921,2|0,0:3|0:0,0:0:0:0:
209,289,44461,6,0,P|278:284|321:345,1,135.000000514984,2|0,0:0|0:0,0:0:0:0:
387,369,44720,1,0,0:0:0:0:
387,369,44806,2,0,L|390:272,1,67.5000002574921,8|0,0:0|0:0,0:0:0:0:
268,186,44979,2,0,L|260:88,1,67.5000002574921,0|0,0:0|0:0,0:0:0:0:
399,158,45151,5,2,0:0:0:0:
248,346,45324,1,2,0:0:0:0:
431,290,45496,5,8,0:0:0:0:
262,118,45668,2,0,L|269:197,1,67.5000002574921,2|0,0:0|0:0,0:0:0:0:
494,346,45841,5,2,3:0:0:0:
494,346,45927,2,0,P|515:283|467:215,1,135.000000514984,0|0,0:0|3:0,0:0:0:0:
304,290,46186,6,0,B|370:314|370:314|439:286,1,135.000000514984,2|0,3:0|3:0,0:0:0:0:
369,218,46444,1,0,0:0:0:0:
370,231,46530,1,2,3:0:0:0:
232,335,46703,6,0,P|220:289|225:254,1,67.5000002574921,2|0,0:0|0:0,0:0:0:0:
396,137,46875,6,0,B|304:116|337:193|223:168,1,172.500003290176,4|0,0:0|0:0,0:0:0:0:
233,170,47220,5,4,0:0:0:0:
463,195,47392,2,0,B|478:142|478:142|465:79,1,100,0|0,3:0|0:0,0:0:0:0:
312,298,47737,1,0,0:0:0:0:
312,298,47824,1,0,0:0:0:0:
312,298,47910,6,0,L|380:292,1,50,2|0,0:0|0:0,0:0:0:0:
282,174,48082,2,0,L|233:170,1,50,0|0,3:0|0:0,0:0:0:0:
139,301,48255,6,0,B|149:270|133:235|133:235|146:214|146:214|127:183|139:143,1,150,0|2,0:0|0:0,0:0:0:0:
104,58,48599,6,0,B|157:50|157:50|216:83,1,100,2|0,0:0|0:3,0:0:0:0:
288,181,48858,1,0,0:0:0:0:
288,181,48944,2,0,B|269:137|269:137|292:74,1,100,2|0,0:0|0:3,0:0:0:0:
449,168,49289,5,2,0:0:0:0:
466,198,49375,1,0,0:0:0:0:
471,232,49461,1,2,0:0:0:0:
465,266,49548,1,2,0:0:0:0:
445,295,49634,6,0,L|374:292,1,50,2|0,0:0|0:0,0:0:0:0:
268,286,49806,2,0,L|218:283,1,50,0|2,0:0|0:0,0:0:0:0:
331,339,49979,6,0,P|351:288|323:228,1,100,2|0,0:0|3:0,0:0:0:0:
294,211,50237,1,0,0:0:0:0:
294,211,50324,2,0,P|275:167|288:103,1,100,0|0,0:0|0:0,0:0:0:0:
476,130,50668,5,0,3:0:0:0:
446,137,50755,1,0,0:0:0:0:
416,142,50841,1,0,3:0:0:0:
386,148,50927,1,0,0:0:0:0:
356,153,51013,6,0,L|198:146,1,150,0|2,0:0|0:0,0:0:0:0:
206,146,51358,5,2,0:0:0:0:
259,0,51530,1,0,0:0:0:0:
263,40,51617,1,0,0:0:0:0:
267,79,51703,1,2,0:0:0:0:
78,194,51875,1,0,0:0:0:0:
60,152,51961,1,0,0:0:0:0:
65,106,52048,5,2,0:0:0:0:
96,74,52134,1,0,0:0:0:0:
140,71,52220,1,0,3:0:0:0:
181,89,52306,1,0,0:0:0:0:
198,130,52392,6,0,L|192:200,1,50,0|0,3:0|0:0,0:0:0:0:
187,363,52565,1,2,3:0:0:0:
187,363,52651,1,0,0:0:0:0:
187,363,52737,5,2,0:0:0:0:
133,275,52910,2,0,P|196:261|244:294,1,100,0|0,3:0|0:0,0:0:0:0:
344,361,53255,1,0,0:0:0:0:
344,361,53341,1,0,0:0:0:0:
344,361,53427,6,0,L|336:288,1,50,2|0,3:0|0:0,0:0:0:0:
443,233,53599,2,0,L|451:160,1,50,0|0,3:0|0:0,0:0:0:0:
304,140,53772,6,0,B|291:25|291:25|314:69,1,150,0|2,0:0|0:0,0:0:0:0:
381,136,54117,6,0,P|362:191|310:217,1,100,0|0,3:0|0:0,0:0:0:0:
204,130,54375,1,0,0:0:0:0:
204,130,54461,2,0,B|322:141|321:141,1,100,2|0,0:0|3:0,0:0:0:0:
505,66,54806,5,2,0:0:0:0:
472,54,54892,1,0,0:0:0:0:
436,54,54979,1,0,0:0:0:0:
402,62,55065,1,0,0:0:0:0:
377,86,55151,6,0,L|382:156,1,50,2|0,0:0|0:0,0:0:0:0:
390,247,55324,2,0,L|395:317,1,50,0|0,0:0|0:0,0:0:0:0:
436,178,55496,6,0,P|380:164|313:216,1,129.999994049073,2|0,0:0|3:0,0:0:0:0:
312,262,55755,1,0,0:0:0:0:
312,262,55841,2,0,P|271:308|189:286,1,129.999994049073,0|0,0:0|0:0,0:0:0:0:
82,207,56186,6,0,B|56:193|44:168|44:168|61:319,1,194.999991073609,0|0,3:0|0:0,0:0:0:0:
59,306,56530,1,2,0:0:0:0:
176,345,56703,6,0,L|165:260,1,64.9999970245363
117,132,56875,6,0,P|190:130|233:189,1,150.000005722046,4|0,0:0|0:0,0:0:0:0:
168,281,57134,6,0,B|147:292|133:309|133:309|152:206,1,150.000005722046,4|0,0:0|0:0,0:0:0:0:
345,336,57392,6,0,B|276:318|282:381|203:359,1,150.000005722046,4|0,0:0|0:0,0:0:0:0:
59,306,57737,6,0,L|68:389,1,75.0000028610231,10|8,0:0|0:0,0:0:0:0:
231,281,57910,2,0,B|260:187|260:187|234:109,1,179.999994506836,8|0,0:0|0:0,0:0:0:0:
176,37,58255,5,2,0:0:0:0:
168,60,58341,1,0,0:0:0:0:
159,83,58427,1,0,0:0:0:0:
151,106,58513,2,0,L|167:153,1,50,0|8,0:0|0:0,0:0:0:0:
51,40,58772,5,0,0:0:0:0:
42,63,58858,1,0,0:0:0:0:
33,86,58944,2,0,L|49:133,1,50,2|0,0:0|0:0,0:0:0:0:
0,285,59117,1,0,0:0:0:0:
126,380,59289,1,8,0:0:0:0:
255,289,59461,1,0,0:0:0:0:
255,289,59548,6,0,L|319:285,1,64.9999970245363,0|2,0:0|0:0,0:0:0:0:
506,236,59720,2,0,B|459:232|459:232|430:250|430:250|383:247,1,129.999994049073
410,173,59979,1,8,0:0:0:0:
411,163,60065,1,0,0:0:0:0:
412,152,60151,1,0,0:0:0:0:
413,141,60237,1,0,0:0:0:0:
459,232,60410,6,0,B|497:211|497:211|516:250|516:250|478:270,1,129.999994049073
381,246,60668,1,8,0:0:0:0:
394,274,60755,2,0,P|311:228|220:254,1,194.999991073609,0|2,0:0|0:0,0:0:0:0:
96,360,61186,5,0,0:0:0:0:
21,348,61272,1,0,0:0:0:0:
21,348,61703,5,2,0:0:0:0:
96,360,61789,1,0,0:0:0:0:
96,360,62220,5,0,0:0:0:0:
21,348,62306,1,0,0:0:0:0:
59,156,62565,5,0,0:0:0:0:
59,156,62737,1,8,0:0:0:0:
134,144,62823,1,0,0:0:0:0:
148,290,62996,5,0,0:0:0:0:
148,290,63168,1,2,0:0:0:0:
219,315,63255,2,0,B|226:276|226:276|208:243,1,75.0000028610231
182,69,63427,1,2,0:0:0:0:
184,61,63513,1,2,0:0:0:0:
186,53,63599,2,0,B|151:34|151:34|115:41,1,75.0000028610231,2|0,0:0|0:0,0:0:0:0:
57,184,63772,5,6,0:0:0:0:
79,195,63858,1,0,0:0:0:0:
101,207,63944,1,0,0:0:0:0:
123,218,64030,2,0,L|207:201,1,50,0|8,0:0|0:0,0:0:0:0:
314,122,64289,5,0,0:0:0:0:
336,110,64375,1,0,0:0:0:0:
358,99,64461,2,0,L|442:115,1,50,2|0,0:0|0:0,0:0:0:0:
479,250,64634,1,0,0:0:0:0:
369,364,64806,1,8,0:0:0:0:
228,294,64978,1,0,0:0:0:0:
228,294,65065,6,0,P|197:300|169:318,1,64.9999970245363,0|2,0:0|0:0,0:0:0:0:
13,207,65237,2,0,P|73:225|99:282,1,129.999994049073,0|2,0:0|0:0,0:0:0:0:
155,333,65496,1,8,0:0:0:0:
154,344,65582,1,0,0:0:0:0:
153,355,65668,1,2,0:0:0:0:
152,365,65755,1,0,0:0:0:0:
172,256,65927,6,0,B|204:259|204:259|217:229|217:229|192:208|192:208|165:223,1,129.999994049073,0|2,0:0|0:0,0:0:0:0:
99,282,66186,1,8,0:0:0:0:
67,292,66272,2,0,P|77:229|38:180,1,129.999994049073,0|0,0:0|0:0,0:0:0:0:
52,68,66530,6,0,P|-5:54|40:89,1,160,4|0,0:0|0:0,0:0:0:0:
115,99,66789,2,0,P|159:137|103:122,1,160,4|0,0:0|0:0,0:0:0:0:
38,181,67048,5,0,0:0:0:0:
460,316,67220,6,0,P|517:329|471:294,1,160,4|0,0:0|0:0,0:0:0:0:
396,284,67479,2,0,P|352:246|408:261,1,160,4|0,0:0|0:0,0:0:0:0:
474,203,67737,5,0,1:0:0:0:
474,203,67910,5,0,0:0:0:0:
470,179,67996,1,0,0:0:0:0:
466,155,68082,1,0,0:0:0:0:
492,88,68168,5,6,0:0:0:0:
488,112,68254,1,0,0:0:0:0:
484,136,68340,1,0,0:0:0:0:
510,203,68427,5,0,0:0:0:0:
496,173,68513,2,0,L|537:159,1,40
422,141,68599,6,0,L|381:127,1,25,4|0,0:0|0:0,0:0:0:0:
230,117,68772,6,0,L|189:103,1,25,4|0,0:0|0:0,0:0:0:0:
38,94,68944,6,0,B|261:66|261:66|230:118,1,284.999992389679,4|0,3:0|0:0,0:0:0:0:
163,173,69289,6,0,L|165:194,16,20,4|0|0|0|0|0|0|0|0|0|0|0|0|0|0|0|0,0:0|0:0|0:0|0:0|0:0|0:0|0:0|0:0|0:0|0:0|0:0|0:0|0:0|0:0|0:0|0:0|0:0,0:0:0:0:
163,173,70324,6,0,L|166:200,1,20
86,195,70496,2,0,L|83:168,1,20,0|0,0:0|0:0,0:0:0:0:
41,114,70668,2,0,L|62:97,1,20,0|0,0:0|0:0,0:0:0:0:
93,31,70841,2,0,L|117:41,1,20
190,34,71013,2,0,L|193:61,1,20,0|0,0:0|0:0,0:0:0:0:
235,119,71186,2,0,L|213:135,1,20,0|0,0:0|0:0,0:0:0:0:
183,200,71358,2,0,L|158:189,1,20,0|0,0:0|0:0,0:0:0:0:
86,195,71530,2,0,L|83:175,1,20,0|0,0:0|0:0,0:0:0:0:
137,115,71703,6,0,P|116:179|147:276,1,160
372,316,73082,5,0,0:0:0:0:
371,308,73168,1,0,0:0:0:0:
370,299,73255,1,0,0:0:0:0:
369,291,73341,1,0,0:0:0:0:
368,283,73427,2,0,L|363:242,1,40
433,204,73599,2,0,L|437:244,1,40
506,283,73772,1,0,0:0:0:0:
506,283,73944,1,0,0:0:0:0:
61,310,74461,6,0,L|41:306,6,20
144,254,74806,2,0,L|163:251,6,20,0|0|0|0|2|0|0,0:0|0:0|0:0|0:0|0:0|0:0|0:0,0:0:0:0:
61,198,75151,2,0,L|41:195,6,20,0|0|0|0|0|0|0,0:0|0:0|0:0|0:0|3:0|0:0|0:0,0:0:0:0:
81,201,75496,5,2,0:0:0:0:
48,86,75668,1,0,0:0:0:0:
48,86,75755,2,0,P|90:64|156:92,1,120,0|0,0:0|0:0,0:0:0:0:
211,310,76358,1,0,0:0:0:0:
209,317,76444,1,0,0:0:0:0:
208,324,76530,2,0,L|247:321,1,40,0|0,0:0|0:0,0:0:0:0:
267,319,76703,1,0,0:0:0:0:
431,312,76875,5,0,0:0:0:0:
461,194,77048,1,2,0:0:0:0:
461,194,77134,2,0,P|407:174|356:201,1,120,0|0,0:0|0:0,0:0:0:0:
356,201,77565,6,0,P|351:161|370:126,1,80,2|0,3:0|0:0,0:0:0:0:
293,23,77737,2,0,P|325:0|364:0,1,80,0|0,0:0|0:0,0:0:0:0:
466,134,77910,1,0,0:0:0:0:
465,149,77996,1,0,0:0:0:0:
464,164,78082,1,0,0:0:0:0:
463,179,78168,1,0,0:0:0:0:
459,251,78255,6,0,L|453:364,1,80,0|0,0:0|0:0,0:0:0:0:
354,362,78427,1,0,0:0:0:0:
353,347,78513,1,0,0:0:0:0:
349,275,78600,5,0,0:0:0:0:
348,260,78686,2,0,L|342:147,1,80,0|0,0:0|0:0,0:0:0:0:
243,149,78858,1,0,0:0:0:0:
239,221,78944,6,0,L|237:245,6,25,2|0|0|0|0|0|2,0:0|0:0|0:0|0:0|0:0|0:0|0:0,0:0:0:0:
228,320,79289,6,0,L|223:361,6,37.5000014305115,2|0|0|0|0|0|2,0:0|0:0|0:0|0:0|0:0|0:0|0:0,0:0:0:0:
105,312,79634,6,0,L|55:317,1,50,2|0,0:0|0:0,0:0:0:0:
101,283,79720,2,0,L|150:288,1,50,2|0,0:0|0:0,0:0:0:0:
114,203,79806,6,0,L|41:210,1,62.5,2|0,0:0|0:0,0:0:0:0:
110,174,79892,2,0,L|176:181,1,62.5,2|0,0:0|0:0,0:0:0:0:
97,94,79979,5,2,0:0:0:0:
377,374,80324,5,2,0:0:0:0:
418,343,80410,1,0,0:0:0:0:
469,351,80497,1,0,0:0:0:0:
312,306,80668,5,8,0:0:0:0:
359,326,80754,1,0,0:0:0:0:
377,374,80841,1,0,0:0:0:0:
494,261,81013,5,2,0:0:0:0:
448,242,81099,1,0,0:0:0:0:
430,194,81185,1,0,0:0:0:0:
390,224,81271,1,0,0:0:0:0:
339,216,81357,1,8,0:0:0:0:
345,266,81443,1,0,0:0:0:0:
312,306,81530,2,0,L|227:300,1,64.9999970245363,2|0,3:0|0:0,0:0:0:0:
61,354,81703,5,2,0:0:0:0:
34,96,81875,1,0,0:0:0:0:
34,96,81961,2,0,B|58:76|58:76|92:81,1,64.9999970245363,2|8,0:0|0:0,0:0:0:0:
142,140,82134,1,0,0:0:0:0:
142,140,82220,2,0,B|118:160|118:160|84:155,1,64.9999970245363,2|8,0:0|0:0,0:0:0:0:
15,285,82392,5,2,0:0:0:0:
65,271,82479,1,0,0:0:0:0:
113,289,82565,1,2,0:0:0:0:
141,332,82651,1,0,0:0:0:0:
179,366,82737,1,8,0:0:0:0:
230,371,82823,1,0,0:0:0:0:
275,345,82910,2,0,L|360:339,1,64.9999970245363,2|0,0:0|0:0,0:0:0:0:
379,180,83082,5,2,0:0:0:0:
338,149,83168,1,0,0:0:0:0:
287,157,83255,1,0,0:0:0:0:
444,112,83426,5,8,0:0:0:0:
397,132,83512,1,0,0:0:0:0:
379,180,83599,1,0,0:0:0:0:
262,67,83772,5,2,0:0:0:0:
308,48,83858,1,0,0:0:0:0:
326,0,83944,1,0,0:0:0:0:
366,30,84030,1,0,0:0:0:0:
417,22,84116,1,8,0:0:0:0:
411,72,84202,1,0,0:0:0:0:
444,112,84289,2,0,L|529:106,1,64.9999970245363,2|0,3:0|0:0,0:0:0:0:
349,121,84461,5,2,0:0:0:0:
189,134,84634,1,0,0:0:0:0:
189,134,84720,2,0,B|196:97|196:97|185:71,1,64.9999970245363,2|8,0:0|0:0,0:0:0:0:
114,104,84892,1,0,0:0:0:0:
114,104,84978,2,0,B|106:140|106:140|117:166,1,64.9999970245363,2|0,0:0|0:0,0:0:0:0:
143,361,85151,6,0,B|179:368|179:368|205:357,1,64.9999970245363,2|0,0:0|0:0,0:0:0:0:
193,198,85324,2,0,L|188:133,1,64.9999970245363,2|0,0:0|0:0,0:0:0:0:
292,38,85496,6,0,B|328:31|328:31|354:42,1,64.9999970245363,8|0,0:0|0:0,0:0:0:0:
342,201,85669,2,0,L|337:266,1,64.9999970245363,2|2,0:0|0:0,0:0:0:0:
511,353,85841,5,6,0:0:0:0:
512,300,85927,1,0,0:0:0:0:
471,268,86013,1,0,0:0:0:0:
503,352,86186,5,8,0:0:0:0:
503,304,86272,1,0,0:0:0:0:
467,275,86358,1,0,0:0:0:0:
377,119,86530,5,2,0:0:0:0:
363,169,86616,1,0,0:0:0:0:
333,211,86702,1,0,0:0:0:0:
291,241,86789,1,0,0:0:0:0:
240,255,86875,1,8,0:0:0:0:
189,250,86961,1,0,0:0:0:0:
141,228,87048,2,0,L|148:153,1,64.9999970245363,2|2,3:0|3:0,0:0:0:0:
15,20,87220,5,2,0:0:0:0:
51,283,87392,1,0,0:0:0:0:
39,306,87478,2,0,B|70:320|70:320|101:311,1,64.9999970245363,2|8,0:0|0:0,0:0:0:0:
55,206,87651,1,0,0:0:0:0:
67,183,87737,2,0,B|36:169|36:169|5:178,1,64.9999970245363,2|0,0:0|0:0,0:0:0:0:
122,304,87910,6,0,L|197:297,1,64.9999970245363,2|0,0:0|0:0,0:0:0:0:
326,285,88082,1,2,0:0:0:0:
316,286,88169,1,0,0:0:0:0:
307,287,88255,1,8,0:0:0:0:
297,288,88341,1,0,0:0:0:0:
287,289,88427,1,2,0:0:0:0:
278,290,88513,1,0,0:0:0:0:
268,290,88599,5,2,0:0:0:0:
321,289,88685,1,0,0:0:0:0:
353,330,88771,1,0,0:0:0:0:
270,299,88944,5,8,0:0:0:0:
317,298,89030,1,0,0:0:0:0:
346,334,89116,1,0,0:0:0:0:
493,174,89289,5,2,0:0:0:0:
440,172,89375,1,0,0:0:0:0:
392,189,89461,1,0,0:0:0:0:
351,221,89548,1,0,0:0:0:0:
323,266,89634,1,8,0:0:0:0:
315,317,89720,1,0,0:0:0:0:
322,368,89806,2,0,L|397:361,1,64.9999970245363,2|0,3:0|0:0,0:0:0:0:
493,174,89979,5,2,0:0:0:0:
349,267,90151,1,0,0:0:0:0:
323,266,90237,2,0,L|258:263,1,64.9999970245363,2|8,0:0|0:0,0:0:0:0:
204,151,90410,1,0,0:0:0:0:
230,152,90496,2,0,L|295:155,1,64.9999970245363,2|0,0:0|0:0,0:0:0:0:
485,101,90668,6,0,L|478:36,1,64.9999970245363,2|0,0:0|0:0,0:0:0:0:
407,63,90841,5,2,0:0:0:0:
408,74,90898,5,2,0:0:0:0:
409,85,90956,5,2,0:0:0:0:
411,96,91013,6,0,L|417:159,1,64.9999970245363,10|2,0:0|0:0,0:0:0:0:
435,353,91186,1,2,0:0:0:0:
78,284,91358,5,6,0:0:0:0:
45,244,91444,1,0,0:0:0:0:
40,192,91530,1,0,0:0:0:0:
70,150,91617,1,0,0:0:0:0:
127,197,91703,5,8,0:0:0:0:
135,207,91789,1,0,0:0:0:0:
136,220,91875,1,0,0:0:0:0:
129,230,91961,1,0,0:0:0:0:
78,284,92048,5,2,0:0:0:0:
91,221,92134,1,0,0:0:0:0:
135,175,92220,1,0,0:0:0:0:
195,155,92306,1,0,0:0:0:0:
256,171,92392,1,8,0:0:0:0:
303,213,92479,1,0,0:0:0:0:
321,273,92565,1,2,3:0:0:0:
309,335,92651,1,2,3:0:0:0:
230,338,92737,6,0,B|179:354|179:354|264:267,1,150.000005722046,2|0,0:0|0:0,0:0:0:0:
309,335,92996,6,0,L|382:331,1,75.0000028610231,2|8,0:0|0:0,0:0:0:0:
472,192,93168,1,0,0:0:0:0:
441,190,93255,2,0,L|367:186,1,75.0000028610231,2|0,0:0|0:0,0:0:0:0:
184,117,93427,6,0,B|168:81|168:81|186:51,1,75.0000028610231,2|0,0:0|0:0,0:0:0:0:
362,111,93599,2,0,L|366:185,1,75.0000028610231,0|0,3:0|3:0,0:0:0:0:
58,106,93772,6,0,B|95:113|95:113|110:145,1,75.0000028610231,2|0,3:2|3:0,0:0:0:0:
291,213,93944,2,0,L|287:139,1,75.0000028610231,2|0,3:2|3:0,0:0:0:0:
434,100,94117,5,2,0:0:0:0:
467,140,94203,1,0,0:0:0:0:
472,192,94289,1,0,0:0:0:0:
442,234,94376,1,0,0:0:0:0:
385,187,94461,5,8,0:0:0:0:
377,177,94548,1,0,0:0:0:0:
376,164,94634,1,0,0:0:0:0:
383,154,94720,1,0,0:0:0:0:
434,100,94806,5,2,0:0:0:0:
421,163,94892,1,0,0:0:0:0:
377,209,94978,1,0,0:0:0:0:
317,229,95064,1,0,0:0:0:0:
256,213,95150,1,8,0:0:0:0:
209,171,95237,1,0,0:0:0:0:
191,111,95323,1,2,3:0:0:0:
203,49,95409,1,0,0:0:0:0:
282,46,95496,5,2,0:0:0:0:
105,325,95668,1,0,0:0:0:0:
103,294,95755,2,0,L|98:212,1,75.0000028610231,2|8,0:0|0:0,0:0:0:0:
203,49,95927,1,0,0:0:0:0:
201,79,96014,2,0,L|196:161,1,75.0000028610231,2|0,0:0|0:0,0:0:0:0:
15,82,96186,5,2,0:0:0:0:
22,80,96272,1,0,0:0:0:0:
29,82,96358,1,2,0:0:0:0:
35,87,96444,1,2,0:0:0:0:
38,94,96530,1,2,0:0:0:0:
39,101,96617,1,2,0:0:0:0:
36,108,96703,2,0,L|-5:110,2,37.5000014305115,2|0|2,0:0|0:0|0:0,0:0:0:0:
29,269,96875,5,6,0:0:0:0:
70,300,96961,1,0,0:0:0:0:
122,302,97048,1,0,0:0:0:0:
165,273,97134,1,0,0:0:0:0:
199,197,97220,5,8,0:0:0:0:
212,197,97307,1,0,0:0:0:0:
222,204,97393,1,0,0:0:0:0:
226,217,97479,1,0,0:0:0:0:
243,299,97565,5,2,0:0:0:0:
226,234,97651,1,0,0:0:0:0:
256,176,97738,1,0,0:0:0:0:
317,150,97824,1,0,0:0:0:0:
379,171,97910,1,8,0:0:0:0:
413,226,97996,1,0,0:0:0:0:
404,290,98082,1,2,3:0:0:0:
357,335,98168,1,2,3:0:0:0:
317,255,98255,6,0,B|307:244|292:243|292:243|411:225,1,150.000005722046,2|0,0:0|0:0,0:0:0:0:
465,289,98513,2,0,L|391:301,1,75.0000028610231,2|8,0:0|0:0,0:0:0:0:
301,168,98686,1,0,0:0:0:0:
330,164,98772,2,0,L|404:152,1,75.0000028610231,2|0,0:0|0:0,0:0:0:0:
272,312,98944,6,0,B|234:317|234:317|202:298,1,75.0000028610231,2|0,0:0|0:0,0:0:0:0:
225,104,99117,2,0,L|234:29,1,75.0000028610231,2|0,0:0|0:0,0:0:0:0:
78,84,99289,6,0,B|40:78|40:78|8:97,1,75.0000028610231,2|2,0:0|0:0,0:0:0:0:
31,292,99462,2,0,L|40:366,1,75.0000028610231,2|2,0:0|0:0,0:0:0:0:
58,165,99634,5,2,0:0:0:0:
108,172,99720,1,0,0:0:0:0:
157,178,99806,1,0,0:0:0:0:
208,186,99892,1,0,0:0:0:0:
235,266,99979,5,8,0:0:0:0:
223,259,100066,1,0,0:0:0:0:
211,260,100152,1,0,0:0:0:0:
201,269,100238,1,0,0:0:0:0:
226,349,100324,5,2,0:0:0:0:
283,375,100410,1,0,0:0:0:0:
348,369,100497,1,0,0:0:0:0:
401,332,100583,1,0,0:0:0:0:
429,273,100669,1,8,0:0:0:0:
423,209,100755,1,0,0:0:0:0:
385,156,100841,1,2,3:0:0:0:
327,128,100928,1,0,0:0:0:0:
318,217,101014,5,6,0:0:0:0:
318,217,101272,1,6,0:0:0:0:
318,217,101530,1,6,0:0:0:0:
326,127,101703,5,2,0:0:0:0:
350,197,101789,2,0,L|341:261,1,37.5000014305115,2|0,0:0|0:0,0:0:0:0:
374,267,101875,2,0,L|479:252,1,100,2|0,0:0|0:0,0:0:0:0:
138,72,102048,6,0,L|32:57,2,100,2|2|2,0:0|0:0|0:0,0:0:0:0:
90,262,102392,5,4,0:0:0:0:
90,262,102565,1,0,0:0:0:0:
96,284,102651,2,0,P|60:300|23:288,1,80,0|0,0:0|0:0,0:0:0:0:
174,224,102996,1,0,0:0:0:0:
151,218,103082,2,0,P|154:178|182:153,1,80,2|0,0:0|0:0,0:0:0:0:
164,315,103427,1,8,0:0:0:0:
181,298,103513,2,0,P|213:320|221:358,1,80,0|0,0:0|0:0,0:0:0:0:
181,298,103772,6,0,L|289:294,1,89.9999972534181,2|0,0:0|0:0,0:0:0:0:
302,293,104030,1,0,0:0:0:0:
332,292,104117,1,8,0:0:0:0:
502,333,104289,1,0,0:0:0:0:
413,191,104461,1,2,0:0:0:0:
383,192,104548,1,0,0:0:0:0:
351,193,104634,2,0,L|261:196,1,89.9999972534181,0|8,0:0|0:0,0:0:0:0:
229,198,104892,2,0,B|251:160|251:160|240:115,1,89.9999972534181,0|2,0:0|0:0,0:0:0:0:
221,43,105151,5,2,0:0:0:0:
221,43,105324,1,0,0:0:0:0:
150,34,105411,1,0,0:0:0:0:
9,165,105582,5,0,0:0:0:0:
80,156,105668,2,0,B|52:199|52:199|64:245,1,100,0|2,0:0|0:0,0:0:0:0:
144,250,105927,1,0,0:0:0:0:
133,218,106013,1,0,0:0:0:0:
314,265,106186,5,8,0:0:0:0:
321,213,106272,1,0,0:0:0:0:
453,362,106444,5,0,0:0:0:0:
495,304,106530,1,2,0:0:0:0:
495,304,106703,1,0,0:0:0:0:
438,116,106875,5,8,0:0:0:0:
438,116,107048,2,0,L|422:236,1,110.000003356934,0|2,0:0|0:0,0:0:0:0:
378,287,107306,1,0,0:0:0:0:
353,212,107392,2,0,L|367:102,1,110.000003356934,0|8,0:0|0:0,0:0:0:0:
363,26,107651,2,0,B|374:51|374:51|370:78,1,55.0000016784668,0|0,0:0|0:0,0:0:0:0:
295,58,107824,2,0,B|284:33|284:33|287:5,1,55.0000016784668,10|2,0:0|0:0,0:0:0:0:
273,238,107996,5,0,0:0:0:0:
195,253,108082,1,0,0:0:0:0:
129,212,108168,1,0,0:0:0:0:
114,135,108255,2,0,L|54:142,1,59.9999981689454,8|0,0:0|0:0,0:0:0:0:
10,78,108427,2,0,L|129:62,1,119.999996337891,0|2,0:0|0:0,0:0:0:0:
206,49,108686,5,0,0:0:0:0:
190,125,108772,1,0,0:0:0:0:
4,254,108944,5,8,0:0:0:0:
77,229,109030,1,0,0:0:0:0:
282,324,109203,6,0,L|275:384,1,59.9999981689454,0|2,0:0|0:0,0:0:0:0:
224,275,109375,5,0,0:0:0:0:
273,246,109461,1,0,0:0:0:0:
329,261,109548,1,0,0:0:0:0:
360,308,109634,2,0,L|419:315,1,55.0000016784668,8|0,0:0|0:0,0:0:0:0:
453,249,109806,2,0,L|333:233,1,110.000003356934,0|2,0:0|0:0,0:0:0:0:
266,224,110065,5,0,0:0:0:0:
227,219,110151,1,0,0:0:0:0:
451,165,110324,5,8,0:0:0:0:
490,160,110410,1,2,0:0:0:0:
266,106,110582,5,2,0:0:0:0:
227,101,110668,1,2,0:0:0:0:
2,134,110841,1,0,0:0:0:0:
211,183,111013,5,8,0:0:0:0:
38,208,111186,1,0,0:0:0:0:
195,265,111358,5,2,0:0:0:0:
74,282,111530,1,2,0:0:0:0:
145,345,111703,5,2,0:0:0:0:
195,265,111789,2,0,L|244:258,1,50,2|0,0:0|0:0,0:0:0:0:
434,233,111961,1,2,0:0:0:0:
466,229,112048,5,4,0:0:0:0:
466,229,112306,1,4,0:0:0:0:
466,229,112565,1,4,0:0:0:0:
466,229,112737,6,0,L|391:218,1,75.0000028610231,2|0,0:0|0:0,0:0:0:0:
201,186,112910,2,0,L|203:167,4,18.7500007152558,2|0|0|0|0,1:0|0:0|0:0|0:0|0:0,0:0:0:0:
218,184,113082,6,0,L|297:172,1,75,2|2,0:0|3:0,0:0:0:0:
