osu file format v14

[General]
AudioFilename: audio.mp3
AudioLeadIn: 0
PreviewTime: 77565
Countdown: 0
SampleSet: Soft
StackLeniency: 0.4
Mode: 0
LetterboxInBreaks: 0
WidescreenStoryboard: 1

[Editor]
DistanceSpacing: 1.3
BeatDivisor: 8
GridSize: 16
TimelineZoom: 2.400001

[Metadata]
Title:polygon
TitleUnicode:polygon
Artist:Sota Fujimori
ArtistUnicode:Sota Fujimori
Creator:Kaifin
Version:Insane
Source:jubeat copious
Tags:REFLEC BEAT colette autumn fanzhen0019 bonzi revurii xlolicore-
BeatmapID:1236720
BeatmapSetID:559097

[Difficulty]
HPDrainRate:5.5
CircleSize:4
OverallDifficulty:7
ApproachRate:8
SliderMultiplier:1.55
SliderTickRate:1

[Events]
//Background and Video events
0,0,"polygonbg1080.png",0,0
//Break Periods
2,69144,76815
//Storyboard Layer 0 (Background)
//Storyboard Layer 1 (Fail)
//Storyboard Layer 2 (Pass)
//Storyboard Layer 3 (Foreground)
//Storyboard Sound Samples

[TimingPoints]
324,344.827586206897,4,3,0,70,1,0
2737,-100,4,3,2,50,0,0
3082,-100,4,2,1,70,0,0
20496,-100,4,2,0,70,0,0
20582,-100,4,2,1,70,0,0
20841,-100,4,2,0,70,0,0
20927,-100,4,2,1,70,0,0
21186,-100,4,2,0,70,0,0
21272,-100,4,2,1,70,0,0
21530,-100,4,2,0,70,0,0
21617,-100,4,2,1,70,0,0
22479,-100,4,2,0,70,0,0
23082,-100,4,2,1,70,0,0
23168,-100,4,2,0,70,0,0
23513,-100,4,2,1,70,0,0
35496,-100,4,2,1,40,0,0
35668,-100,4,2,1,55,0,0
35755,-100,4,2,1,70,0,0
36186,-100,4,2,1,70,0,1
37048,-100,4,2,1,70,0,1
38944,-100,4,2,1,70,0,1
39806,-100,4,2,8,70,0,1
39979,-100,4,2,1,70,0,1
40065,-100,4,2,8,70,0,1
40324,-100,4,2,1,70,0,1
40410,-100,4,2,8,70,0,1
40668,-100,4,2,1,70,0,1
40841,-100,4,2,8,70,0,1
41013,-100,4,2,1,70,0,1
42479,-100,4,2,8,70,0,1
42651,-100,4,2,1,70,0,1
42824,-100,4,2,8,70,0,1
43082,-100,4,2,1,70,0,1
43168,-100,4,2,8,70,0,1
43427,-100,4,2,1,70,0,1
43513,-100,4,2,8,70,0,1
44117,-100,4,2,1,70,0,1
45237,-100,4,2,8,70,0,1
45410,-100,4,2,1,70,0,1
45582,-100,4,2,8,70,0,1
45755,-100,4,2,1,70,0,1
47220,-100,4,2,1,70,0,0
49375,-100,4,2,8,70,0,0
49634,-100,4,2,1,70,0,0
49720,-100,4,2,8,70,0,0
49979,-100,4,2,1,70,0,0
52134,-100,4,2,8,70,0,0
52565,-100,4,2,1,70,0,0
54892,-100,4,2,8,70,0,0
55151,-100,4,2,1,70,0,0
55237,-100,4,2,8,70,0,0
55496,-100,4,2,1,70,0,0
68599,-100,4,2,1,50,0,0
68944,-100,4,2,1,70,0,0
69289,-100,4,2,8,40,0,0
79720,-100,4,2,1,75,0,0
80324,-100,4,2,1,75,0,1
81703,-100,4,2,1,75,0,1
83082,-100,4,2,1,75,0,1
84461,-100,4,2,1,75,0,1
85496,-100,4,2,1,75,0,1
87220,-100,4,2,1,75,0,1
88599,-100,4,2,1,75,0,1
89979,-100,4,2,1,75,0,1
90841,-100,4,2,1,75,0,1
92737,-100,4,2,1,75,0,1
94117,-100,4,2,1,75,0,1
95496,-100,4,2,1,75,0,1
96703,-100,4,2,1,75,0,1
98255,-100,4,2,1,75,0,1
99634,-100,4,2,1,75,0,1
102392,-100,4,2,1,70,0,0

[Colours]
Combo1 : 255,136,255
Combo2 : 255,155,106
Combo3 : 100,170,255
Combo4 : 243,56,84

[HitObjects]
256,192,324,12,8,2737,0:0:0:0:
78,344,3082,6,0,P|116:346|151:332,1,77.5,6|0,0:0|0:0,0:0:0:0:
180,305,3341,2,0,P|215:290|253:293,1,77.5,0|0,0:0|0:0,0:0:0:0:
286,314,3599,2,0,L|300:216,1,77.5,0|2,0:0|0:0,0:0:0:0:
333,224,3858,2,0,L|319:126,1,77.5,0|0,0:0|0:0,0:0:0:0:
286,134,4117,1,8,0:0:0:0:
207,84,4289,1,2,0:1:0:0:
128,120,4461,6,0,L|51:109,1,77.5,2|0,3:1|0:0,0:0:0:0:
6,77,4720,2,0,L|82:66,1,77.5,0|0,0:0|0:0,0:0:0:0:
128,34,4979,1,0,0:0:0:0:
51,109,5151,5,2,0:0:0:0:
49,124,5237,1,0,0:0:0:0:
47,139,5324,1,0,0:0:0:0:
217,7,5496,2,0,L|206:84,1,77.5,8|0,0:0|0:0,0:0:0:0:
51,109,5841,6,0,P|89:107|124:121,1,77.5,2|0,0:0|0:0,0:0:0:0:
153,148,6100,2,0,P|188:163|226:160,1,77.5,0|0,0:0|0:0,0:0:0:0:
259,139,6358,2,0,L|273:237,1,77.5,0|2,0:0|0:0,0:0:0:0:
306,229,6617,2,0,L|292:327,1,77.5,0|0,0:0|0:0,0:0:0:0:
259,319,6876,1,8,0:0:0:0:
180,369,7048,1,2,0:1:0:0:
94,369,7220,6,0,L|105:292,1,77.5,2|0,3:1|0:0,0:0:0:0:
137,247,7479,2,0,L|148:323,1,77.5,0|0,0:0|0:0,0:0:0:0:
180,369,7738,1,0,0:0:0:0:
104,292,7910,5,2,0:0:0:0:
89,294,7996,1,0,0:0:0:0:
74,296,8083,1,0,0:0:0:0:
239,211,8255,5,8,0:0:0:0:
254,213,8341,1,0,0:0:0:0:
269,215,8428,1,0,0:0:0:0:
37,138,8599,6,0,L|48:61,1,77.5,2|0,0:0|0:0,0:0:0:0:
83,44,8858,2,0,L|160:55,1,77.5,0|0,0:0|0:0,0:0:0:0:
177,89,9117,2,0,L|166:166,1,77.5,0|2,0:0|0:0,0:0:0:0:
132,183,9375,2,0,L|55:172,1,77.5,0|0,0:0|0:0,0:0:0:0:
37,138,9634,1,8,0:0:0:0:
20,247,9806,1,2,0:1:0:0:
85,336,9979,6,0,L|162:325,1,77.5,2|0,3:1|0:0,0:0:0:0:
198,285,10237,2,0,L|275:296,1,77.5,0|0,0:0|0:0,0:0:0:0:
311,336,10496,1,0,0:0:0:0:
383,276,10668,5,2,0:0:0:0:
380,256,10754,1,0,0:0:0:0:
377,237,10840,1,0,0:0:0:0:
259,139,11013,2,0,L|248:216,1,77.5,8|0,0:0|0:0,0:0:0:0:
490,121,11358,6,0,L|479:44,1,77.5,2|0,0:0|0:0,0:0:0:0:
444,27,11617,2,0,L|367:38,1,77.5,0|0,0:0|0:0,0:0:0:0:
350,72,11876,2,0,L|361:149,1,77.5,0|2,0:0|0:0,0:0:0:0:
395,166,12134,2,0,L|472:155,1,77.5,0|0,0:0|0:0,0:0:0:0:
490,121,12393,1,8,0:0:0:0:
507,230,12565,1,0,0:0:0:0:
441,319,12737,6,0,L|325:302,2,116.25,4|4|4,0:0|0:0|0:0,0:0:0:0:
259,362,13427,6,0,L|250:304,3,38.75,2|0|2|2,0:0|0:0|0:0|0:0,0:0:0:0:
180,302,13772,1,2,0:0:0:0:
138,309,13858,1,0,0:0:0:0:
96,316,13944,1,2,0:0:0:0:
0,182,14117,6,0,P|49:162|66:219,1,116.25,6|0,0:0|0:0,0:0:0:0:
49,246,14461,2,0,L|165:229,1,116.25,8|0,0:0|0:0,0:0:0:0:
194,198,14806,5,2,0:0:0:0:
180,302,14979,1,0,0:0:0:0:
267,219,15151,1,8,0:0:0:0:
253,323,15324,1,0,0:0:0:0:
340,240,15496,1,2,0:0:0:0:
326,344,15669,1,0,0:0:0:0:
399,365,15841,1,8,0:0:0:0:
413,261,16013,1,0,0:0:0:0:
487,281,16186,6,0,L|384:253,1,77.5,2|0,0:0|0:0,0:0:0:0:
456,159,16530,1,8,0:0:0:0:
461,177,16616,1,0,0:0:0:0:
466,195,16703,1,2,0:0:0:0:
429,83,16875,6,0,P|380:63|363:120,1,116.25,2|0,0:0|0:0,0:0:0:0:
380,147,17220,2,0,L|264:130,1,116.25,8|0,0:0|0:0,0:0:0:0:
235,99,17565,5,2,0:0:0:0:
249,203,17738,1,0,0:0:0:0:
162,120,17910,1,8,0:0:0:0:
176,224,18083,1,0,0:0:0:0:
89,141,18255,1,2,0:0:0:0:
103,245,18428,1,0,0:0:0:0:
16,162,18600,1,8,0:0:0:0:
176,224,18772,1,2,0:0:0:0:
19,302,18944,5,2,0:0:0:0:
24,284,19030,1,0,0:0:0:0:
29,266,19117,1,0,0:0:0:0:
124,319,19289,1,8,0:0:0:0:
176,224,19461,1,2,0:0:0:0:
231,347,19634,6,0,P|280:367|297:310,1,116.25,6|0,0:0|0:0,0:0:0:0:
280,283,19978,2,0,L|396:300,1,116.25,8|0,0:0|0:0,0:0:0:0:
425,331,20324,5,2,0:0:0:0:
352,215,20496,1,2,0:0:0:0:
468,142,20668,1,8,0:0:0:0:
468,142,20841,1,0,0:0:0:0:
425,331,21013,5,2,0:0:0:0:
352,215,21185,1,2,0:0:0:0:
468,142,21358,1,8,0:0:0:0:
352,215,21530,1,2,0:0:0:0:
236,142,21703,6,0,L|248:229,1,77.5,2|0,0:0|0:0,0:0:0:0:
180,72,22048,1,8,0:0:0:0:
198,67,22134,1,0,0:0:0:0:
216,62,22221,1,2,0:0:0:0:
400,189,22392,6,0,P|351:209|334:152,1,116.25,2|0,0:0|0:0,0:0:0:0:
351,125,22737,2,0,L|235:142,1,116.25,0|0,0:0|0:0,0:0:0:0:
206,173,23082,5,2,0:0:0:0:
196,284,23255,1,2,0:0:0:0:
307,294,23427,1,2,0:0:0:0:
317,183,23599,1,2,0:0:0:0:
256,233,23772,5,0,0:0:0:0:
256,233,23944,1,2,0:0:0:0:
136,335,24117,1,2,0:0:0:0:
136,335,24203,1,0,0:0:0:0:
136,335,24289,1,0,0:0:0:0:
75,268,24461,2,0,L|87:181,2,77.5,6|6|6,0:0|0:0|0:0,0:0:0:0:
152,130,25151,5,4,0:0:0:0:
152,130,25237,2,0,L|228:140,1,77.5,0|0,0:0|0:0,0:0:0:0:
267,148,25496,1,8,0:0:0:0:
216,62,25668,1,0,3:0:0:0:
172,210,25841,5,0,0:0:0:0:
170,225,25927,1,0,3:0:0:0:
168,240,26013,1,0,3:0:0:0:
267,148,26186,1,8,0:0:0:0:
341,188,26358,5,0,0:0:0:0:
339,203,26444,1,0,0:0:0:0:
337,218,26530,1,2,0:0:0:0:
335,233,26617,1,0,0:0:0:0:
320,84,26789,1,0,0:0:0:0:
320,84,26875,6,0,L|358:89,1,38.75,8|0,0:0|0:0,0:0:0:0:
412,96,27048,1,0,3:0:0:0:
427,98,27135,1,0,0:0:0:0:
442,100,27220,6,0,L|437:138,3,38.75,0|0|0|0,0:0|3:0|0:0|3:0,0:0:0:0:
464,166,27565,2,0,L|459:204,3,38.75,8|0|0|0,0:0|0:0|0:0|0:0,0:0:0:0:
486,231,27910,6,0,P|431:246|379:222,2,116.25,2|0|0,0:0|0:0|0:0,0:0:0:0:
470,319,28599,1,0,3:0:0:0:
468,334,28685,1,0,0:0:0:0:
466,349,28771,1,0,3:0:0:0:
308,360,28944,2,0,L|384:350,1,77.5,8|0,0:0|0:0,0:0:0:0:
384,349,29203,1,0,0:0:0:0:
384,349,29289,6,0,L|389:311,1,38.75,0|0,3:0|0:0,0:0:0:0:
284,241,29548,2,0,L|279:279,1,38.75,0|8,0:0|0:0,0:0:0:0:
193,330,29806,5,8,0:0:0:0:
193,330,29892,1,0,0:0:0:0:
100,256,30065,1,8,0:0:0:0:
100,256,30151,1,0,0:0:0:0:
32,375,30324,5,8,0:0:0:0:
32,375,30496,1,2,0:0:0:0:
100,256,30668,5,6,0:0:0:0:
100,256,30755,2,0,L|174:239,1,77.5,0|0,0:0|0:0,0:0:0:0:
214,233,31013,1,8,0:0:0:0:
136,170,31185,1,0,0:0:0:0:
146,324,31358,5,0,3:0:0:0:
149,338,31444,1,0,3:0:0:0:
152,352,31530,1,0,3:0:0:0:
214,233,31703,1,8,0:0:0:0:
296,252,31875,5,0,3:0:0:0:
299,267,31961,1,0,0:0:0:0:
302,282,32047,1,0,3:0:0:0:
305,297,32134,1,0,3:0:0:0:
242,159,32306,1,0,0:0:0:0:
242,159,32392,6,0,L|279:150,1,38.75,8|0,0:0|0:0,0:0:0:0:
332,138,32565,1,0,3:0:0:0:
347,135,32652,1,0,3:0:0:0:
362,132,32737,6,0,L|370:94,3,38.75,0|0|0|0,3:0|3:0|3:0|3:0,0:0:0:0:
341,67,33082,2,0,L|349:29,3,38.75,8|0|0|0,0:0|0:0|3:3|3:3,0:0:0:0:
320,2,33427,6,0,P|268:25|213:10,2,116.25,0|0|0,3:0|0:0|3:0,0:0:0:0:
440,58,34117,1,0,3:0:0:0:
444,77,34203,1,0,0:0:0:0:
448,96,34290,1,0,3:0:0:0:
369,94,34461,1,8,0:0:0:0:
440,58,34634,5,0,3:0:0:0:
444,77,34720,1,8,3:0:0:0:
448,96,34806,5,4,0:0:0:0:
320,2,35065,1,4,0:0:0:0:
192,96,35324,1,4,0:0:0:0:
256,192,35410,12,2,36013,0:0:0:0:
387,284,36186,6,0,L|310:273,1,77.5,4|0,0:0|0:0,0:0:0:0:
287,304,36444,1,0,0:0:0:0:
287,304,36530,2,0,L|210:314,1,77.5,8|0,0:0|0:0,0:0:0:0:
79,384,36875,6,0,L|90:272,1,77.5,2|0,0:0|0:0,0:0:0:0:
70,238,37134,2,0,L|58:349,1,77.5,0|0,0:0|0:0,0:0:0:0:
149,267,37392,6,0,L|137:155,1,77.5,0|2,0:0|0:0,0:0:0:0:
158,121,37651,2,0,L|169:232,1,77.5,0|0,0:0|0:0,0:0:0:0:
210,314,37910,6,0,L|287:304,1,77.5,8|0,0:0|0:0,0:0:0:0:
310,273,38168,2,0,L|387:284,1,77.5,0|0,0:0|0:0,0:0:0:0:
421,289,38427,1,2,3:0:0:0:
459,294,38513,1,0,0:0:0:0:
362,204,38686,1,2,3:0:0:0:
400,209,38772,1,0,3:0:0:0:
303,119,38944,6,0,L|380:130,1,77.5,2|0,0:0|0:0,0:0:0:0:
402,98,39203,2,0,L|479:88,1,77.5,0|0,0:0|0:0,0:0:0:0:
500,56,39461,1,0,0:0:0:0:
417,12,39634,1,2,0:0:0:0:
326,34,39806,1,0,0:0:0:0:
500,57,39979,1,8,0:0:0:0:
379,129,40151,6,0,L|390:206,1,77.5,0|2,0:0|0:0,0:0:0:0:
428,265,40410,2,0,L|417:188,1,77.5,2|2,0:0|0:0,0:0:0:0:
379,129,40668,1,8,0:0:0:0:
441,340,40841,1,2,0:0:0:0:
367,312,41013,5,2,0:0:0:0:
367,312,41099,1,0,0:0:0:0:
367,312,41186,1,2,0:0:0:0:
284,331,41358,1,8,0:0:0:0:
201,350,41530,1,2,0:0:0:0:
35,312,41703,6,0,L|24:235,1,77.5,4|0,0:0|0:0,0:0:0:0:
56,213,41962,2,0,L|66:136,1,77.5,0|0,0:0|0:0,0:0:0:0:
98,115,42220,1,0,0:0:0:0:
197,156,42392,1,2,0:0:0:0:
155,255,42565,1,2,0:0:0:0:
98,115,42737,1,8,0:0:0:0:
164,51,42910,6,0,L|241:62,1,77.5,2|2,0:0|0:0,0:0:0:0:
271,37,43169,2,0,L|348:26,1,77.5,2|0,0:0|0:0,0:0:0:0:
378,51,43427,1,10,0:0:0:0:
397,134,43599,1,0,0:0:0:0:
416,217,43772,5,2,0:0:0:0:
431,214,43858,1,0,0:0:0:0:
446,211,43944,1,2,0:3:0:0:
397,134,44117,1,8,0:0:0:0:
412,131,44203,1,0,0:0:0:0:
427,128,44289,1,2,0:3:0:0:
378,51,44461,6,0,L|301:62,1,77.5,2|0,0:0|0:0,0:0:0:0:
286,64,44720,1,0,0:0:0:0:
271,67,44806,1,8,0:0:0:0:
186,81,44979,1,0,0:0:0:0:
206,196,45151,1,2,0:0:0:0:
321,176,45324,1,2,0:0:0:0:
186,81,45496,1,8,0:0:0:0:
301,61,45668,1,2,0:0:0:0:
321,176,45841,5,2,3:0:0:0:
324,191,45927,1,0,0:0:0:0:
206,196,46099,1,0,3:0:0:0:
209,211,46185,1,2,3:0:0:0:
97,246,46358,5,0,3:0:0:0:
94,231,46444,1,0,0:0:0:0:
91,216,46530,1,2,3:0:0:0:
206,196,46703,1,2,0:0:0:0:
321,176,46875,1,4,0:0:0:0:
491,367,47220,6,0,L|315:337,1,155,4|0,0:0|0:0,0:0:0:0:
260,320,47737,1,0,0:0:0:0:
260,320,47824,1,0,0:0:0:0:
260,320,47910,2,0,L|275:232,1,77.5,2|0,0:0|3:0,0:0:0:0:
407,192,48255,2,0,L|392:280,1,77.5,0|2,0:0|0:0,0:0:0:0:
304,131,48599,6,0,L|480:101,1,155,2|2,0:0|0:0,0:0:0:0:
407,36,49117,1,0,0:3:0:0:
330,49,49289,1,2,0:0:0:0:
315,52,49375,1,0,0:0:0:0:
300,55,49461,1,2,0:0:0:0:
285,58,49548,1,2,0:0:0:0:
270,61,49634,1,2,0:0:0:0:
193,74,49806,1,0,0:0:0:0:
196,89,49892,1,2,0:0:0:0:
199,104,49979,6,0,L|214:192,1,77.5,2|0,0:0|3:0,0:0:0:0:
115,89,50324,2,0,L|129:166,1,77.5,0|0,0:0|0:0,0:0:0:0:
31,74,50668,1,0,3:0:0:0:
31,74,50754,1,0,0:0:0:0:
31,74,50840,1,0,3:0:0:0:
131,180,51013,1,0,0:0:0:0:
128,165,51099,1,0,0:0:0:0:
196,89,51272,1,2,0:0:0:0:
199,104,51359,6,0,L|214:192,1,77.5,2|0,0:0|0:0,0:0:0:0:
299,180,51703,2,0,L|284:268,1,77.5,2|0,0:0|0:0,0:0:0:0:
212,332,52048,1,2,0:0:0:0:
212,332,52134,1,0,0:0:0:0:
212,332,52220,1,0,3:0:0:0:
301,356,52392,1,0,3:0:0:0:
390,333,52565,1,2,3:0:0:0:
390,333,52651,1,0,0:0:0:0:
390,333,52737,5,2,0:0:0:0:
471,98,53082,1,0,0:0:0:0:
451,273,53427,5,2,3:0:0:0:
410,155,53772,1,0,0:0:0:0:
431,215,54116,5,0,3:0:0:0:
431,215,54461,1,2,0:0:0:0:
431,215,54806,1,2,0:0:0:0:
431,215,55151,1,2,0:0:0:0:
301,356,55496,5,2,0:0:0:0:
220,121,55841,1,0,0:0:0:0:
240,296,56186,5,0,3:0:0:0:
281,178,56531,1,2,0:0:0:0:
301,356,56703,5,0,0:0:0:0:
301,356,56789,1,2,0:0:0:0:
301,356,56875,1,4,0:0:0:0:
260,238,57134,1,4,0:0:0:0:
220,121,57392,1,4,0:0:0:0:
301,356,57737,5,10,0:0:0:0:
301,356,57823,1,8,0:0:0:0:
301,356,57909,1,8,0:0:0:0:
220,121,58255,5,2,0:0:0:0:
242,117,58341,1,0,0:0:0:0:
265,113,58427,1,0,0:0:0:0:
287,109,58513,1,0,0:0:0:0:
310,105,58599,1,8,0:0:0:0:
234,42,58772,6,0,L|225:-8,2,38.75,0|0|2,0:0|0:0|0:0,0:0:0:0:
310,105,59117,2,0,L|319:155,2,38.75,0|0|8,0:0|0:0|0:0,0:0:0:0:
366,47,59461,1,0,0:0:0:0:
450,105,59634,5,2,0:0:0:0:
450,105,59720,2,0,L|468:205,1,77.5,0|0,0:0|0:0,0:0:0:0:
425,188,59979,2,0,L|375:197,2,38.75,8|0|0,0:0|0:0|0:0,0:0:0:0:
463,181,60237,2,0,L|481:281,2,77.5
425,188,60668,1,8,0:0:0:0:
386,194,60755,1,0,0:0:0:0:
347,200,60841,6,0,L|356:250,2,38.75,0|0|2,0:0|0:0|0:0,0:0:0:0:
328,84,61186,1,0,0:0:0:0:
444,65,61358,1,8,0:0:0:0:
463,181,61530,1,0,0:0:0:0:
347,200,61703,6,0,L|297:209,2,38.75,2|0|0,0:0|0:0|0:0,0:0:0:0:
463,181,62048,2,0,L|476:257,1,77.5,8|0,0:0|0:0,0:0:0:0:
427,335,62392,5,2,0:0:0:0:
333,327,62565,1,0,0:0:0:0:
239,319,62737,1,8,0:0:0:0:
145,311,62910,1,0,0:0:0:0:
85,384,63082,5,2,0:0:0:0:
73,339,63168,1,2,0:0:0:0:
61,294,63255,1,0,0:0:0:0:
227,274,63427,5,2,0:0:0:0:
233,296,63513,1,2,0:0:0:0:
239,319,63600,1,2,0:0:0:0:
415,380,63772,5,6,0:0:0:0:
421,358,63858,1,0,0:0:0:0:
427,335,63945,1,0,0:0:0:0:
433,312,64030,1,0,0:0:0:0:
439,289,64117,1,8,0:0:0:0:
463,181,64289,6,0,L|449:119,2,38.75,0|0|2,0:0|0:0|0:0,0:0:0:0:
439,289,64634,2,0,L|501:303,2,38.75,0|0|8,0:0|0:0|0:0,0:0:0:0:
380,234,64979,1,0,0:0:0:0:
277,329,65151,5,2,0:0:0:0:
277,329,65237,2,0,L|259:229,1,77.5,0|2,0:0|0:0,0:0:0:0:
302,246,65496,2,0,L|352:237,2,38.75,8|0|2,0:0|0:0|0:0,0:0:0:0:
264,253,65754,2,0,L|246:153,2,77.5,0|0|2,0:0|0:0|0:0,0:0:0:0:
302,246,66185,1,8,0:0:0:0:
341,240,66272,1,0,0:0:0:0:
380,234,66358,6,0,L|371:184,2,38.75,2|0|4,0:0|0:0|0:0,0:0:0:0:
250,176,66789,1,4,0:0:0:0:
120,118,67048,1,0,0:0:0:0:
61,182,67220,5,4,0:0:0:0:
250,176,67479,1,4,0:0:0:0:
439,170,67737,1,0,1:0:0:0:
380,106,67910,6,0,L|389:56,3,38.75,0|0|0|6,0:0|0:0|0:0|0:0,0:0:0:0:
425,72,68255,2,0,L|434:22,3,38.75,0|0|4|0,0:0|0:0|0:0|0:0,0:0:0:0:
470,38,68599,5,4,0:0:0:0:
470,38,68772,1,4,0:0:0:0:
470,38,68944,1,4,3:0:0:0:
256,192,77565,12,2,79979,0:0:0:0:
341,275,80324,6,0,L|331:323,3,38.75,2|0|0|0,0:0|0:0|0:0|0:0,0:0:0:0:
299,293,80668,2,0,L|257:319,3,38.75,8|0|0|0,0:0|0:0|0:0|0:0,0:0:0:0:
256,276,81013,2,0,L|176:257,1,77.5,2|0,0:0|0:0,0:0:0:0:
135,234,81272,2,0,L|214:215,1,77.5,0|0,0:0|0:0,0:0:0:0:
256,192,81530,1,2,3:0:0:0:
210,16,81703,6,0,L|192:91,1,77.5,2|0,0:0|0:0,0:0:0:0:
149,151,81961,2,0,L|166:75,1,77.5,2|0,0:0|0:0,0:0:0:0:
210,16,82220,1,2,0:0:0:0:
357,128,82392,5,2,0:0:0:0:
293,27,82565,1,2,0:0:0:0:
256,192,82737,1,8,0:0:0:0:
192,91,82910,1,2,0:0:0:0:
171,275,83082,6,0,L|181:323,3,38.75,2|0|0|0,0:0|0:0|0:0|0:0,0:0:0:0:
213,293,83427,2,0,L|255:319,3,38.75,8|0|0|0,0:0|0:0|0:0|0:0,0:0:0:0:
256,276,83771,2,0,L|335:257,1,77.5,2|0,0:0|0:0,0:0:0:0:
377,234,84030,2,0,L|297:215,1,77.5,0|0,0:0|0:0,0:0:0:0:
256,192,84288,1,2,3:0:0:0:
302,16,84461,6,0,L|320:91,1,77.5,2|0,0:0|0:0,0:0:0:0:
363,151,84719,2,0,L|346:75,1,77.5,2|0,0:0|0:0,0:0:0:0:
302,16,84978,1,2,0:0:0:0:
192,91,85151,6,0,L|154:99,3,38.75,2|0|2|0,0:0|0:0|0:0|0:0,0:0:0:0:
115,106,85496,1,8,0:0:0:0:
123,145,85582,1,0,0:0:0:0:
131,184,85668,1,2,0:0:0:0:
256,192,85841,6,0,L|294:200,3,38.75,6|0|0|0,0:0|0:0|0:0|0:0,0:0:0:0:
331,209,86186,2,0,L|369:201,3,38.75,8|0|0|0,0:0|0:0|0:0|0:0,0:0:0:0:
406,192,86530,2,0,L|390:268,1,77.5,2|0,0:0|0:0,0:0:0:0:
413,336,86789,2,0,L|429:260,1,77.5,0|0,0:0|0:0,0:0:0:0:
406,192,87048,1,2,3:0:0:0:
325,359,87220,6,0,L|249:343,1,77.5,2|0,0:0|0:0,0:0:0:0:
221,314,87479,2,0,L|145:330,1,77.5,2|0,0:0|0:0,0:0:0:0:
117,359,87737,1,2,0:0:0:0:
233,210,87910,5,2,0:0:0:0:
249,343,88082,1,2,0:0:0:0:
117,359,88255,1,8,0:0:0:0:
101,226,88427,1,2,0:0:0:0:
233,210,88599,6,0,L|271:202,3,38.75,2|0|0|0,0:0|0:0|0:0|0:0,0:0:0:0:
291,169,88944,2,0,L|283:131,3,38.75,8|0|0|0,0:0|0:0|0:0|0:0,0:0:0:0:
250,111,89289,2,0,L|212:119,3,38.75,2|0|0|0,0:0|0:0|0:0|0:0,0:0:0:0:
192,152,89634,2,0,L|200:190,3,38.75,8|0|2|0,0:0|0:0|3:0|0:0,0:0:0:0:
233,210,89979,6,0,L|309:194,1,77.5,2|0,0:0|0:0,0:0:0:0:
344,210,90237,2,0,L|420:194,1,77.5,2|0,0:0|0:0,0:0:0:0:
455,210,90496,1,2,0:0:0:0:
370,125,90668,5,2,0:0:0:0:
324,283,90841,1,2,0:0:0:0:
233,210,91013,1,10,0:0:0:0:
270,202,91099,1,2,0:0:0:0:
308,194,91186,1,2,0:0:0:0:
213,285,91358,6,0,L|205:323,3,38.75,6|0|0|0,0:0|0:0|0:0|0:0,0:0:0:0:
163,333,91703,1,8,0:0:0:0:
126,341,91789,1,0,0:0:0:0:
88,349,91876,1,0,0:0:0:0:
50,357,91961,1,0,0:0:0:0:
12,365,92048,6,0,L|28:289,1,77.5,2|0,0:0|0:0,0:0:0:0:
67,273,92306,2,0,L|51:197,1,77.5,0|0,0:0|0:0,0:0:0:0:
12,181,92565,1,2,3:0:0:0:
157,225,92737,6,0,L|233:209,1,77.5,2|0,0:0|0:0,0:0:0:0:
267,224,92996,2,0,L|343:209,1,77.5,2|0,0:0|0:0,0:0:0:0:
377,223,93255,1,2,0:0:0:0:
232,209,93427,5,2,0:0:0:0:
365,369,93599,1,0,3:0:0:0:
220,355,93772,1,2,3:2:0:0:
377,223,93944,1,2,3:2:0:0:
232,209,94117,6,0,L|224:171,3,38.75,2|0|0|0,0:0|0:0|0:0|0:0,0:0:0:0:
182,161,94462,1,8,0:0:0:0:
145,153,94548,1,0,0:0:0:0:
107,145,94635,1,0,0:0:0:0:
69,137,94720,1,0,0:0:0:0:
31,129,94807,6,0,L|47:205,1,77.5,2|0,0:0|0:0,0:0:0:0:
86,221,95065,2,0,L|70:297,1,77.5,0|0,0:0|0:0,0:0:0:0:
31,313,95324,1,2,3:0:0:0:
173,353,95496,6,0,L|249:337,1,77.5,2|0,0:0|0:0,0:0:0:0:
283,352,95755,2,0,L|359:337,1,77.5,2|0,0:0|0:0,0:0:0:0:
393,351,96014,1,2,0:0:0:0:
461,282,96186,6,0,L|468:244,3,38.75,2|0|2|2,0:0|0:0|0:0|0:0,0:0:0:0:
433,219,96530,2,0,L|440:181,3,38.75,2|2|2|2,0:0|0:0|0:0|0:0,0:0:0:0:
405,156,96875,5,6,0:0:0:0:
365,140,96961,1,0,0:0:0:0:
322,144,97048,1,0,0:0:0:0:
286,166,97134,1,0,0:0:0:0:
272,206,97220,1,8,0:0:0:0:
258,246,97306,1,0,0:0:0:0:
222,268,97392,1,0,0:0:0:0:
179,272,97479,1,0,0:0:0:0:
139,256,97565,6,0,L|121:159,1,77.5,2|0,0:0|0:0,0:0:0:0:
82,123,97824,2,0,L|100:223,1,77.5,0|0,0:0|0:0,0:0:0:0:
124,179,98082,1,2,3:0:0:0:
42,362,98255,6,0,L|118:346,1,77.5,2|0,0:0|0:0,0:0:0:0:
152,361,98514,2,0,L|228:346,1,77.5,2|0,0:0|0:0,0:0:0:0:
262,360,98773,1,2,0:0:0:0:
117,346,98944,5,2,0:0:0:0:
202,228,99117,1,2,0:0:0:0:
262,360,99289,1,2,0:0:0:0:
117,346,99460,1,2,0:0:0:0:
202,228,99634,6,0,L|194:190,3,38.75,2|0|0|0,0:0|0:0|0:0|0:0,0:0:0:0:
216,157,99979,2,0,L|254:149,3,38.75,8|0|0|0,0:0|0:0|0:0|0:0,0:0:0:0:
287,171,100324,2,0,L|294:209,3,38.75,2|0|0|0,0:0|0:0|0:0|0:0,0:0:0:0:
273,242,100668,2,0,L|235:249,3,38.75,8|0|2|0,0:0|0:0|3:0|0:0,0:0:0:0:
202,228,101013,5,6,0:0:0:0:
216,157,101272,1,6,0:0:0:0:
230,86,101530,1,6,0:0:0:0:
333,317,101703,5,2,0:0:0:0:
333,317,101789,1,2,0:0:0:0:
333,317,101875,1,2,0:0:0:0:
202,336,102048,5,2,0:0:0:0:
202,336,102134,1,2,0:0:0:0:
202,336,102220,1,2,0:0:0:0:
71,355,102392,6,0,L|92:247,1,77.5,4|0,0:0|0:0,0:0:0:0:
230,86,102737,2,0,L|209:194,1,77.5,8|0,0:0|0:0,0:0:0:0:
110,287,103082,6,0,L|131:179,1,77.5,2|0,0:0|0:0,0:0:0:0:
190,153,103427,2,0,L|169:261,1,77.5,8|0,0:0|0:0,0:0:0:0:
31,146,103772,6,0,L|139:125,1,77.5,2|0,0:0|0:0,0:0:0:0:
325,264,104117,2,0,L|217:243,1,77.5,8|0,0:0|0:0,0:0:0:0:
33,301,104461,6,0,L|141:280,1,77.5,2|0,0:0|0:0,0:0:0:0:
180,360,104806,2,0,L|72:339,1,77.5,8|0,0:0|0:0,0:0:0:0:
248,249,105151,6,0,L|262:172,1,77.5,2|0,0:0|0:0,0:0:0:0:
336,129,105496,2,0,L|412:143,1,77.5,8|0,0:0|0:0,0:0:0:0:
456,217,105841,2,0,L|441:293,1,77.5,2|0,0:0|0:0,0:0:0:0:
368,337,106186,2,0,L|291:322,1,77.5,8|0,0:0|0:0,0:0:0:0:
300,241,106530,6,0,L|314:164,1,77.5,2|0,0:0|0:0,0:0:0:0:
344,181,106875,2,0,L|420:195,1,77.5,8|0,0:0|0:0,0:0:0:0:
404,225,107219,2,0,L|389:301,1,77.5,2|0,0:0|0:0,0:0:0:0:
360,285,107565,2,0,L|283:270,1,77.5,8|0,0:0|0:0,0:0:0:0:
352,233,107910,5,2,0:0:0:0:
344,181,108255,1,8,0:0:0:0:
336,129,108599,1,2,0:0:0:0:
328,77,108944,1,8,0:0:0:0:
160,151,109289,5,2,0:0:0:0:
168,203,109634,1,8,0:0:0:0:
176,255,109978,1,2,0:0:0:0:
184,307,110323,1,8,0:0:0:0:
352,233,110668,5,2,0:0:0:0:
328,77,110841,1,0,0:0:0:0:
344,181,111013,1,8,0:0:0:0:
336,129,111186,1,0,0:0:0:0:
160,151,111358,5,2,0:0:0:0:
184,307,111530,1,2,0:0:0:0:
168,203,111703,1,2,0:0:0:0:
172,229,111789,1,2,0:0:0:0:
176,255,111875,1,0,0:0:0:0:
180,281,111961,1,2,0:0:0:0:
184,307,112047,5,4,0:0:0:0:
172,229,112306,1,4,0:0:0:0:
160,151,112565,1,4,0:0:0:0:
31,358,112737,6,0,B|71:321|71:321|94:354|94:354|118:332|118:332|144:364|144:364|189:325|251:362,1,271.25,2|2,0:0|3:0,0:0:0:0:
