osu file format v14

[General]
AudioFilename: audio.mp3
AudioLeadIn: 0
PreviewTime: 77565
Countdown: 0
SampleSet: None
StackLeniency: 0.3
Mode: 0
LetterboxInBreaks: 0
WidescreenStoryboard: 1

[Editor]
DistanceSpacing: 0.3
BeatDivisor: 8
GridSize: 8
TimelineZoom: 4.199999

[Metadata]
Title:polygon
TitleUnicode:polygon
Artist:Sota Fujimori
ArtistUnicode:Sota Fujimori
Creator:Kaifin
Version:Incrementally Hi-Speed Extreme
Source:jubeat copious
Tags:REFLEC BEAT colette autumn fanzhen0019 bonzi revurii xlolicore-
BeatmapID:1234400
BeatmapSetID:559097

[Difficulty]
HPDrainRate:7
CircleSize:4
OverallDifficulty:9
ApproachRate:9.6
SliderMultiplier:1.8
SliderTickRate:1

[Events]
//Background and Video events
0,0,"polygonbg1080.png",0,0
//Break Periods
//Storyboard Layer 0 (Background)
//Storyboard Layer 1 (Fail)
//Storyboard Layer 2 (Pass)
//Storyboard Layer 3 (Foreground)
//Storyboard Sound Samples

[TimingPoints]
324,344.827586206897,4,3,0,70,1,0
2392,-100,4,2,0,50,0,0
2565,-100,4,3,0,70,0,0
2737,-100,4,3,2,50,0,0
3082,-66.6666666666667,4,2,1,70,0,0
11013,-50,4,2,1,70,0,0
14117,-200,4,2,1,70,0,0
16875,-100,4,2,1,70,0,0
19634,-66.6666666666667,4,2,1,70,0,0
20496,-66.6666666666667,4,2,0,70,0,0
20582,-66.6666666666667,4,2,1,70,0,0
20841,-66.6666666666667,4,2,0,70,0,0
20927,-66.6666666666667,4,2,1,70,0,0
21186,-66.6666666666667,4,2,0,70,0,0
21272,-66.6666666666667,4,2,1,70,0,0
21530,-66.6666666666667,4,2,0,70,0,0
21617,-66.6666666666667,4,2,1,70,0,0
22392,-50,4,2,1,70,0,0
22479,-50,4,2,0,70,0,0
23082,-50,4,2,1,70,0,0
23168,-50,4,2,0,70,0,0
23513,-50,4,2,1,70,0,0
25151,-100,4,2,1,70,0,0
30668,-66.6666666666667,4,2,1,70,0,0
35496,-66.6666666666667,4,2,1,40,0,0
35668,-66.6666666666667,4,2,1,55,0,0
35755,-66.6666666666667,4,2,1,70,0,0
36186,-50,4,2,1,70,0,1
37048,-50,4,2,1,70,0,1
38944,-50,4,2,1,70,0,1
39806,-50,4,2,8,70,0,1
39979,-50,4,2,1,70,0,1
40065,-50,4,2,8,70,0,1
40324,-50,4,2,1,70,0,1
40410,-50,4,2,8,70,0,1
40668,-50,4,2,1,70,0,1
40841,-50,4,2,8,70,0,1
41013,-50,4,2,1,70,0,1
41703,-40,4,2,1,70,0,1
42479,-40,4,2,8,70,0,1
42651,-40,4,2,1,70,0,1
42824,-40,4,2,8,70,0,1
43082,-40,4,2,1,70,0,1
43168,-40,4,2,8,70,0,1
43427,-40,4,2,1,70,0,1
43513,-40,4,2,8,70,0,1
44117,-40,4,2,1,70,0,1
45237,-40,4,2,8,70,0,1
45410,-40,4,2,1,70,0,1
45582,-40,4,2,8,70,0,1
45755,-40,4,2,1,70,0,1
47220,-200,4,2,1,70,0,0
49375,-200,4,2,8,70,0,0
49634,-200,4,2,1,70,0,0
49720,-200,4,2,8,70,0,0
49979,-200,4,2,1,70,0,0
52134,-200,4,2,8,70,0,0
52565,-200,4,2,1,70,0,0
52737,-100,4,2,1,70,0,0
54892,-100,4,2,8,70,0,0
55151,-100,4,2,1,70,0,0
55237,-100,4,2,8,70,0,0
55496,-100,4,2,1,70,0,0
58255,-66.6666666666667,4,2,1,70,0,0
63772,-50,4,2,1,70,0,0
66530,-40,4,2,1,70,0,0
68599,-40,4,2,1,50,0,0
68944,-40,4,2,1,70,0,0
69289,-200,4,2,8,40,0,0
69634,-185.185185185185,4,2,8,40,0,0
69979,-172.413793103448,4,2,8,40,0,0
70324,-161.290322580645,4,2,8,40,0,0
70668,-151.515151515152,4,2,8,40,0,0
71013,-142.857142857143,4,2,8,40,0,0
71358,-135.135135135135,4,2,8,40,0,0
71703,-128.205128205128,4,2,8,40,0,0
72048,-121.951219512195,4,2,8,40,0,0
72392,-116.279069767442,4,2,8,40,0,0
72737,-111.111111111111,4,2,8,40,0,0
73082,-106.382978723404,4,2,8,40,0,0
73427,-102.040816326531,4,2,8,40,0,0
73772,-98.0392156862745,4,2,8,40,0,0
74117,-94.3396226415094,4,2,8,40,0,0
74461,-90.9090909090909,4,2,8,40,0,0
74806,-87.719298245614,4,2,8,40,0,0
75151,-84.7457627118644,4,2,8,40,0,0
75496,-80.6451612903226,4,2,8,40,0,0
76013,-78.125,4,2,8,40,0,0
76358,-75.7575757575758,4,2,8,40,0,0
76875,-73.5294117647059,4,2,8,40,0,0
77392,-71.4285714285714,4,2,8,40,0,0
77565,-69.4444444444444,4,2,8,40,0,0
77737,-67.5675675675676,4,2,8,40,0,0
78255,-65.7894736842105,4,2,8,40,0,0
78599,-64.1025641025641,4,2,8,40,0,0
78858,-62.5,4,2,8,40,0,0
79117,-60.9756097560976,4,2,8,40,0,0
79375,-59.5238095238095,4,2,8,40,0,0
79548,-58.1395348837209,4,2,8,40,0,0
79720,-58.1395348837209,4,2,1,75,0,0
79979,-200,4,2,1,75,0,0
80324,-50,4,2,1,75,0,1
81703,-50,4,2,1,75,0,1
83082,-44.4444444444445,4,2,1,75,0,1
84461,-44.4444444444445,4,2,1,75,0,1
85496,-44.4444444444445,4,2,1,75,0,1
85841,-40,4,2,1,75,0,1
87220,-40,4,2,1,75,0,1
88599,-36.3636363636364,4,2,1,75,0,1
89979,-36.3636363636364,4,2,1,75,0,1
90841,-36.3636363636364,4,2,1,75,0,1
91358,-33.3333333333333,4,2,1,75,0,1
92737,-33.3333333333333,4,2,1,75,0,1
94117,-30.7692307692308,4,2,1,75,0,1
95496,-30.7692307692308,4,2,1,75,0,1
96703,-30.7692307692308,4,2,1,75,0,1
96875,-28.5714285714286,4,2,1,75,0,1
98255,-28.5714285714286,4,2,1,75,0,1
99634,-26.6666666666667,4,2,1,75,0,1
101703,-25,4,2,1,75,0,1
102392,-50,4,2,1,70,0,0
105151,-66.6666666666667,4,2,1,70,0,0
107910,-100,4,2,1,70,0,0
110668,-200,4,2,1,70,0,0
112737,-25,4,2,1,70,0,0
112910,-100,4,2,1,70,0,0

[Colours]
Combo1 : 255,136,255
Combo2 : 255,155,106
Combo3 : 100,170,255
Combo4 : 243,56,84

[HitObjects]
55,328,324,5,0,0:0:0:0:
95,308,410,1,0,0:0:0:0:
151,308,496,1,2,2:0:0:0:
191,328,582,1,0,0:0:0:0:
27,200,755,5,0,0:0:0:0:
27,256,841,1,0,0:0:0:0:
203,240,1013,5,0,2:0:0:0:
27,200,1186,1,2,2:0:0:0:
203,184,1358,5,2,0:0:0:0:
27,256,1530,1,0,0:0:0:0:
175,112,1703,6,0,L|35:111,1,135,0|0,0:0|0:0,0:0:0:0:
55,328,2048,2,0,L|195:327,1,135,2|0,0:0|0:0,0:0:0:0:
73,212,2392,5,0,0:0:0:0:
73,240,2478,1,0,0:0:0:0:
161,232,2565,5,2,0:0:0:0:
161,204,2652,1,0,0:0:0:0:
119,224,2737,5,8,0:0:0:0:
469,334,3082,6,0,L|457:252,1,67.5000025749208,6|0,0:0|0:0,0:0:0:0:
298,131,3255,5,0,0:0:0:0:
311,210,3341,2,0,L|323:292,1,67.5000025749208,0|8,0:0|0:0,0:0:0:0:
435,38,3513,5,0,0:0:0:0:
503,77,3599,2,0,L|316:76,1,135.000005149842,0|2,0:0|0:0,0:0:0:0:
163,131,3858,2,0,L|350:130,1,135.000005149842,0|0,0:0|0:0,0:0:0:0:
148,153,4117,6,0,L|241:152,1,67.5000025749208,8|0,0:0|0:0,0:0:0:0:
488,185,4289,2,0,L|394:184,1,67.5000025749208,2|0,0:1|0:0,0:0:0:0:
64,312,4461,6,0,P|123:282|187:296,1,135.000005149842,2|0,3:1|0:0,0:0:0:0:
267,349,4720,2,0,P|334:363|393:331,1,135.000005149842,0|0,0:0|0:0,0:0:0:0:
459,267,4979,1,0,0:0:0:0:
134,365,5151,5,2,0:0:0:0:
127,367,5237,1,0,0:0:0:0:
120,369,5324,1,0,0:0:0:0:
358,218,5496,6,0,B|406:155|406:155|465:280,1,202.500007724762,8|0,0:0|0:0,0:0:0:0:
390,333,5841,6,0,L|290:318,1,67.5000025749208,2|0,0:0|0:0,0:0:0:0:
178,183,6013,5,0,0:0:0:0:
123,268,6099,2,0,L|223:253,1,67.5000025749208,0|8,0:0|0:0,0:0:0:0:
308,37,6272,5,0,0:0:0:0:
366,91,6358,2,0,P|381:165|344:232,1,135.000005149842,0|2,0:0|0:0,0:0:0:0:
308,37,6617,2,0,P|334:19|372:15,1,67.5000025749208,0|0,0:0|0:0,0:0:0:0:
299,149,6789,5,0,0:0:0:0:
224,115,6875,1,8,0:0:0:0:
178,183,6961,1,0,0:0:0:0:
72,88,7048,2,0,L|166:68,1,67.5000025749208,2|0,0:1|0:0,0:0:0:0:
255,272,7220,6,0,L|161:252,1,67.5000025749208,2|0,3:1|0:0,0:0:0:0:
33,158,7392,5,0,0:0:0:0:
52,233,7479,2,0,L|80:365,1,135.000005149842,0|0,0:0|0:0,0:0:0:0:
172,365,7737,2,0,L|266:345,1,67.5000025749208,0|0,0:0|0:0,0:0:0:0:
403,148,7910,5,2,0:0:0:0:
407,167,7997,1,0,0:0:0:0:
411,186,8083,1,0,0:0:0:0:
366,230,8255,5,8,0:0:0:0:
344,125,8341,1,0,0:0:0:0:
449,104,8427,1,0,0:0:0:0:
471,208,8513,1,8,0:0:0:0:
366,230,8599,6,0,L|272:210,1,67.5000025749208,2|0,0:0|0:0,0:0:0:0:
355,22,8772,5,0,0:0:0:0:
434,37,8858,2,0,L|454:131,1,67.5000025749208,0|8,0:0|0:0,0:0:0:0:
250,277,9030,5,0,0:0:0:0:
219,203,9116,2,0,L|259:15,1,135.000005149842,0|2,0:0|0:0,0:0:0:0:
471,208,9375,2,0,L|511:396,1,135.000005149842,0|0,0:0|0:0,0:0:0:0:
480,189,9634,6,0,L|500:283,1,67.5000025749208,8|0,0:0|0:0,0:0:0:0:
235,343,9806,2,0,L|255:249,1,67.5000025749208,2|0,0:1|0:0,0:0:0:0:
316,131,9979,6,0,L|448:102,1,135.000005149842,2|0,3:1|0:0,0:0:0:0:
86,174,10237,2,0,L|218:202,1,135.000005149842,0|0,0:0|0:0,0:0:0:0:
41,97,10496,1,0,0:0:0:0:
16,291,10668,5,2,0:0:0:0:
14,304,10755,1,0,0:0:0:0:
12,317,10841,1,0,0:0:0:0:
218,202,11013,6,0,P|317:197|290:52,1,270,8|0,0:0|0:0,0:0:0:0:
206,32,11358,6,0,L|182:150,1,90,2|0,0:0|0:0,0:0:0:0:
480,267,11530,5,0,0:0:0:0:
462,191,11617,2,0,L|438:73,1,90,0|8,0:0|0:0,0:0:0:0:
270,279,11789,1,0,0:0:0:0:
223,358,11875,6,0,B|343:362|343:362|362:267,1,180,0|2,0:0|0:0,0:0:0:0:
218,202,12134,2,0,L|122:199,1,90,0|0,0:0|0:0,0:0:0:0:
188,120,12306,1,0,0:0:0:0:
299,159,12392,5,8,0:0:0:0:
307,203,12479,1,0,0:0:0:0:
369,101,12565,5,0,0:0:0:0:
377,145,12652,1,8,0:0:0:0:
439,43,12737,5,4,0:0:0:0:
447,87,12996,5,4,0:0:0:0:
455,131,13255,5,4,0:0:0:0:
42,231,13427,5,2,0:0:0:0:
86,223,13513,1,0,0:0:0:0:
130,216,13599,1,2,0:0:0:0:
174,209,13686,1,2,0:0:0:0:
218,202,13772,5,2,0:0:0:0:
165,288,13858,1,0,0:0:0:0:
104,146,13944,1,2,0:0:0:0:
40,352,14117,6,0,L|125:338,1,67.5,6|0,0:0|0:0,0:0:0:0:
231,298,14461,2,0,L|146:284,1,67.5,8|0,0:0|0:0,0:0:0:0:
28,127,14806,6,0,L|21:169,1,22.5,2|0,0:0|0:0,0:0:0:0:
221,204,14979,2,0,L|228:161,1,22.5,0|0,0:0|0:0,0:0:0:0:
24,149,15151,6,0,L|17:191,1,22.5,8|0,0:0|0:0,0:0:0:0:
224,181,15324,2,0,L|231:138,1,22.5,0|0,0:0|0:0,0:0:0:0:
20,171,15496,6,0,L|13:213,1,22.5,2|0,0:0|0:0,0:0:0:0:
227,158,15669,2,0,L|234:115,1,22.5,0|0,0:0|0:0,0:0:0:0:
16,193,15841,6,0,L|9:235,1,22.5,8|0,0:0|0:0,0:0:0:0:
230,135,16014,2,0,L|237:92,1,22.5,0|0,0:0|0:0,0:0:0:0:
119,40,16186,6,0,L|34:54,1,67.5,2|0,0:0|0:0,0:0:0:0:
233,112,16530,5,8,0:0:0:0:
299,122,16617,1,0,0:0:0:0:
365,132,16703,1,2,0:0:0:0:
448,44,16875,6,0,L|473:195,1,135,2|0,0:0|0:0,0:0:0:0:
343,265,17220,2,0,L|368:113,1,135,8|0,0:0|0:0,0:0:0:0:
484,366,17565,6,0,L|408:353,1,45,2|0,0:0|0:0,0:0:0:0:
365,345,17737,2,0,L|289:357,1,45,0|0,0:0|0:0,0:0:0:0:
246,366,17910,2,0,L|170:353,1,45,8|0,0:0|0:0,0:0:0:0:
127,345,18082,2,0,L|51:357,1,45,0|0,0:0|0:0,0:0:0:0:
370,87,18255,6,0,L|359:173,1,45,2|0,0:0|0:0,0:0:0:0:
147,131,18427,2,0,L|142:87,1,45,0|0,0:0|0:0,0:0:0:0:
469,176,18599,6,0,L|464:221,1,45,8|0,0:0|0:0,0:0:0:0:
48,221,18772,2,0,L|43:177,1,45,2|0,0:0|0:0,0:0:0:0:
256,192,18944,5,2,0:0:0:0:
256,192,19030,1,0,0:0:0:0:
256,192,19117,1,0,0:0:0:0:
256,320,19289,1,8,0:0:0:0:
256,64,19461,1,2,0:0:0:0:
168,280,19634,6,0,P|256:320|352:272,1,202.500007724762,6|0,0:0|0:0,0:0:0:0:
434,190,19979,2,0,P|346:150|250:198,1,202.500007724762,8|0,0:0|0:0,0:0:0:0:
481,350,20324,6,0,L|500:235,1,67.5000025749208,2|0,0:0|0:0,0:0:0:0:
359,83,20496,2,0,L|347:149,1,67.5000025749208,2|0,0:0|0:0,0:0:0:0:
280,289,20668,6,0,L|346:277,1,67.5000025749208,8|0,0:0|0:0,0:0:0:0:
256,320,20841,2,0,L|322:308,1,67.5000025749208,0|0,0:0|0:0,0:0:0:0:
450,21,21013,6,0,L|461:87,1,67.5000025749208,2|0,0:0|0:0,0:0:0:0:
357,344,21186,2,0,L|338:229,1,67.5000025749208,2|0,0:0|0:0,0:0:0:0:
232,33,21358,6,0,L|165:21,1,67.5000025749208,8|0,0:0|0:0,0:0:0:0:
256,64,21531,2,0,L|189:52,1,67.5000025749208,2|0,0:0|0:0,0:0:0:0:
33,165,21703,6,0,P|115:131|115:239,1,202.500007724762,2|0,0:0|0:0,0:0:0:0:
27,333,22048,5,8,0:0:0:0:
93,323,22134,1,0,0:0:0:0:
159,313,22221,1,2,0:0:0:0:
475,137,22392,6,0,B|442:131|442:131|403:151|403:151|354:139|354:139|316:158|316:158|275:146|275:146|236:165|236:165|223:162,1,270,2|0,0:0|0:0,0:0:0:0:
360,348,22737,2,0,P|377:233|482:285,1,270,0|0,0:0|0:0,0:0:0:0:
492,61,23082,6,0,L|373:41,1,90,2|0,0:0|0:0,0:0:0:0:
189,52,23255,2,0,L|308:72,1,90,2|0,0:0|0:0,0:0:0:0:
311,177,23427,6,0,L|192:157,1,90,2|0,0:0|0:0,0:0:0:0:
127,228,23600,2,0,L|246:248,1,90,2|0,0:0|0:0,0:0:0:0:
71,375,23772,6,0,L|51:256,1,90,0|0,0:0|0:0,0:0:0:0:
374,259,23944,2,0,L|354:378,1,90,2|0,0:0|0:0,0:0:0:0:
221,294,24117,5,2,0:0:0:0:
218,268,24203,1,0,0:0:0:0:
215,242,24289,1,0,0:0:0:0:
21,112,24461,6,0,P|65:116|107:100,1,90,6|0,0:0|0:0,0:0:0:0:
194,24,24634,2,0,P|235:8|280:12,1,90,6|0,0:0|0:0,0:0:0:0:
391,180,24806,2,0,P|435:184|477:168,1,90,6|0,0:0|0:0,0:0:0:0:
142,298,25151,5,4,0:0:0:0:
215,242,25237,2,0,L|334:262,1,90,0|0,0:0|0:0,0:0:0:0:
142,298,25496,5,8,0:0:0:0:
286,179,25668,1,0,3:0:0:0:
359,347,25841,1,0,0:0:0:0:
333,344,25927,1,0,3:0:0:0:
307,341,26013,1,0,3:0:0:0:
142,298,26186,1,8,0:0:0:0:
391,180,26358,5,0,0:0:0:0:
394,206,26444,1,0,0:0:0:0:
474,275,26530,5,2,0:0:0:0:
448,278,26617,1,0,0:0:0:0:
325,98,26789,6,0,L|444:78,1,90,0|0,0:0|0:0,0:0:0:0:
391,180,27048,5,0,3:0:0:0:
394,206,27134,1,0,0:0:0:0:
474,275,27220,5,0,0:0:0:0:
448,278,27306,1,0,3:0:0:0:
379,358,27392,5,0,0:0:0:0:
376,332,27479,1,0,3:0:0:0:
296,263,27565,5,8,0:0:0:0:
322,260,27652,1,0,0:0:0:0:
385,269,27737,5,0,0:0:0:0:
359,272,27824,1,0,0:0:0:0:
252,327,27910,6,0,P|211:335|159:293,1,90,2|0,0:0|0:0,0:0:0:0:
94,267,28168,2,0,L|81:380,1,90,0|0,0:0|0:0,0:0:0:0:
38,192,28427,2,0,L|94:185,1,45,0|0,0:0|3:0,0:0:0:0:
199,119,28599,1,0,3:0:0:0:
154,113,28686,1,0,0:0:0:0:
109,107,28772,1,0,3:0:0:0:
39,361,28944,6,0,L|95:354,1,45,8|0,0:0|0:0,0:0:0:0:
163,190,29117,2,0,L|170:246,1,45,0|0,0:0|0:0,0:0:0:0:
283,155,29289,5,2,2:0:0:0:
272,67,29375,1,8,0:0:0:0:
94,267,29548,5,0,0:0:0:0:
83,355,29634,1,8,0:0:0:0:
445,111,29806,6,0,L|389:104,1,45,8|0,0:0|0:0,0:0:0:0:
83,355,29979,5,2,0:0:0:0:
171,344,30065,1,8,0:0:0:0:
259,333,30151,1,0,0:0:0:0:
423,280,30324,6,0,L|430:336,1,45,8|0,0:0|0:0,0:0:0:0:
340,250,30496,2,0,L|347:306,1,45,2|0,0:0|0:0,0:0:0:0:
486,32,30668,5,6,0:0:0:0:
445,111,30755,2,0,L|288:91,1,135.000005149842,0|0,0:0|0:0,0:0:0:0:
486,32,31013,5,8,0:0:0:0:
355,172,31186,1,0,0:0:0:0:
253,30,31358,1,0,3:0:0:0:
279,25,31444,1,0,3:0:0:0:
305,20,31530,1,0,3:0:0:0:
486,32,31703,1,8,0:0:0:0:
239,136,31875,5,0,3:0:0:0:
236,162,31961,1,0,0:0:0:0:
156,231,32047,5,0,3:0:0:0:
182,234,32133,1,0,3:0:0:0:
26,174,32306,6,0,L|159:156,1,135.000005149842,0|0,0:0|0:0,0:0:0:0:
141,79,32565,5,0,3:0:0:0:
167,82,32651,1,0,3:0:0:0:
239,136,32737,5,0,3:0:0:0:
236,162,32823,1,0,3:0:0:0:
182,234,32910,5,0,3:0:0:0:
156,231,32996,1,0,3:0:0:0:
84,177,33082,5,8,0:0:0:0:
87,151,33168,1,0,0:0:0:0:
159,155,33255,5,0,3:3:0:0:
251,38,33427,6,0,P|186:32|141:79,1,135.000005149842,0|0,3:0|0:0,0:0:0:0:
306,239,33686,2,0,L|320:105,1,135.000005149842
401,51,33944,2,0,L|408:119,1,67.5000025749208,0|0,3:0|3:0,0:0:0:0:
342,309,34117,1,0,3:0:0:0:
297,315,34203,1,0,0:0:0:0:
252,321,34290,1,0,3:0:0:0:
110,332,34461,6,0,L|104:264,1,67.5000025749208,8|0,0:0|0:0,0:0:0:0:
252,321,34634,5,0,3:0:0:0:
297,315,34721,1,8,3:0:0:0:
342,309,34806,2,0,P|401:336|384:223,2,202.500007724762,4|4|4,0:0|0:0|0:0,0:0:0:0:
4,195,35668,6,0,L|37:186,1,33.7500012874604,2|2,0:0|0:0,0:0:0:0:
74,210,35755,2,0,L|107:219,1,33.7500012874604,2|0,0:0|0:0,0:0:0:0:
132,183,35841,5,2,0:0:0:0:
64,112,35927,1,0,0:0:0:0:
14,273,36013,2,0,L|6:358,1,67.5000025749208,2|0,0:0|0:0,0:0:0:0:
235,256,36186,6,0,L|216:58,1,180,4|0,0:0|0:0,0:0:0:0:
97,4,36444,1,0,0:0:0:0:
49,92,36530,2,0,L|219:76,1,90,8|0,0:0|0:0,0:0:0:0:
404,240,36703,2,0,L|234:256,1,90,0|0,0:0|0:0,0:0:0:0:
109,300,36875,6,0,P|186:327|190:195,1,180,2|0,0:0|0:0,0:0:0:0:
233,243,37134,2,0,P|186:312|106:286,1,180,0|0,0:0|0:0,0:0:0:0:
217,76,37392,6,0,L|454:53,1,180,0|2,0:0|0:0,0:0:0:0:
487,38,37651,2,0,L|249:15,1,180,0|0,0:0|0:0,0:0:0:0:
352,259,37910,6,0,B|419:290|419:290|432:182,1,180,8|0,0:0|0:0,0:0:0:0:
512,138,38168,2,0,L|489:375,1,180,0|0,0:0|0:0,0:0:0:0:
413,362,38427,5,2,3:0:0:0:
494,317,38513,1,0,0:0:0:0:
271,214,38686,5,2,3:0:0:0:
352,259,38772,1,0,3:0:0:0:
196,346,38944,6,0,L|285:337,1,90,2|0,0:0|0:0,0:0:0:0:
101,199,39117,5,0,0:0:0:0:
48,280,39203,2,0,L|137:271,1,90,0|8,0:0|0:0,0:0:0:0:
254,41,39375,5,0,0:0:0:0:
307,122,39461,2,0,L|218:113,1,90,0|0,0:0|0:0,0:0:0:0:
32,48,39634,5,2,0:0:0:0:
109,354,39806,1,0,0:0:0:0:
11,208,39979,6,0,L|100:199,1,90,8|2,0:0|0:2,0:0:0:0:
386,64,40151,6,0,L|395:153,1,90,0|0,0:0|0:0,0:0:0:0:
325,288,40324,5,2,0:0:0:0:
316,211,40410,2,0,L|307:122,1,90,2|0,0:0|0:0,0:0:0:0:
477,184,40582,5,2,0:0:0:0:
486,261,40668,2,0,L|495:350,1,90,8|0,0:0|0:0,0:0:0:0:
217,112,40841,6,0,L|208:23,1,90,2|0,0:0|0:0,0:0:0:0:
414,330,41013,5,2,0:0:0:0:
414,330,41099,1,0,0:0:0:0:
414,330,41186,2,0,L|405:241,1,90,2|0,0:0|0:0,0:0:0:0:
100,198,41358,6,0,L|189:189,1,90,8|0,0:0|0:0,0:0:0:0:
325,288,41530,2,0,L|236:297,1,90,2|0,0:0|0:0,0:0:0:0:
28,122,41703,6,0,P|77:98|139:101,1,112.5,4|0,0:0|0:0,0:0:0:0:
268,375,41875,5,0,0:0:0:0:
268,375,41961,2,0,P|212:376|162:352,1,112.5,0|8,0:0|0:0,0:0:0:0:
279,113,42134,5,0,0:0:0:0:
336,176,42220,2,0,L|322:309,1,112.5,0|0,0:0|0:0,0:0:0:0:
477,85,42392,6,0,L|343:98,1,112.5,2|0,0:0|0:0,0:0:0:0:
139,180,42565,2,0,L|272:193,1,112.5,2|0,0:0|0:0,0:0:0:0:
406,359,42737,6,0,L|419:226,1,112.5,8|0,0:0|0:0,0:0:0:0:
492,163,42910,6,0,B|463:11|463:11|305:27,1,225,2|2,0:0|0:0,0:0:0:0:
237,31,43168,2,0,B|266:183|266:183|424:167,1,225,2|0,0:0|0:0,0:0:0:0:
477,85,43427,6,0,L|343:98,1,112.5,10|0,0:0|0:0,0:0:0:0:
212,299,43599,2,0,L|345:285,1,112.5,0|2,0:0|0:0,0:0:0:0:
28,122,43772,5,2,0:0:0:0:
35,166,43858,1,0,0:0:0:0:
42,210,43944,1,2,0:3:0:0:
28,122,44117,5,8,0:0:0:0:
42,210,44203,1,0,0:0:0:0:
35,166,44289,2,0,L|168:180,1,112.5,2|0,0:3|0:0,0:0:0:0:
435,275,44461,6,0,L|302:289,1,112.5,2|0,0:0|0:0,0:0:0:0:
37,379,44634,5,0,0:0:0:0:
61,292,44720,1,0,0:0:0:0:
124,357,44806,6,0,P|183:359|237:317,1,112.5,8|0,0:0|0:0,0:0:0:0:
256,233,44979,2,0,P|303:204|358:207,1,112.5,0|0,0:0|0:0,0:0:0:0:
502,335,45151,5,2,0:0:0:0:
154,267,45324,1,2,0:0:0:0:
463,67,45496,6,0,L|449:200,1,112.5,8|0,0:0|0:0,0:0:0:0:
256,233,45668,2,0,L|270:100,1,112.5,2|0,0:0|0:0,0:0:0:0:
351,17,45841,5,2,3:0:0:0:
451,178,45927,2,0,P|366:202|261:85,1,225,0|0,0:0|3:0,0:0:0:0:
153,47,46186,6,0,L|264:35,1,112.5,2|0,3:0|0:0,0:0:0:0:
447,301,46358,2,0,L|335:289,1,112.5,0|0,3:0|0:0,0:0:0:0:
170,165,46530,5,2,3:0:0:0:
170,165,46703,1,2,0:0:0:0:
170,165,46875,1,4,0:0:0:0:
9,316,47220,6,0,P|53:315|93:287,1,90,4|0,0:0|0:0,0:0:0:0:
34,219,47737,1,0,0:0:0:0:
34,219,47824,1,0,0:0:0:0:
34,219,47910,2,0,L|31:255,1,22.5,2|0,0:0|0:0,0:0:0:0:
156,351,48082,2,0,L|159:315,1,22.5,0|0,3:0|0:0,0:0:0:0:
90,290,48255,5,0,0:0:0:0:
9,316,48341,1,0,0:0:0:0:
170,165,48513,5,2,0:0:0:0:
251,191,48599,2,0,L|248:227,1,22.5,2|0,0:0|0:0,0:0:0:0:
170,165,48772,1,0,0:3:0:0:
169,142,48859,1,0,0:0:0:0:
168,119,48944,1,2,0:0:0:0:
247,259,49117,1,0,0:3:0:0:
103,72,49289,5,2,0:0:0:0:
136,48,49375,1,0,0:0:0:0:
175,41,49461,1,2,0:0:0:0:
214,52,49548,1,2,0:0:0:0:
294,98,49634,5,2,0:0:0:0:
293,80,49720,1,0,0:0:0:0:
292,67,49806,1,0,0:0:0:0:
292,55,49892,1,2,0:0:0:0:
360,18,49979,6,0,L|396:21,1,22.5,2|0,0:0|0:0,0:0:0:0:
471,89,50151,1,0,3:0:0:0:
471,89,50237,1,0,0:0:0:0:
471,89,50324,2,0,L|435:92,1,22.5,0|0,0:0|0:0,0:0:0:0:
360,160,50496,2,0,L|396:163,1,22.5,0|0,0:0|0:0,0:0:0:0:
471,231,50668,5,0,3:0:0:0:
470,254,50755,1,0,0:0:0:0:
469,277,50840,1,0,3:0:0:0:
325,344,51013,5,0,0:0:0:0:
351,262,51099,1,0,0:0:0:0:
248,102,51272,5,2,0:0:0:0:
274,184,51358,2,0,L|238:187,1,22.5,2|0,0:0|0:0,0:0:0:0:
248,102,51530,1,0,0:0:0:0:
271,103,51617,1,0,0:0:0:0:
294,104,51702,1,2,0:0:0:0:
228,186,51875,1,0,0:0:0:0:
360,22,52048,5,2,0:0:0:0:
383,23,52135,1,0,0:0:0:0:
406,24,52220,1,0,3:0:0:0:
162,268,52392,6,0,L|165:232,1,22.5,0|0,3:0|0:0,0:0:0:0:
294,104,52565,5,2,3:0:0:0:
228,186,52651,1,0,0:0:0:0:
72,21,52737,6,0,L|265:12,1,180,2|0,0:0|0:0,0:0:0:0:
163,245,53255,1,0,0:0:0:0:
294,104,53427,1,2,3:0:0:0:
294,104,53513,1,0,0:0:0:0:
294,104,53599,1,0,3:0:0:0:
429,361,53772,1,0,0:0:0:0:
429,361,53858,1,0,0:0:0:0:
234,347,54030,1,2,0:0:0:0:
234,347,54117,6,0,L|185:344,1,45,0|0,3:0|0:0,0:0:0:0:
163,244,54289,1,0,0:0:0:0:
163,244,54375,2,0,L|66:239,1,90,0|0,0:0|0:0,0:0:0:0:
13,300,54634,1,0,3:0:0:0:
342,360,54806,5,2,0:0:0:0:
346,337,54893,1,0,0:0:0:0:
350,314,54979,2,0,L|301:311,1,45,0|0,0:0|0:0,0:0:0:0:
443,207,55151,5,2,0:0:0:0:
455,276,55237,1,0,0:0:0:0:
350,100,55410,5,0,0:0:0:0:
338,169,55496,2,0,L|240:163,1,90,2|0,0:0|3:0,0:0:0:0:
362,31,55755,2,0,L|460:37,1,90,0|0,0:0|0:0,0:0:0:0:
248,163,56013,2,0,L|254:65,1,90,0|0,0:0|3:0,0:0:0:0:
451,36,56272,2,0,L|445:134,1,90,0|0,0:0|0:0,0:0:0:0:
305,311,56530,5,2,0:0:0:0:
253,73,56703,5,0,0:0:0:0:
350,100,56789,1,2,0:0:0:0:
445,125,56875,1,4,0:0:0:0:
248,163,57134,5,4,0:0:0:0:
451,36,57392,5,4,0:0:0:0:
489,356,57737,6,0,L|451:350,1,22.5,10|0,0:0|0:0,0:0:0:0:
437,323,57824,2,0,L|399:329,1,22.5,8|0,0:0|0:0,0:0:0:0:
385,356,57910,6,0,P|323:354|336:284,1,135,8|0,0:0|0:0,0:0:0:0:
372,227,58255,5,2,0:0:0:0:
291,221,58341,1,0,0:0:0:0:
210,215,58427,1,0,0:0:0:0:
129,209,58513,1,0,0:0:0:0:
68,262,58599,6,0,B|38:292|38:292|26:138,1,135.000005149842,8|0,0:0|0:0,0:0:0:0:
129,209,58858,5,0,0:0:0:0:
19,334,58944,2,0,L|35:139,1,135.000005149842,2|0,0:0|0:0,0:0:0:0:
129,209,59203,5,0,0:0:0:0:
42,120,59289,2,0,L|139:128,1,67.5000025749208,8|0,0:0|0:0,0:0:0:0:
297,304,59461,2,0,L|200:296,1,67.5000025749208,0|0,0:0|0:0,0:0:0:0:
351,95,59634,5,2,0:0:0:0:
372,227,59720,2,0,L|177:211,1,135.000005149842,0|0,0:0|0:0,0:0:0:0:
129,209,59979,5,8,0:0:0:0:
134,276,60065,1,0,0:0:0:0:
141,343,60151,1,0,0:0:0:0:
19,334,60237,6,0,L|35:139,1,135.000005149842,0|0,0:0|0:0,0:0:0:0:
493,50,60582,5,0,0:0:0:0:
411,3,60668,1,8,0:0:0:0:
412,98,60754,1,0,0:0:0:0:
493,50,60841,6,0,L|510:114,2,67.5000025749208,0|0|2,0:0|0:0|0:0,0:0:0:0:
411,3,61186,5,0,0:0:0:0:
412,98,61358,1,8,0:0:0:0:
493,50,61530,1,0,0:0:0:0:
411,3,61703,5,2,0:0:0:0:
391,6,61789,1,0,0:0:0:0:
333,61,61875,5,0,0:0:0:0:
313,58,61961,1,0,0:0:0:0:
229,3,62048,6,0,L|217:137,1,135.000005149842,8|0,0:0|0:0,0:0:0:0:
101,381,62392,5,2,0:0:0:0:
100,286,62564,1,0,0:0:0:0:
19,334,62736,1,8,0:0:0:0:
101,381,62910,5,0,0:0:0:0:
121,378,62996,1,0,0:0:0:0:
189,334,63082,5,2,0:0:0:0:
209,337,63169,1,2,0:0:0:0:
229,340,63255,1,2,0:0:0:0:
493,334,63427,5,2,0:0:0:0:
412,286,63513,1,2,0:0:0:0:
411,381,63599,1,2,0:0:0:0:
51,122,63772,5,6,0:0:0:0:
132,116,63858,1,0,0:0:0:0:
213,110,63944,1,0,0:0:0:0:
294,104,64030,1,0,0:0:0:0:
354,37,64117,6,0,B|385:89|385:89|354:238,1,180,8|0,0:0|0:0,0:0:0:0:
294,104,64375,5,0,0:0:0:0:
493,265,64461,2,0,P|396:269|362:182,1,180,2|0,0:0|0:0,0:0:0:0:
294,104,64720,5,0,0:0:0:0:
460,113,64806,2,0,L|437:227,1,90,8|0,0:0|0:0,0:0:0:0:
128,95,64979,2,0,L|151:-19,1,90,0|0,0:0|0:0,0:0:0:0:
276,211,65151,5,2,0:0:0:0:
359,205,65237,2,0,P|310:134|225:145,1,180,0|2,0:0|0:0,0:0:0:0:
354,37,65496,5,8,0:0:0:0:
421,32,65582,1,0,0:0:0:0:
488,25,65668,1,2,0:0:0:0:
460,113,65755,6,0,L|414:341,1,180,0|0,0:0|0:0,0:0:0:0:
50,331,66099,5,2,0:0:0:0:
115,263,66185,1,8,0:0:0:0:
141,355,66271,1,0,0:0:0:0:
50,331,66358,6,0,L|27:217,1,90,2|0,0:0|0:0,0:0:0:0:
126,135,66530,6,0,P|218:112|272:224,1,225,4|0,0:0|0:0,0:0:0:0:
31,60,66789,2,0,L|259:14,1,225,4|0,0:0|0:0,0:0:0:0:
371,167,67048,2,0,L|348:281,1,112.5,0|0,0:0|0:0,0:0:0:0:
16,157,67220,5,4,0:0:0:0:
126,135,67306,2,0,L|240:112,1,112.5,0|0,0:0|0:0,0:0:0:0:
474,278,67479,2,0,P|382:255|328:367,1,225,4|0,0:0|0:0,0:0:0:0:
467,181,67737,2,0,L|444:70,1,112.5,0|0,1:0|0:0,0:0:0:0:
50,240,67910,5,6,0:0:0:0:
67,254,67996,1,0,0:0:0:0:
99,223,68082,5,0,0:0:0:0:
133,251,68168,1,6,0:0:0:0:
185,191,68255,5,0,0:0:0:0:
246,241,68341,1,0,0:0:0:0:
324,242,68427,1,4,0:0:0:0:
385,192,68513,1,0,0:0:0:0:
475,39,68599,6,0,L|308:4,1,168.75,4|0,0:0|0:0,0:0:0:0:
309,4,68772,6,0,L|274:170,1,168.75,4|0,0:0|0:0,0:0:0:0:
274,169,68944,6,0,L|385:192,1,112.5,4|0,3:0|0:0,0:0:0:0:
426,301,69289,6,0,L|420:356,1,45,4|0,3:0|0:0,0:0:0:0:
426,301,69634,2,0,L|420:356,1,48.6000011865235,0|0,0:0|3:0,0:0:0:0:
426,301,69979,2,0,L|420:356,1,52.2000015930176,0|0,0:0|0:0,0:0:0:0:
343,311,70324,6,0,L|288:305,1,55.799997786255,0|0,3:0|0:0,0:0:0:0:
333,228,70668,2,0,L|342:145,1,59.3999998187256,0|0,0:0|3:0,0:0:0:0:
422,219,71013,2,0,L|504:228,1,62.9999980773926,0|0,0:0|0:0,0:0:0:0:
426,301,71358,2,0,L|417:383,1,66.6000016259766,0|0,3:0|0:0,0:0:0:0:
484,225,71703,6,0,L|481:200,4,23.4000007855225,0|0|0|0|0,3:0|0:0|0:0|0:0|0:0,0:0:0:0:
351,90,72048,6,0,L|433:81,1,73.8000011260987,0|0,3:0|0:0,0:0:0:0:
351,90,72392,2,0,L|433:81,1,77.4000011810303,0|0,0:0|3:0,0:0:0:0:
351,90,72737,2,0,L|433:81,1,80.9999975280763,0|0,0:0|0:0,0:0:0:0:
271,56,73082,6,0,L|262:138,3,42.2999993545532,0|0|0|0,3:0|0:0|0:0|0:0,0:0:0:0:
189,63,73427,2,0,L|180:145,3,44.0999995962524,0|0|0|0,0:0|0:0|3:0|0:0,0:0:0:0:
111,64,73772,6,0,L|96:192,1,91.8000005603027,0|0,0:0|0:0,0:0:0:0:
173,201,74117,2,0,L|187:72,1,95.4000001455689,0|0,3:0|0:0,0:0:0:0:
23,171,74461,6,0,L|26:196,6,24.7500007553101,0|0|0|0|0|0|0,3:0|0:0|0:0|0:0|0:0|0:0|0:0,0:0:0:0:
173,201,74806,2,0,L|301:186,1,102.599998747559,0|2,3:0|0:0,0:0:0:0:
367,266,75151,5,0,0:0:0:0:
367,266,75237,1,0,0:0:0:0:
367,266,75324,2,0,L|302:273,1,53.0999981364442,0|0,3:0|0:0,0:0:0:0:
97,248,75496,6,0,P|203:248|241:364,1,223.19999114502,2|0,0:0|3:0,0:0:0:0:
13,310,76013,2,0,L|27:181,1,115.2,0|0,0:0|0:0,0:0:0:0:
107,24,76358,5,0,3:0:0:0:
188,141,76530,1,0,0:0:0:0:
188,141,76616,1,0,0:0:0:0:
188,141,76703,2,0,L|252:148,1,59.3999998187256,0|0,0:0|0:0,0:0:0:0:
457,155,76875,6,0,P|351:155|310:272,1,244.800001494141,0|0,3:0|3:0,0:0:0:0:
472,52,77392,2,0,L|407:59,1,62.9999980773926,0|0,0:0|0:0,0:0:0:0:
188,141,77565,6,0,L|179:218,1,64.8000015820313,2|0,3:0|0:0,0:0:0:0:
411,307,77737,2,0,L|405:241,1,66.6000016259766,0|0,0:0|0:0,0:0:0:0:
40,338,77910,5,0,0:0:0:0:
106,331,77996,1,0,0:0:0:0:
172,324,78082,1,0,0:0:0:0:
238,317,78168,1,0,0:0:0:0:
308,271,78255,6,0,B|343:212|343:212|404:240,1,136.799998330078,0|0,0:0|0:0,0:0:0:0:
238,317,78513,5,0,0:0:0:0:
291,150,78599,2,0,L|413:115,1,70.2000023565675,0|0,0:0|0:0,0:0:0:0:
180,205,78772,5,0,0:0:0:0:
291,150,78858,2,0,L|413:115,1,72,0|2,0:0|0:0,0:0:0:0:
122,93,79030,5,0,0:0:0:0:
291,150,79117,2,0,L|474:97,1,147.600002252197,0|2,0:0|0:0,0:0:0:0:
242,5,79375,6,0,L|268:96,1,75.5999976928712,2|2,0:0|0:0,0:0:0:0:
481,254,79548,2,0,L|454:162,1,77.4000011810303,2|2,0:0|0:0,0:0:0:0:
180,205,79720,5,2,0:0:0:0:
174,219,79806,1,2,0:0:0:0:
189,217,79892,1,2,0:0:0:0:
291,150,79979,6,0,L|336:136,1,45,2|2,0:0|0:0,0:0:0:0:
266,250,80324,5,2,0:0:0:0:
323,276,80410,1,0,0:0:0:0:
385,273,80496,1,0,0:0:0:0:
438,239,80582,1,0,0:0:0:0:
459,179,80668,5,8,0:0:0:0:
466,214,80755,1,0,0:0:0:0:
473,249,80841,1,0,0:0:0:0:
480,284,80927,1,0,0:0:0:0:
487,319,81013,6,0,P|411:272|322:277,1,180,2|0,0:0|0:0,0:0:0:0:
247,327,81272,2,0,P|158:331|82:285,1,180,0|0,0:0|0:0,0:0:0:0:
2,236,81530,5,2,3:0:0:0:
39,356,81617,1,0,0:0:0:0:
82,285,81703,2,0,L|94:140,1,90,2|0,0:0|0:0,0:0:0:0:
297,166,81875,5,0,0:0:0:0:
254,237,81961,2,0,L|242:382,1,90,2|8,0:0|0:0,0:0:0:0:
226,112,82134,5,0,0:0:0:0:
226,112,82220,2,0,L|81:124,1,90,2|0,0:0|0:0,0:0:0:0:
368,220,82392,6,0,L|380:75,1,90,2|0,0:0|0:0,0:0:0:0:
89,195,82565,2,0,L|77:340,1,90,2|0,0:0|0:0,0:0:0:0:
439,274,82737,6,0,L|451:129,1,90,8|0,0:0|0:0,0:0:0:0:
171,216,82910,2,0,L|163:305,1,90,2|0,0:0|0:0,0:0:0:0:
502,112,83082,5,2,0:0:0:0:
456,71,83168,1,0,0:0:0:0:
410,30,83255,1,0,0:0:0:0:
364,71,83341,1,0,0:0:0:0:
318,112,83427,5,8,0:0:0:0:
347,107,83513,1,0,0:0:0:0:
376,102,83599,1,0,0:0:0:0:
405,97,83686,1,0,0:0:0:0:
434,92,83772,6,0,L|289:80,1,101.250003862381,2|0,0:0|0:0,0:0:0:0:
241,76,83944,2,0,L|140:67,1,101.250003862381,0|0,0:0|0:0,0:0:0:0:
39,58,84117,5,8,0:0:0:0:
83,138,84203,1,0,0:0:0:0:
140,67,84289,1,2,3:0:0:0:
361,208,84461,6,0,P|289:291|272:205,1,202.500007724762,2|0,0:0|0:0,0:0:0:0:
434,92,84720,2,0,L|452:294,1,202.500007724762,2|0,0:0|0:0,0:0:0:0:
186,366,84979,2,0,L|177:265,1,101.250003862381,2|0,0:0|0:0,0:0:0:0:
459,370,85151,5,2,0:0:0:0:
398,364,85237,1,0,0:0:0:0:
337,358,85324,1,2,0:0:0:0:
276,352,85410,1,0,0:0:0:0:
186,366,85496,5,8,0:0:0:0:
177,265,85582,1,0,0:0:0:0:
168,164,85668,1,2,0:0:0:0:
512,260,85841,5,6,0:0:0:0:
478,214,85927,1,0,0:0:0:0:
422,217,86013,1,0,0:0:0:0:
388,263,86099,1,0,0:0:0:0:
459,370,86186,5,8,0:0:0:0:
457,351,86272,1,0,0:0:0:0:
453,313,86358,1,0,0:0:0:0:
451,293,86444,1,0,0:0:0:0:
455,331,86530,6,0,P|323:328|296:247,1,225,2|0,0:0|0:0,0:0:0:0:
357,179,86789,2,0,P|225:182|198:263,1,225
439,60,87048,1,2,3:0:0:0:
360,53,87134,1,2,3:0:0:0:
281,46,87220,6,0,L|264:212,1,112.5,2|0,0:0|0:0,0:0:0:0:
106,358,87392,5,0,0:0:0:0:
185,365,87478,2,0,L|202:199,1,112.5,2|8,0:0|0:0,0:0:0:0:
74,81,87651,5,0,0:0:0:0:
74,81,87737,2,0,L|240:98,1,112.5,2|0,0:0|0:0,0:0:0:0:
392,330,87910,6,0,L|226:313,1,112.5,2|0,0:0|0:0,0:0:0:0:
281,46,88082,2,0,L|264:212,1,112.5,2|0,0:0|0:0,0:0:0:0:
185,365,88255,2,0,L|202:199,1,112.5,8|0,0:0|0:0,0:0:0:0:
74,81,88427,2,0,L|240:98,1,112.5,2|0,0:0|0:0,0:0:0:0:
454,318,88599,5,2,0:0:0:0:
416,284,88686,1,0,0:0:0:0:
367,275,88772,1,0,0:0:0:0:
318,284,88858,1,0,0:0:0:0:
280,318,88945,5,8,0:0:0:0:
292,258,89030,1,0,0:0:0:0:
280,198,89117,1,0,0:0:0:0:
292,138,89203,1,0,0:0:0:0:
280,78,89289,5,2,0:0:0:0:
292,75,89375,1,0,0:0:0:0:
304,72,89461,1,0,0:0:0:0:
316,69,89548,1,0,0:0:0:0:
328,66,89634,5,8,0:0:0:0:
253,63,89720,1,0,0:0:0:0:
178,60,89806,2,0,L|170:211,1,123.750001180172,2|0,3:0|0:0,0:0:0:0:
378,363,89979,6,0,L|386:212,1,123.750001180172,2|0,0:0|0:0,0:0:0:0:
171,183,90151,5,0,0:0:0:0:
119,260,90237,2,0,P|178:275|234:251,1,123.750001180172,2|8,0:0|0:0,0:0:0:0:
385,240,90410,5,0,0:0:0:0:
436,162,90496,2,0,P|377:147|321:171,1,123.750001180172,2|0,0:0|0:0,0:0:0:0:
277,382,90668,5,2,0:0:0:0:
253,372,90755,1,0,0:0:0:0:
206,354,90841,5,2,0:0:0:0:
158,374,90928,1,2,0:0:0:0:
67,337,91013,5,10,0:0:0:0:
119,260,91100,1,2,0:0:0:0:
171,183,91186,1,2,0:0:0:0:
512,41,91358,5,6,0:0:0:0:
506,80,91444,1,0,0:0:0:0:
500,119,91530,1,0,0:0:0:0:
494,158,91617,1,0,0:0:0:0:
488,197,91703,5,8,0:0:0:0:
431,162,91789,1,0,0:0:0:0:
365,152,91875,1,0,0:0:0:0:
302,174,91961,1,0,0:0:0:0:
264,230,92048,6,0,B|291:47|291:47|395:82,1,270.000010299683,2|0,0:0|0:0,0:0:0:0:
506,313,92306,2,0,P|359:344|359:235,1,270.000010299683,0|0,0:0|0:0,0:0:0:0:
512,41,92565,2,0,L|487:207,1,135.000005149842,2|2,3:0|3:0,0:0:0:0:
173,275,92737,6,0,L|198:109,1,135.000005149842,2|0,0:0|0:0,0:0:0:0:
343,263,92910,5,0,0:0:0:0:
145,345,92996,2,0,L|170:179,1,135.000005149842,2|8,0:0|0:0,0:0:0:0:
294,51,93168,5,0,0:0:0:0:
484,111,93255,2,0,L|459:277,1,135.000005149842,2|0,0:0|0:0,0:0:0:0:
173,275,93427,6,0,L|198:109,1,135.000005149842,2|0,0:0|0:0,0:0:0:0:
512,41,93599,2,0,L|487:207,1,135.000005149842,0|0,3:0|3:0,0:0:0:0:
145,345,93772,6,0,L|170:179,1,135.000005149842,2|0,3:2|3:0,0:0:0:0:
484,111,93944,2,0,L|459:277,1,135.000005149842,2|0,3:2|3:0,0:0:0:0:
60,80,94117,5,2,0:0:0:0:
132,68,94203,1,0,0:0:0:0:
204,56,94289,1,0,0:0:0:0:
276,44,94375,1,0,0:0:0:0:
386,153,94461,5,8,0:0:0:0:
350,147,94547,1,0,0:0:0:0:
314,141,94633,1,0,0:0:0:0:
278,135,94719,1,0,0:0:0:0:
226,235,94806,5,2,0:0:0:0:
244,232,94892,1,0,0:0:0:0:
262,229,94978,1,0,0:0:0:0:
280,226,95064,1,0,0:0:0:0:
309,322,95151,5,8,0:0:0:0:
300,320,95237,1,0,0:0:0:0:
291,319,95323,1,2,3:0:0:0:
282,317,95409,1,0,0:0:0:0:
212,347,95496,6,0,B|159:298|159:298|115:358,1,146.250004184246,2|0,0:0|0:0,0:0:0:0:
60,80,95669,5,0,0:0:0:0:
133,157,95755,2,0,L|316:128,1,146.250004184246,2|8,0:0|0:0,0:0:0:0:
497,171,95927,5,0,0:0:0:0:
424,248,96013,2,0,L|241:219,1,146.250004184246,2|0,0:0|0:0,0:0:0:0:
487,47,96186,5,2,0:0:0:0:
489,61,96272,1,0,0:0:0:0:
491,75,96358,1,2,0:0:0:0:
493,89,96444,1,2,0:0:0:0:
405,27,96530,5,2,0:0:0:0:
407,41,96616,1,2,0:0:0:0:
409,55,96703,2,0,L|423:141,2,73.1250020921231,2|0|2,0:0|0:0|0:0,0:0:0:0:
327,35,96875,5,6,0:0:0:0:
281,24,96961,1,0,0:0:0:0:
233,29,97048,1,0,0:0:0:0:
193,54,97134,1,0,0:0:0:0:
168,94,97220,5,8,0:0:0:0:
128,119,97306,1,0,0:0:0:0:
80,124,97393,1,0,0:0:0:0:
34,113,97479,1,0,0:0:0:0:
95,29,97565,6,0,P|211:169|275:96,1,315.000003004074,2|0,0:0|0:0,0:0:0:0:
485,277,97824,2,0,L|122:253,1,315.000003004074,0|0,0:0|0:0,0:0:0:0:
70,351,98082,2,0,L|251:339,1,157.500001502037,2|2,3:0|3:0,0:0:0:0:
449,121,98255,6,0,B|388:97|388:97|378:211,1,157.500001502037,2|0,0:0|0:0,0:0:0:0:
419,358,98427,5,0,0:0:0:0:
485,277,98513,2,0,L|303:265,1,157.500001502037,2|8,0:0|0:0,0:0:0:0:
95,29,98686,5,0,0:0:0:0:
34,113,98772,2,0,L|215:125,1,157.500001502037,2|0,0:0|0:0,0:0:0:0:
485,277,98944,6,0,L|303:265,1,157.500001502037,2|0,0:0|0:0,0:0:0:0:
63,263,99117,2,0,B|124:287|124:287|134:173,1,157.500001502037,2|0,0:0|0:0,0:0:0:0:
34,113,99289,2,0,L|215:125,1,157.500001502037,2|2,0:0|0:0,0:0:0:0:
449,121,99461,2,0,B|388:97|388:97|378:211,1,157.500001502037,2|2,0:0|0:0,0:0:0:0:
419,358,99634,5,2,0:0:0:0:
402,356,99720,1,0,0:0:0:0:
385,358,99806,1,0,0:0:0:0:
368,356,99892,1,0,0:0:0:0:
276,268,99979,5,8,0:0:0:0:
293,266,100065,1,0,0:0:0:0:
310,268,100151,1,0,0:0:0:0:
327,266,100237,1,0,0:0:0:0:
379,188,100324,5,2,0:0:0:0:
394,193,100410,1,0,0:0:0:0:
389,208,100496,1,0,0:0:0:0:
374,203,100582,1,0,0:0:0:0:
299,116,100668,6,0,L|485:96,4,168.750004023314,8|0|2|0|6,0:0|0:0|3:0|0:0|0:0,0:0:0:0:
132,195,101272,5,6,0:0:0:0:
434,355,101530,5,6,0:0:0:0:
0,205,101703,6,0,L|11:295,1,90,2|0,0:0|0:0,0:0:0:0:
40,240,101789,2,0,L|50:329,1,90,2|0,0:0|0:0,0:0:0:0:
79,274,101875,6,0,P|171:280|222:216,1,180,2|0,0:0|0:0,0:0:0:0:
466,97,102048,6,0,L|444:301,2,180,2|2|2,0:0|0:0|0:0,0:0:0:0:
122,105,102392,6,0,L|135:223,1,90,4|0,0:0|0:0,0:0:0:0:
308,255,102565,1,0,0:0:0:0:
308,255,102651,2,0,L|295:137,1,90,0|8,0:0|0:0,0:0:0:0:
5,287,102824,1,0,0:0:0:0:
50,282,102910,1,0,0:0:0:0:
95,278,102997,1,0,0:0:0:0:
140,273,103082,2,0,L|258:260,1,90,2|0,0:0|0:0,0:0:0:0:
290,87,103255,2,0,L|172:100,1,90,0|0,0:0|0:0,0:0:0:0:
308,255,103427,5,8,0:0:0:0:
298,165,103513,1,0,0:0:0:0:
122,105,103686,5,0,0:0:0:0:
132,195,103772,1,2,0:0:0:0:
22,24,103944,5,0,0:0:0:0:
67,19,104030,1,0,0:0:0:0:
112,15,104117,2,0,L|125:133,1,90,8|0,0:0|0:0,0:0:0:0:
317,344,104289,2,0,L|304:226,1,90,0|0,0:0|0:0,0:0:0:0:
290,87,104461,5,2,0:0:0:0:
290,87,104548,1,0,0:0:0:0:
290,87,104634,1,0,0:0:0:0:
142,285,104806,5,8,0:0:0:0:
132,195,104892,1,0,0:0:0:0:
440,239,105065,5,2,0:0:0:0:
395,244,105151,1,2,0:0:0:0:
350,248,105238,1,0,0:0:0:0:
305,253,105324,1,0,0:0:0:0:
317,344,105410,6,0,L|451:329,1,135.000005149842
434,172,105668,2,0,L|443:260,1,67.5000025749208,0|0,0:0|0:0,0:0:0:0:
290,87,105841,5,2,0:0:0:0:
290,87,105928,1,0,0:0:0:0:
290,87,106014,1,0,0:0:0:0:
451,329,106186,5,8,0:0:0:0:
441,239,106272,1,0,0:0:0:0:
290,87,106444,5,0,0:0:0:0:
300,177,106530,1,2,0:0:0:0:
131,194,106703,1,0,0:0:0:0:
148,363,106875,1,8,0:0:0:0:
317,346,107048,1,0,0:0:0:0:
290,87,107220,5,2,0:0:0:0:
290,87,107307,1,0,0:0:0:0:
290,87,107393,1,0,0:0:0:0:
139,278,107565,5,8,0:0:0:0:
131,194,107651,1,0,0:0:0:0:
461,59,107824,5,10,0:0:0:0:
451,149,107910,2,0,L|342:137,1,90,2|0,0:0|0:0,0:0:0:0:
280,176,108255,2,0,L|289:86,1,90,8|0,0:0|0:0,0:0:0:0:
226,247,108599,6,0,L|316:257,1,90,2|0,0:0|0:0,0:0:0:0:
397,220,108944,2,0,L|387:309,1,90,8|0,0:0|0:0,0:0:0:0:
145,284,109289,6,0,L|154:194,1,90,2|0,0:0|0:0,0:0:0:0:
397,220,109634,2,0,L|387:309,1,90,8|0,0:0|0:0,0:0:0:0:
216,336,109979,6,0,L|225:246,1,90,2|0,0:0|0:0,0:0:0:0:
316,257,110324,2,0,L|306:346,1,90,8|0,0:0|0:0,0:0:0:0:
154,194,110668,6,0,L|158:149,1,45,2|0,0:0|0:0,0:0:0:0:
263,107,111013,2,0,L|307:111,1,45,8|0,0:0|0:0,0:0:0:0:
401,175,111358,2,0,L|396:219,1,45,2|2,0:0|0:0,0:0:0:0:
257,179,111703,5,2,0:0:0:0:
301,183,111789,1,2,0:0:0:0:
268,180,111875,5,0,0:0:0:0:
290,184,111961,1,2,0:0:0:0:
279,181,112048,5,4,0:0:0:0:
279,181,112306,5,4,0:0:0:0:
279,181,112565,5,4,0:0:0:0:
89,88,112737,6,0,B|133:38|133:38|296:85,1,180,2|0,0:0|0:0,0:0:0:0:
159,124,112910,6,0,L|163:157,3,22.5,2|0|0|0,1:0|0:0|0:0|0:0,0:0:0:0:
72,222,113082,6,0,L|91:64,1,135,2|2,0:0|3:0,0:0:0:0:
