osu file format v14

[General]
AudioFilename: audio.mp3
AudioLeadIn: 0
PreviewTime: 77565
Countdown: 0
SampleSet: Soft
StackLeniency: 0.5
Mode: 0
LetterboxInBreaks: 0
WidescreenStoryboard: 1

[Editor]
DistanceSpacing: 1.3
BeatDivisor: 8
GridSize: 32
TimelineZoom: 4.199999

[Metadata]
Title:polygon
TitleUnicode:polygon
Artist:Sota Fujimori
ArtistUnicode:Sota Fujimori
Creator:Kaifin
Version:Hard
Source:jubeat copious
Tags:REFLEC BEAT colette autumn fanzhen0019 bonzi revurii xlolicore-
BeatmapID:1228200
BeatmapSetID:559097

[Difficulty]
HPDrainRate:5
CircleSize:3.5
OverallDifficulty:6
ApproachRate:7
SliderMultiplier:1.3
SliderTickRate:1

[Events]
//Background and Video events
0,0,"polygonbg1080.png",0,0
//Break Periods
2,69144,76515
//Storyboard Layer 0 (Background)
//Storyboard Layer 1 (Fail)
//Storyboard Layer 2 (Pass)
//Storyboard Layer 3 (Foreground)
//Storyboard Sound Samples

[TimingPoints]
324,344.827586206897,4,3,0,70,1,0
2737,-100,4,3,2,50,0,0
3082,-100,4,2,1,70,0,0
20496,-100,4,2,0,70,0,0
20582,-100,4,2,1,70,0,0
20841,-100,4,2,0,70,0,0
20927,-100,4,2,1,70,0,0
21186,-100,4,2,0,70,0,0
21272,-100,4,2,1,70,0,0
21530,-100,4,2,0,70,0,0
21617,-100,4,2,1,70,0,0
22479,-100,4,2,0,70,0,0
23082,-100,4,2,1,70,0,0
23168,-100,4,2,0,70,0,0
23513,-100,4,2,1,70,0,0
35496,-100,4,2,1,40,0,0
35668,-100,4,2,1,55,0,0
35755,-100,4,2,1,70,0,0
36186,-100,4,2,1,70,0,1
37048,-100,4,2,1,70,0,1
38944,-100,4,2,1,70,0,1
39806,-100,4,2,8,70,0,1
39979,-100,4,2,1,70,0,1
40065,-100,4,2,8,70,0,1
40324,-100,4,2,1,70,0,1
40410,-100,4,2,8,70,0,1
40668,-100,4,2,1,70,0,1
40841,-100,4,2,8,70,0,1
41013,-100,4,2,1,70,0,1
42479,-100,4,2,8,70,0,1
42651,-100,4,2,1,70,0,1
42824,-100,4,2,8,70,0,1
43082,-100,4,2,1,70,0,1
43168,-100,4,2,8,70,0,1
43427,-100,4,2,1,70,0,1
43513,-100,4,2,8,70,0,1
44117,-100,4,2,1,70,0,1
45237,-100,4,2,8,70,0,1
45410,-100,4,2,1,70,0,1
45582,-100,4,2,8,70,0,1
45755,-100,4,2,1,70,0,1
47220,-100,4,2,1,70,0,0
49375,-100,4,2,8,70,0,0
49634,-100,4,2,1,70,0,0
49720,-100,4,2,8,70,0,0
49979,-100,4,2,1,70,0,0
52134,-100,4,2,8,70,0,0
52565,-100,4,2,1,70,0,0
54892,-100,4,2,8,70,0,0
55151,-100,4,2,1,70,0,0
55237,-100,4,2,8,70,0,0
55496,-100,4,2,1,70,0,0
68599,-100,4,2,1,50,0,0
68944,-100,4,2,1,70,0,0
69289,-100,4,2,8,40,0,0
79720,-100,4,2,1,75,0,0
80324,-100,4,2,1,75,0,1
81703,-100,4,2,1,75,0,1
83082,-100,4,2,1,75,0,1
84461,-100,4,2,1,75,0,1
85496,-100,4,2,1,75,0,1
87220,-100,4,2,1,75,0,1
88599,-100,4,2,1,75,0,1
89979,-100,4,2,1,75,0,1
90841,-100,4,2,1,75,0,1
92737,-100,4,2,1,75,0,1
94117,-100,4,2,1,75,0,1
95496,-100,4,2,1,75,0,1
96703,-100,4,2,1,75,0,1
98255,-100,4,2,1,75,0,1
99634,-100,4,2,1,75,0,1
102392,-100,4,2,1,70,0,0

[Colours]
Combo1 : 255,136,255
Combo2 : 255,155,106
Combo3 : 100,170,255
Combo4 : 243,56,84

[HitObjects]
256,192,324,12,8,2737,0:0:0:0:
92,137,3082,6,0,L|87:54,1,65,6|0,0:0|0:0,0:0:0:0:
172,106,3427,2,0,L|255:101,1,65,8|0,0:0|0:0,0:0:0:0:
203,186,3772,2,0,L|208:269,1,65,2|0,0:0|0:0,0:0:0:0:
123,217,4117,2,0,L|40:222,1,65,8|2,0:0|0:1,0:0:0:0:
21,304,4461,6,0,L|104:299,1,65,2|0,3:1|0:0,0:0:0:0:
159,353,4806,1,8,0:0:0:0:
159,353,4979,1,0,0:0:0:0:
206,250,5151,2,0,L|202:185,1,65,2|0,0:0|0:0,0:0:0:0:
88,72,5496,2,0,L|91:136,1,65,8|0,0:0|0:0,0:0:0:0:
172,106,5841,6,0,L|255:101,1,65,2|0,0:0|0:0,0:0:0:0:
327,94,6186,2,0,L|410:89,1,65,8|0,0:0|0:0,0:0:0:0:
437,168,6530,2,0,L|354:173,1,65,2|0,0:0|0:0,0:0:0:0:
282,180,6875,2,0,L|199:185,1,65,8|2,0:0|0:1,0:0:0:0:
172,106,7220,6,0,L|255:101,1,65,2|0,3:1|0:0,0:0:0:0:
327,94,7565,1,8,0:0:0:0:
327,94,7737,1,0,0:0:0:0:
372,171,7910,2,0,L|377:253,1,65,2|0,0:0|0:0,0:0:0:0:
384,326,8255,1,8,0:0:0:0:
307,371,8427,1,0,0:0:0:0:
230,326,8599,6,0,P|199:320|154:338,1,65,2|0,0:0|0:0,0:0:0:0:
83,364,8944,2,0,P|74:332|80:301,1,65,8|0,0:0|0:0,0:0:0:0:
45,217,9289,2,0,P|76:209|108:215,1,65,2|0,0:0|0:0,0:0:0:0:
191,179,9634,2,0,P|199:210|193:241,1,65,8|2,0:0|0:1,0:0:0:0:
167,328,9979,6,0,P|198:319|229:325,1,65,2|0,3:1|0:0,0:0:0:0:
307,371,10324,1,8,0:0:0:0:
307,371,10496,1,0,0:0:0:0:
372,280,10668,2,0,L|289:275,1,65,2|0,0:0|0:0,0:0:0:0:
191,179,11013,2,0,L|274:174,1,65,8|0,0:0|0:0,0:0:0:0:
302,106,11358,6,0,L|256:36,1,65,2|0,0:0|0:0,0:0:0:0:
184,47,11703,2,0,L|146:121,1,65,8|0,0:0|0:0,0:0:0:0:
191,179,12048,2,0,L|274:174,1,65,2|0,0:0|0:0,0:0:0:0:
302,106,12392,1,8,0:0:0:0:
302,106,12565,1,0,0:0:0:0:
377,227,12737,6,0,L|370:339,2,97.5,4|4|4,0:0|0:0|0:0,0:0:0:0:
448,169,13427,2,0,L|480:167,2,32.5,2|0|2,0:0|0:0|0:0,0:0:0:0:
463,258,13772,2,0,L|487:279,2,32.5,2|0|2,0:0|0:0|0:0,0:0:0:0:
377,227,14117,6,0,P|316:218|267:265,1,130,6|8,0:0|0:0,0:0:0:0:
189,215,14634,1,0,0:0:0:0:
110,261,14806,2,0,L|96:176,1,65,2|0,0:0|0:0,0:0:0:0:
13,165,15151,2,0,L|27:250,1,65,8|0,0:0|0:0,0:0:0:0:
8,353,15496,6,0,L|93:339,1,65,2|0,0:0|0:0,0:0:0:0:
161,361,15841,2,0,L|246:347,1,65,8|0,0:0|0:0,0:0:0:0:
314,369,16186,2,0,P|375:378|424:331,1,130,2|8,0:0|0:0,0:0:0:0:
454,249,16703,1,2,0:0:0:0:
422,164,16875,6,0,L|438:30,1,130,2|8,0:0|0:0,0:0:0:0:
350,64,17392,1,0,0:0:0:0:
263,34,17565,2,0,L|196:26,1,65,2|0,0:0|0:0,0:0:0:0:
144,100,17910,2,0,L|211:108,1,65,8|0,0:0|0:0,0:0:0:0:
294,187,18255,6,0,L|286:254,1,65,2|0,0:0|0:0,0:0:0:0:
181,303,18599,2,0,L|189:236,1,65,8|2,0:0|0:0,0:0:0:0:
113,186,18944,2,0,P|52:177|3:224,1,130,2|8,0:0|0:0,0:0:0:0:
4,220,19461,1,2,0:0:0:0:
98,315,19634,6,0,L|113:185,1,130,6|8,0:0|0:0,0:0:0:0:
184,129,20151,1,0,0:0:0:0:
47,80,20324,2,0,L|114:72,1,65,2|2,0:0|0:0,0:0:0:0:
196,39,20668,2,0,L|263:31,1,65,8|0,0:0|0:0,0:0:0:0:
397,177,21013,6,0,L|330:169,1,65,2|2,0:0|0:0,0:0:0:0:
248,136,21357,2,0,L|181:128,1,65,8|2,0:0|0:0,0:0:0:0:
112,185,21703,2,0,L|97:315,1,130,2|8,0:0|0:0,0:0:0:0:
171,367,22220,1,2,0:0:0:0:
245,314,22392,6,0,P|306:305|355:352,1,130,2|0,0:0|0:0,0:0:0:0:
442,327,22910,1,2,0:0:0:0:
483,246,23082,2,0,L|471:164,1,65,2|2,0:0|0:0,0:0:0:0:
386,155,23427,2,0,L|398:73,1,65,2|2,0:0|0:0,0:0:0:0:
480,22,23772,6,0,L|398:10,1,65,0|2,0:0|0:0,0:0:0:0:
335,31,24117,2,0,L|270:40,1,65,2|0,0:0|0:0,0:0:0:0:
189,56,24461,2,0,L|177:138,2,65,6|6|6,0:0|0:0|0:0,0:0:0:0:
76,199,25151,6,0,L|224:220,1,130,4|8,0:0|0:0,0:0:0:0:
279,270,25668,1,0,3:0:0:0:
196,306,25841,2,0,L|184:388,2,65,0|0|8,0:0|3:0|0:0,0:0:0:0:
204,217,26358,1,0,0:0:0:0:
286,178,26530,6,0,P|345:207|371:282,1,130,2|8,0:0|0:0,0:0:0:0:
454,100,27220,2,0,P|395:129|369:204,1,130,0|8,0:0|0:0,0:0:0:0:
221,74,27910,6,0,L|369:53,1,130,2|8,0:0|0:0,0:0:0:0:
454,100,28427,1,0,0:0:0:0:
497,203,28599,2,0,L|349:182,1,130,0|8,3:0|0:0,0:0:0:0:
350,56,29289,6,0,L|368:184,1,130,0|8,3:0|0:0,0:0:0:0:
307,261,29806,1,0,0:0:0:0:
237,192,29979,2,0,L|89:171,1,130,2|8,0:0|0:0,0:0:0:0:
49,102,30496,1,2,0:0:0:0:
136,56,30668,6,0,P|197:50|230:102,1,130,6|8,0:0|0:0,0:0:0:0:
313,143,31186,1,0,0:0:0:0:
237,192,31358,2,0,L|227:256,2,65,0|0|8,3:0|3:0|0:0,0:0:0:0:
230,102,31875,1,0,3:0:0:0:
305,55,32048,6,0,L|453:76,1,130,0|8,3:0|0:0,0:0:0:0:
356,237,32737,2,0,L|208:258,1,130,0|8,3:0|0:0,0:0:0:0:
58,324,33427,6,0,L|79:176,1,130,0|8,3:0|0:0,0:0:0:0:
92,105,33944,1,0,3:0:0:0:
165,159,34117,2,0,L|229:149,1,65,0|0,3:0|3:0,0:0:0:0:
318,134,34461,2,0,L|382:124,1,65,8|0,0:0|3:0,0:0:0:0:
464,165,34806,6,0,L|477:261,2,97.5,4|4|4,0:0|0:0|0:0,0:0:0:0:
36,336,36186,6,0,P|99:335|146:292,1,130,4|8,0:0|0:0,0:0:0:0:
66,249,36703,1,0,0:0:0:0:
147,197,36875,2,0,L|241:202,1,65,2|0,0:0|0:0,0:0:0:0:
233,241,37134,2,0,L|238:335,1,65,0|0,0:0|0:0,0:0:0:0:
257,345,37392,6,0,L|322:349,1,65,0|2,0:0|0:0,0:0:0:0:
350,313,37651,2,0,L|414:309,1,65,0|0,0:0|0:0,0:0:0:0:
442,273,37910,2,0,L|436:175,2,97.5,8|0|2,0:0|0:0|3:0,0:0:0:0:
504,337,38599,2,0,L|506:385,2,32.5,8|2|0,0:0|3:0|3:0,0:0:0:0:
384,359,38944,6,0,P|351:359|321:348,1,65,2|0,0:0|0:0,0:0:0:0:
284,320,39203,2,0,P|253:308|221:309,1,65,0|0,0:0|0:0,0:0:0:0:
184,338,39461,2,0,L|169:258,2,65,0|2|0,0:0|0:0|0:0,0:0:0:0:
103,381,39979,1,8,0:0:0:0:
22,338,40151,6,0,L|37:258,1,65,0|2,0:0|0:0,0:0:0:0:
78,264,40410,2,0,L|63:184,1,65,2|2,0:0|0:0,0:0:0:0:
22,190,40668,1,8,0:0:0:0:
79,119,40841,1,2,0:0:0:0:
158,198,41013,2,0,L|189:192,2,32.5,2|0|2,0:0|0:0|0:0,0:0:0:0:
79,119,41358,2,0,L|150:105,1,65,8|2,0:0|0:0,0:0:0:0:
261,146,41703,6,0,L|274:217,1,65,4|0,0:0|0:0,0:0:0:0:
283,253,41961,2,0,L|354:239,1,65,0|0,0:0|0:0,0:0:0:0:
390,231,42220,2,0,L|376:159,2,65,0|2|2,0:0|0:0|0:0,0:0:0:0:
444,304,42737,1,8,0:0:0:0:
465,180,42910,6,0,L|453:116,1,65,2|2,0:0|0:0,0:0:0:0:
443,73,43168,2,0,L|371:86,1,65,2|0,0:0|0:0,0:0:0:0:
334,95,43427,1,10,0:0:0:0:
248,65,43599,1,0,0:0:0:0:
162,95,43772,2,0,L|130:89,2,32.5,2|0|2,0:0|0:0|0:3,0:0:0:0:
110,170,44117,2,0,L|78:175,2,32.5,8|0|2,0:0|0:0|0:3,0:0:0:0:
87,257,44461,5,2,0:0:0:0:
165,330,44634,1,0,0:0:0:0:
165,330,44720,1,0,0:0:0:0:
165,330,44806,1,8,0:0:0:0:
217,207,44979,2,0,L|300:195,2,65,0|2|2,0:0|0:0|0:0,0:0:0:0:
87,257,45496,5,8,0:0:0:0:
165,330,45668,1,2,0:0:0:0:
217,207,45841,2,0,L|203:110,2,97.5,2|0|0,3:0|3:0|3:0,0:0:0:0:
270,280,46530,5,2,3:0:0:0:
366,266,46703,1,2,0:0:0:0:
462,252,46875,1,4,0:0:0:0:
305,353,47220,6,0,P|240:355|193:296,1,130,4|0,0:0|0:0,0:0:0:0:
270,280,47737,1,0,0:0:0:0:
124,280,47910,2,0,L|126:198,1,65,2|0,0:0|3:0,0:0:0:0:
43,175,48255,2,0,L|41:239,1,65,0|2,0:0|0:0,0:0:0:0:
89,352,48599,6,0,P|154:354|201:295,1,130,2|2,0:0|0:0,0:0:0:0:
124,280,49117,1,0,0:3:0:0:
270,280,49289,2,0,L|268:198,1,65,2|2,0:0|0:0,0:0:0:0:
351,175,49634,2,0,L|352:239,1,65,2|0,0:0|0:0,0:0:0:0:
394,334,49979,6,0,B|456:353|456:353|503:307,1,130,2|0,0:0|0:0,0:0:0:0:
471,221,50496,1,0,0:0:0:0:
440,135,50668,2,0,L|440:103,2,32.5,0|0|0,3:0|0:0|3:0,0:0:0:0:
351,175,51013,2,0,L|287:174,1,65,0|2,0:0|0:0,0:0:0:0:
209,286,51358,6,0,B|271:305|271:305|318:259,1,130,2|2,0:0|0:0,0:0:0:0:
286,173,51875,1,0,0:0:0:0:
255,87,52047,2,0,L|255:55,2,32.5,2|0|0,0:0|0:0|3:0,0:0:0:0:
197,157,52392,1,0,3:0:0:0:
139,87,52565,1,2,3:0:0:0:
139,87,52651,1,0,0:0:0:0:
139,87,52737,6,0,P|80:74|43:137,1,130,2|0,0:0|0:0,0:0:0:0:
209,286,53427,2,0,L|194:130,1,130,2|0,3:0|0:0,0:0:0:0:
19,326,54117,6,0,P|78:339|115:276,1,130,0|2,3:0|0:0,0:0:0:0:
78,206,54634,1,0,3:0:0:0:
196,156,54806,2,0,L|274:148,1,65,2|0,0:0|0:0,0:0:0:0:
347,226,55151,2,0,L|269:233,1,65,2|0,0:0|0:0,0:0:0:0:
217,325,55496,6,0,L|326:314,3,97.5,2|0|0|0,0:0|0:0|0:0|0:0,0:0:0:0:
447,260,56530,1,2,0:0:0:0:
347,226,56703,5,0,0:0:0:0:
347,226,56789,1,2,0:0:0:0:
347,226,56875,2,0,L|337:128,2,97.5,4|4|4,0:0|0:0|0:0,0:0:0:0:
61,304,58255,6,0,L|65:352,3,32.5,2|0|0|0,0:0|0:0|0:0|0:0,0:0:0:0:
106,351,58599,2,0,L|178:344,1,65,8|0,0:0|0:0,0:0:0:0:
261,334,58944,2,0,L|253:263,1,65,2|0,0:0|0:0,0:0:0:0:
244,179,59289,1,8,0:0:0:0:
244,179,59461,1,0,0:0:0:0:
89,196,59634,6,0,L|84:147,2,32.5,2|0|0,0:0|0:0|0:0,0:0:0:0:
170,266,59979,2,0,L|165:217,2,32.5,8|0|0,0:0|0:0|0:0,0:0:0:0:
244,179,60324,2,0,L|385:164,1,130,2|8,0:0|0:0,0:0:0:0:
450,268,60841,5,0,0:0:0:0:
450,268,60927,1,0,0:0:0:0:
450,268,61013,2,0,P|389:258|377:324,1,130,2|8,0:0|0:0,0:0:0:0:
443,350,61530,1,0,0:0:0:0:
371,312,61703,2,0,L|300:320,1,65,2|0,0:0|0:0,0:0:0:0:
228,329,62048,2,0,L|157:337,1,65,8|0,0:0|0:0,0:0:0:0:
6,301,62392,6,0,P|67:291|79:357,1,130,2|8,0:0|0:0,0:0:0:0:
13,383,62909,1,0,0:0:0:0:
6,301,63082,2,0,L|2:265,2,32.5,2|2|2,0:0|0:0|0:0,0:0:0:0:
60,207,63427,2,0,L|56:171,2,32.5,2|2|2,0:0|0:0|0:0,0:0:0:0:
114,113,63772,6,0,L|109:65,3,32.5,6|0|0|0,0:0|0:0|0:0|0:0,0:0:0:0:
149,58,64116,2,0,L|221:52,1,65,8|0,0:0|0:0,0:0:0:0:
305,48,64461,2,0,L|309:119,1,65,2|0,0:0|0:0,0:0:0:0:
315,203,64806,1,8,0:0:0:0:
315,203,64978,1,0,0:0:0:0:
160,214,65151,6,0,L|163:263,2,32.5,2|0|0,0:0|0:0|0:0,0:0:0:0:
227,131,65496,2,0,L|230:180,2,32.5,8|0|2,0:0|0:0|0:0,0:0:0:0:
315,203,65841,2,0,L|456:193,1,130,2|8,0:0|0:0,0:0:0:0:
405,105,66358,1,2,0:0:0:0:
405,105,66444,1,0,0:0:0:0:
405,105,66530,6,0,L|299:112,2,97.5,4|4|0,0:0|0:0|0:0,0:0:0:0:
397,13,67220,2,0,L|291:20,2,97.5,4|4|0,0:0|0:0|1:0,0:0:0:0:
485,58,67910,2,0,L|488:110,3,32.5,2|0|0|6,0:0|0:0|0:0|0:0,0:0:0:0:
482,136,68255,2,0,L|485:188,3,32.5,0|0|6|2,0:0|0:0|0:0|0:0,0:0:0:0:
479,214,68599,5,4,0:0:0:0:
381,220,68772,1,4,0:0:0:0:
284,227,68944,1,4,3:0:0:0:
256,192,77565,12,2,79979,0:0:0:0:
2,102,80324,6,0,L|116:79,1,97.5,2|0,0:0|0:0,0:0:0:0:
71,45,80668,2,0,L|185:62,1,97.5,8|0,0:0|0:0,0:0:0:0:
155,15,81013,2,0,L|257:70,1,97.5,2|0,0:0|0:0,0:0:0:0:
244,15,81358,2,0,L|320:102,1,97.5,8|0,0:0|0:0,0:0:0:0:
327,45,81703,6,0,L|369:153,2,97.5,2|2|2,0:0|0:0|0:0,0:0:0:0:
429,85,82392,2,0,L|510:53,1,65,2|2,0:0|0:0,0:0:0:0:
449,163,82737,2,0,L|480:244,1,65,8|2,0:0|0:0,0:0:0:0:
371,183,83082,6,0,L|257:206,1,97.5,2|0,0:0|0:0,0:0:0:0:
302,240,83427,2,0,L|187:222,1,97.5,8|0,0:0|0:0,0:0:0:0:
218,270,83771,2,0,L|115:214,1,97.5,2|0,0:0|0:0,0:0:0:0:
129,270,84116,2,0,L|52:182,1,97.5,8|0,0:0|0:0,0:0:0:0:
46,240,84461,6,0,L|3:131,2,97.5,2|2|2,0:0|0:0|0:0,0:0:0:0:
7,333,85151,2,0,L|28:387,3,32.5,2|0|2|0,0:0|0:0|0:0|0:0,0:0:0:0:
61,359,85496,1,2,0:0:0:0:
76,355,85582,1,0,0:0:0:0:
91,351,85668,1,2,0:0:0:0:
158,301,85841,6,0,P|202:294|271:326,1,97.5,6|0,0:0|0:0,0:0:0:0:
286,339,86186,2,0,P|333:345|379:329,1,97.5,8|0,0:0|0:0,0:0:0:0:
415,302,86530,2,0,L|399:178,1,97.5,2|0,0:0|0:0,0:0:0:0:
423,164,86875,2,0,L|299:180,1,97.5,8|2,0:0|3:0,0:0:0:0:
285,156,87220,6,0,L|301:280,2,97.5,2|2|2,0:0|0:0|0:0,0:0:0:0:
352,84,87910,1,2,0:0:0:0:
280,17,88082,1,2,0:0:0:0:
213,89,88255,1,8,0:0:0:0:
285,156,88427,1,2,0:0:0:0:
297,252,88599,6,0,P|253:245|184:277,1,97.5,2|0,0:0|0:0,0:0:0:0:
169,290,88944,2,0,P|121:296|75:280,1,97.5,8|0,0:0|0:0,0:0:0:0:
40,253,89289,2,0,L|56:129,1,97.5,2|0,0:0|0:0,0:0:0:0:
32,115,89633,2,0,L|156:131,1,97.5,8|0,0:0|0:0,0:0:0:0:
170,107,89978,6,0,L|154:231,2,97.5,2|2|2,0:0|0:0|0:0,0:0:0:0:
126,10,90668,2,0,L|77:3,3,32.5,2|0|2|2,0:0|0:0|0:0|0:0,0:0:0:0:
61,38,91013,1,10,0:0:0:0:
59,54,91099,1,2,0:0:0:0:
57,70,91186,1,2,0:0:0:0:
170,107,91358,6,0,B|216:122|216:122|261:104,1,97.5,6|0,0:0|0:0,0:0:0:0:
302,83,91703,2,0,B|347:65|347:65|393:80,1,97.5,8|0,0:0|0:0,0:0:0:0:
435,99,92048,2,0,L|428:213,1,97.5,2|0,0:0|0:0,0:0:0:0:
472,182,92392,2,0,L|465:296,1,97.5,8|2,0:0|3:0,0:0:0:0:
509,265,92737,6,0,L|502:379,2,97.5,2|2|2,0:0|0:0|0:0,0:0:0:0:
429,196,93427,2,0,L|364:192,1,65,2|0,0:0|3:0,0:0:0:0:
269,146,93772,2,0,L|265:210,1,65,2|2,3:2|3:2,0:0:0:0:
351,303,94117,6,0,B|305:288|305:288|259:305,1,97.5,2|0,0:0|0:0,0:0:0:0:
219,327,94462,2,0,B|173:344|173:344|127:329,1,97.5,8|0,0:0|0:0,0:0:0:0:
86,311,94807,2,0,L|93:197,1,97.5,2|0,0:0|0:0,0:0:0:0:
49,228,95151,2,0,L|56:114,1,97.5,8|0,0:0|0:0,0:0:0:0:
12,145,95496,6,0,L|19:31,2,97.5,2|2|2,0:0|0:0|0:0,0:0:0:0:
91,213,96186,2,0,L|123:214,3,32.5,2|0|2|2,0:0|0:0|0:0|0:0,0:0:0:0:
158,186,96530,2,0,L|190:187,3,32.5,2|0|2|2,0:0|0:0|0:0|0:0,0:0:0:0:
229,112,96875,6,0,P|276:105|320:124,1,97.5,6|0,0:0|0:0,0:0:0:0:
300,83,97220,2,0,P|347:91|382:125,1,97.5,8|0,0:0|0:0,0:0:0:0:
376,79,97565,2,0,P|417:103|438:146,1,97.5,2|0,0:0|0:0,0:0:0:0:
448,101,97910,2,0,P|478:138|483:185,1,97.5,8|2,0:0|3:0,0:0:0:0:
508,146,98255,6,0,P|523:191|512:238,2,97.5,2|2|2,0:0|0:0|0:0,0:0:0:0:
504,54,98944,1,2,0:0:0:0:
422,13,99117,1,2,0:0:0:0:
340,54,99289,1,2,0:0:0:0:
258,13,99461,1,2,0:0:0:0:
176,54,99634,6,0,L|164:180,1,97.5,2|0,0:0|0:0,0:0:0:0:
140,188,99979,2,0,L|266:200,1,97.5,8|0,0:0|0:0,0:0:0:0:
274,224,100324,2,0,L|286:98,1,97.5,2|0,0:0|0:0,0:0:0:0:
310,90,100668,2,0,L|184:78,1,97.5,8|0,0:0|0:0,0:0:0:0:
176,54,101013,6,0,L|164:180,2,97.5,6|6|6,0:0|0:0|0:0,0:0:0:0:
88,9,101703,2,0,L|25:3,2,32.5,2|2|2,0:0|0:0|0:0,0:0:0:0:
75,138,102048,2,0,L|12:132,2,32.5,2|2|2,0:0|0:0|0:0,0:0:0:0:
62,267,102392,6,0,L|213:281,1,130,4|8,0:0|0:0,0:0:0:0:
282,290,102910,1,0,0:0:0:0:
373,301,103082,2,0,L|379:236,1,65,2|0,0:0|0:0,0:0:0:0:
469,247,103427,2,0,L|475:182,1,65,8|0,0:0|0:0,0:0:0:0:
487,91,103772,5,2,0:0:0:0:
391,145,103944,1,0,0:0:0:0:
391,145,104030,1,0,0:0:0:0:
391,145,104117,1,8,0:0:0:0:
295,91,104289,1,0,0:0:0:0:
199,145,104461,2,0,L|196:177,2,32.5,2|0|0,0:0|0:0|0:0,0:0:0:0:
103,199,104806,2,0,L|97:264,1,65,8|0,0:0|0:0,0:0:0:0:
86,354,105151,6,0,L|53:351,3,32.5,2|0|0|0,0:0|0:0|0:0|0:0,0:0:0:0:
8,360,105496,2,0,L|14:295,1,65,8|0,0:0|0:0,0:0:0:0:
97,263,105841,2,0,L|129:266,2,32.5,2|0|0,0:0|0:0|0:0,0:0:0:0:
23,210,106186,2,0,L|29:145,1,65,8|0,0:0|0:0,0:0:0:0:
39,55,106530,5,2,0:0:0:0:
129,66,106703,1,0,0:0:0:0:
118,156,106875,1,8,0:0:0:0:
28,145,107048,1,0,0:0:0:0:
39,55,107220,2,0,L|42:22,2,32.5,2|0|0,0:0|0:0|0:0,0:0:0:0:
129,66,107565,2,0,L|194:72,1,65,8|0,0:0|0:0,0:0:0:0:
283,82,107910,6,0,L|269:229,1,130,2|8,0:0|0:0,0:0:0:0:
106,285,108599,2,0,L|119:137,1,130,2|8,0:0|0:0,0:0:0:0:
325,307,109289,6,0,L|177:293,1,130,2|8,0:0|0:0,0:0:0:0:
64,60,109979,2,0,L|211:73,1,130,2|8,0:0|0:0,0:0:0:0:
373,93,110668,6,0,L|366:166,1,65,2|0,0:0|0:0,0:0:0:0:
275,157,111013,2,0,L|269:221,1,65,8|0,0:0|0:0,0:0:0:0:
177,221,111358,2,0,L|171:285,1,65,2|2,0:0|0:0,0:0:0:0:
79,285,111703,2,0,L|47:282,3,32.5,2|2|0|2,0:0|0:0|0:0|0:0,0:0:0:0:
16,251,112048,6,0,L|28:123,2,97.5,4|4|4,0:0|0:0|0:0,0:0:0:0:
0,356,112737,2,0,L|232:377,1,227.5,2|2,0:0|3:0,0:0:0:0:
