osu file format v14

[General]
AudioFilename: audio.mp3
AudioLeadIn: 0
PreviewTime: 77565
Countdown: 0
SampleSet: Soft
StackLeniency: 0.2
Mode: 0
LetterboxInBreaks: 0
WidescreenStoryboard: 1

[Editor]
DistanceSpacing: 1.7
BeatDivisor: 4
GridSize: 32
TimelineZoom: 4.199999

[Metadata]
Title:polygon
TitleUnicode:polygon
Artist:Sota Fujimori
ArtistUnicode:Sota Fujimori
Creator:Kaifin
Version:Extra
Source:jubeat copious
Tags:REFLEC BEAT colette autumn fanzhen0019 bonzi revurii xlolicore-
BeatmapID:1213579
BeatmapSetID:559097

[Difficulty]
HPDrainRate:6
CircleSize:5
OverallDifficulty:8
ApproachRate:9
SliderMultiplier:1.7
SliderTickRate:1

[Events]
//Background and Video events
0,0,"polygonbg1080.png",0,0
//Break Periods
//Storyboard Layer 0 (Background)
//Storyboard Layer 1 (Fail)
//Storyboard Layer 2 (Pass)
//Storyboard Layer 3 (Foreground)
//Storyboard Sound Samples

[TimingPoints]
324,344.827586206897,4,3,0,70,1,0
2392,-100,4,2,0,50,0,0
2565,-100,4,3,0,70,0,0
2737,-100,4,3,2,50,0,0
3082,-100,4,2,1,70,0,0
20496,-100,4,2,0,70,0,0
20582,-100,4,2,1,70,0,0
20841,-100,4,2,0,70,0,0
20927,-100,4,2,1,70,0,0
21186,-100,4,2,0,70,0,0
21272,-100,4,2,1,70,0,0
21530,-100,4,2,0,70,0,0
21617,-100,4,2,1,70,0,0
22479,-100,4,2,0,70,0,0
23082,-100,4,2,1,70,0,0
23168,-100,4,2,0,70,0,0
23513,-100,4,2,1,70,0,0
35496,-100,4,2,1,40,0,0
35668,-100,4,2,1,55,0,0
35755,-100,4,2,1,70,0,0
36186,-100,4,2,1,70,0,1
37048,-100,4,2,1,70,0,1
38944,-100,4,2,1,70,0,1
39806,-100,4,2,8,70,0,1
39979,-100,4,2,1,70,0,1
40065,-100,4,2,8,70,0,1
40324,-100,4,2,1,70,0,1
40410,-100,4,2,8,70,0,1
40668,-100,4,2,1,70,0,1
40841,-100,4,2,8,70,0,1
41013,-100,4,2,1,70,0,1
42479,-100,4,2,8,70,0,1
42651,-100,4,2,1,70,0,1
42824,-100,4,2,8,70,0,1
43082,-100,4,2,1,70,0,1
43168,-100,4,2,8,70,0,1
43427,-100,4,2,1,70,0,1
43513,-100,4,2,8,70,0,1
44117,-100,4,2,1,70,0,1
45237,-100,4,2,8,70,0,1
45410,-100,4,2,1,70,0,1
45582,-100,4,2,8,70,0,1
45755,-100,4,2,1,70,0,1
47220,-100,4,2,1,70,0,0
49375,-100,4,2,8,70,0,0
49634,-100,4,2,1,70,0,0
49720,-100,4,2,8,70,0,0
49979,-100,4,2,1,70,0,0
52134,-100,4,2,8,70,0,0
52565,-100,4,2,1,70,0,0
54892,-100,4,2,8,70,0,0
55151,-100,4,2,1,70,0,0
55237,-100,4,2,8,70,0,0
55496,-100,4,2,1,70,0,0
68599,-100,4,2,1,50,0,0
68944,-100,4,2,1,70,0,0
69289,-100,4,2,8,40,0,0
79720,-100,4,2,1,75,0,0
80324,-100,4,2,1,75,0,1
81703,-100,4,2,1,75,0,1
83082,-100,4,2,1,75,0,1
84461,-100,4,2,1,75,0,1
85496,-100,4,2,1,75,0,1
87220,-100,4,2,1,75,0,1
88599,-100,4,2,1,75,0,1
89979,-100,4,2,1,75,0,1
90841,-100,4,2,1,75,0,1
92737,-100,4,2,1,75,0,1
94117,-100,4,2,1,75,0,1
95496,-100,4,2,1,75,0,1
96703,-100,4,2,1,75,0,1
98255,-100,4,2,1,75,0,1
99634,-100,4,2,1,75,0,1
102392,-100,4,2,1,70,0,0

[Colours]
Combo1 : 255,136,255
Combo2 : 255,155,106
Combo3 : 100,170,255
Combo4 : 243,56,84

[HitObjects]
365,333,324,5,0,0:0:0:0:
394,329,410,1,0,0:0:0:0:
423,326,496,1,2,2:0:0:0:
452,323,582,1,0,0:0:0:0:
294,277,755,5,0,0:0:0:0:
323,273,841,1,0,0:0:0:0:
452,323,1013,5,0,2:0:0:0:
294,277,1186,1,2,2:0:0:0:
385,213,1358,5,2,0:0:0:0:
297,370,1531,1,0,0:0:0:0:
161,300,1703,6,0,P|201:270|211:331,1,127.5,0|0,0:0|0:0,0:0:0:0:
103,341,2048,6,0,B|94:303|94:303|101:261|101:261|88:216,1,127.5,2|0,0:0|0:0,0:0:0:0:
25,161,2392,5,0,0:0:0:0:
54,157,2478,1,0,0:0:0:0:
112,149,2565,5,2,0:0:0:0:
141,145,2651,1,0,0:0:0:0:
199,137,2737,6,0,B|208:175|208:175|201:217|201:217|213:261,1,127.5,8|4,0:0|0:0,0:0:0:0:
277,291,3082,6,0,P|318:291|358:270,1,85,6|0,0:0|0:0,0:0:0:0:
403,227,3341,2,0,P|440:207|482:207,1,85,0|0,0:0|0:0,0:0:0:0:
499,268,3599,6,0,L|490:369,1,85,0|2,0:0|0:0,0:0:0:0:
403,227,3858,2,0,L|412:126,1,85,0|0,0:0|0:0,0:0:0:0:
486,164,4117,6,0,L|481:214,1,42.5,8|0,0:0|0:0,0:0:0:0:
414,334,4289,2,0,L|418:283,1,42.5,2|0,0:1|0:0,0:0:0:0:
300,223,4461,6,0,P|257:222|220:242,1,85,2|0,3:1|0:0,0:0:0:0:
174,287,4720,2,0,P|136:306|94:306,1,85,0|0,0:0|0:0,0:0:0:0:
41,270,4979,1,0,0:0:0:0:
197,354,5151,5,2,0:0:0:0:
213,356,5237,1,0,0:0:0:0:
229,358,5324,1,0,0:0:0:0:
41,270,5496,6,0,B|53:226|53:226|46:184|46:184|55:146,1,127.5,8|0,0:0|0:0,0:0:0:0:
111,106,5841,6,0,B|150:87|150:87|187:104,1,85,2|0,0:0|0:0,0:0:0:0:
238,149,6099,2,0,B|275:166|275:166|314:147,1,85,0|0,0:0|0:0,0:0:0:0:
373,110,6358,6,0,P|368:62|342:16,1,85,0|2,0:0|0:0,0:0:0:0:
238,149,6617,1,0,0:0:0:0:
281,38,6789,1,0,0:0:0:0:
281,38,6875,6,0,L|294:118,1,42.5,8|0,0:0|0:0,0:0:0:0:
238,149,7048,2,0,L|232:191,1,42.5,2|0,0:1|0:0,0:0:0:0:
295,255,7220,6,0,B|256:274|256:274|219:257,1,85,2|0,3:1|0:0,0:0:0:0:
168,212,7479,2,0,B|131:195|131:195|92:214,1,85,0|0,0:0|0:0,0:0:0:0:
41,260,7737,1,0,0:0:0:0:
164,104,7910,5,2,0:0:0:0:
166,120,7996,1,0,0:0:0:0:
168,136,8082,1,0,0:0:0:0:
74,127,8255,5,8,0:0:0:0:
83,85,8341,1,0,0:0:0:0:
92,43,8427,1,0,0:0:0:0:
231,190,8599,6,0,L|334:177,1,85,2|0,0:0|0:0,0:0:0:0:
372,141,8858,2,0,L|456:151,1,85,0|0,0:0|0:0,0:0:0:0:
496,207,9117,6,0,P|501:253|487:308,1,85,0|2,0:0|0:0,0:0:0:0:
372,141,9375,2,0,P|375:94|398:43,1,85,0|0,0:0|0:0,0:0:0:0:
456,39,9634,6,0,P|458:62|451:89,1,42.5,8|0,0:0|0:0,0:0:0:0:
295,146,9806,2,0,P|295:121|307:96,1,42.5,2|0,0:1|0:0,0:0:0:0:
493,290,9979,6,0,L|390:277,1,85,2|0,3:1|0:0,0:0:0:0:
352,241,10238,2,0,L|268:251,1,85,0|0,0:0|0:0,0:0:0:0:
216,295,10496,1,0,0:0:0:0:
295,146,10668,5,2,0:0:0:0:
297,162,10755,1,0,0:0:0:0:
299,178,10841,1,0,0:0:0:0:
115,105,11013,6,0,B|153:96|153:96|195:103|195:103|239:91,1,127.5,8|0,0:0|0:0,0:0:0:0:
316,71,11358,6,0,P|347:53|349:96,1,85,2|0,0:0|0:0,0:0:0:0:
335,164,11617,2,0,P|304:182|302:139,1,85,0|0,0:0|0:0,0:0:0:0:
412,144,11875,6,0,L|424:239,1,85,0|2,0:0|0:0,0:0:0:0:
468,279,12134,2,0,L|456:374,1,85,0|0,0:0|0:0,0:0:0:0:
395,334,12392,6,0,L|347:328,1,42.5,8|0,0:0|0:0,0:0:0:0:
220,306,12565,5,0,0:0:0:0:
286,318,12651,1,8,0:0:0:0:
241,370,12737,5,4,0:0:0:0:
241,370,12996,1,4,0:0:0:0:
241,370,13255,1,4,0:0:0:0:
121,265,13427,6,0,L|169:259,1,42.5,2|0,0:0|0:0,0:0:0:0:
94,331,13599,2,0,L|46:325,1,42.5,2|2,0:0|0:0,0:0:0:0:
63,225,13772,5,2,0:0:0:0:
65,216,13858,1,0,0:0:0:0:
67,207,13944,1,2,0:0:0:0:
69,198,14030,1,0,0:0:0:0:
89,181,14117,6,0,P|149:202|161:266,1,127.5,6|0,0:0|0:0,0:0:0:0:
118,174,14461,2,0,L|223:155,1,85,8|0,0:0|0:0,0:0:0:0:
277,145,14806,5,2,0:0:0:0:
226,87,14979,1,0,0:0:0:0:
277,145,15151,5,8,0:0:0:0:
226,87,15324,1,0,0:0:0:0:
277,145,15496,5,2,0:0:0:0:
226,87,15669,1,0,0:0:0:0:
176,229,15841,5,8,0:0:0:0:
201,158,16013,1,0,0:0:0:0:
226,87,16186,6,0,B|272:43|272:43|335:94,1,127.5,2|0,0:0|0:0,0:0:0:0:
367,132,16530,5,8,0:0:0:0:
388,128,16617,1,0,0:0:0:0:
409,124,16703,1,2,0:0:0:0:
432,241,16875,6,0,P|372:262|360:326,1,127.5,2|0,0:0|0:0,0:0:0:0:
403,234,17219,2,0,L|298:215,1,85,8|0,0:0|0:0,0:0:0:0:
244,205,17564,5,2,0:0:0:0:
295,147,17737,1,0,0:0:0:0:
244,205,17909,5,8,0:0:0:0:
295,147,18082,1,0,0:0:0:0:
244,205,18254,5,2,0:0:0:0:
295,147,18427,1,0,0:0:0:0:
345,289,18599,5,8,0:0:0:0:
295,147,18771,1,2,0:0:0:0:
227,285,18944,5,2,0:0:0:0:
248,281,19031,1,0,0:0:0:0:
269,277,19117,1,0,0:0:0:0:
345,289,19289,1,8,0:0:0:0:
421,301,19461,1,2,0:0:0:0:
300,363,19634,6,0,P|240:342|228:278,1,127.5,6|0,0:0|0:0,0:0:0:0:
144,369,19979,2,0,L|253:350,1,85,8|0,0:0|0:0,0:0:0:0:
121,295,20324,5,2,0:0:0:0:
68,354,20497,1,2,0:0:0:0:
175,232,20668,5,8,0:0:0:0:
250,215,20841,1,0,0:0:0:0:
121,295,21013,5,2,0:0:0:0:
68,354,21186,1,2,0:0:0:0:
175,232,21357,5,8,0:0:0:0:
250,215,21530,1,2,0:0:0:0:
415,249,21703,6,0,B|369:205|369:205|306:256,1,127.5,2|0,0:0|0:0,0:0:0:0:
268,292,22047,5,8,0:0:0:0:
247,288,22134,1,0,0:0:0:0:
226,284,22220,1,2,0:0:0:0:
19,226,22392,6,0,P|79:205|91:141,1,127.5,2|0,0:0|0:0,0:0:0:0:
175,232,22737,2,0,L|66:213,1,85,0|2,0:0|0:0,0:0:0:0:
22,85,23082,5,2,0:0:0:0:
105,70,23255,1,2,0:0:0:0:
175,132,23427,5,2,0:0:0:0:
92,147,23600,1,2,0:0:0:0:
22,85,23772,5,0,0:0:0:0:
175,132,23944,1,2,0:0:0:0:
105,70,24117,5,2,0:0:0:0:
99,110,24203,1,0,0:0:0:0:
92,147,24289,1,0,0:0:0:0:
116,4,24461,5,6,0:0:0:0:
116,4,24634,1,6,0:0:0:0:
116,4,24806,1,6,0:0:0:0:
220,231,25151,5,4,0:0:0:0:
220,231,25237,2,0,P|264:232|309:212,1,85,0|0,0:0|0:0,0:0:0:0:
356,177,25496,5,8,0:0:0:0:
301,217,25668,1,0,3:0:0:0:
430,225,25841,5,0,0:0:0:0:
427,212,25927,1,0,3:0:0:0:
424,199,26013,1,0,3:0:0:0:
301,217,26186,5,8,0:0:0:0:
482,147,26358,5,0,0:0:0:0:
485,160,26444,1,0,0:0:0:0:
488,173,26530,1,2,0:0:0:0:
491,186,26617,1,0,0:0:0:0:
356,177,26789,5,0,0:0:0:0:
421,264,26961,5,0,0:0:0:0:
424,251,27047,1,0,3:0:0:0:
427,238,27133,1,0,0:0:0:0:
431,225,27220,6,0,L|453:299,3,42.5,0|0|0|0,0:0|3:0|0:0|3:0,0:0:0:0:
397,327,27565,2,0,L|419:401,3,42.5,8|0|0|0,0:0|0:0|0:0|0:0,0:0:0:0:
328,292,27910,6,0,P|281:276|239:349,1,127.5,2|0,0:0|0:0,0:0:0:0:
116,237,28427,6,0,L|212:222,1,85,0|0,0:0|3:0,0:0:0:0:
123,314,28686,1,0,0:0:0:0:
123,314,28772,2,0,L|27:299,1,85,0|8,3:0|0:0,0:0:0:0:
270,214,29117,5,0,0:0:0:0:
265,193,29203,1,0,0:0:0:0:
260,172,29289,1,0,3:0:0:0:
255,151,29375,1,0,0:0:0:0:
199,223,29548,5,0,0:0:0:0:
194,244,29634,1,8,0:0:0:0:
125,168,29806,5,8,0:0:0:0:
146,173,29892,1,0,0:0:0:0:
70,242,30065,5,8,0:0:0:0:
75,221,30151,1,0,0:0:0:0:
144,297,30324,5,8,0:0:0:0:
144,297,30496,1,2,0:0:0:0:
47,111,30668,5,6,0:0:0:0:
47,111,30754,2,0,P|88:95|137:98,1,85,0|0,0:0|0:0,0:0:0:0:
193,115,31013,5,8,0:0:0:0:
128,95,31185,1,0,0:0:0:0:
246,44,31358,5,0,3:0:0:0:
248,58,31444,1,0,3:0:0:0:
250,72,31530,1,0,3:0:0:0:
128,95,31703,5,8,0:0:0:0:
321,100,31875,5,0,3:0:0:0:
320,87,31961,1,0,0:0:0:0:
318,73,32047,1,0,3:0:0:0:
317,60,32134,1,0,3:0:0:0:
193,115,32306,5,0,0:0:0:0:
224,11,32478,5,0,0:0:0:0:
231,22,32564,1,0,3:0:0:0:
239,33,32650,1,0,3:0:0:0:
246,44,32737,6,0,L|180:37,3,42.5,0|0|0|0,3:0|3:0|3:0|3:0,0:0:0:0:
321,100,33082,2,0,L|387:93,3,42.5,8|0|0|0,0:0|0:0|3:3|3:3,0:0:0:0:
182,189,33427,6,0,P|229:173|271:246,1,127.5,0|0,3:0|0:0,0:0:0:0:
427,182,33944,6,0,L|331:167,1,85,0|0,3:0|3:0,0:0:0:0:
420,259,34203,1,0,0:0:0:0:
420,259,34289,2,0,L|516:244,1,85,0|8,3:0|0:0,0:0:0:0:
288,344,34634,5,0,3:0:0:0:
337,297,34720,1,8,3:0:0:0:
352,363,34806,5,4,0:0:0:0:
352,363,35065,1,4,0:0:0:0:
352,363,35324,1,4,0:0:0:0:
87,328,35611,6,0,L|92:291,3,28.3333333333333,0|2|0|0,0:0|0:0|0:0|0:0,0:0:0:0:
94,283,35841,5,2,0:0:0:0:
123,278,35927,1,0,0:0:0:0:
152,273,36013,1,2,0:0:0:0:
232,338,36186,6,0,P|289:343|338:293,1,127.5,4|0,0:0|0:0,0:0:0:0:
273,235,36530,6,0,L|266:305,1,42.5,8|0,0:0|0:0,0:0:0:0:
408,314,36703,2,0,L|401:244,1,42.5,0|0,0:0|0:0,0:0:0:0:
300,156,36875,6,0,L|179:168,1,85,2|0,0:0|0:0,0:0:0:0:
373,192,37134,2,0,L|360:71,1,85,0|0,0:0|0:0,0:0:0:0:
242,6,37392,6,0,L|254:126,1,85,0|2,0:0|0:0,0:0:0:0:
400,34,37651,2,0,L|279:46,1,85,0|0,0:0|0:0,0:0:0:0:
436,140,37910,6,0,P|472:156|469:111,1,85,8|0,0:0|0:0,0:0:0:0:
250,90,38168,2,0,P|214:74|217:119,1,85,0|0,0:0|0:0,0:0:0:0:
338,112,38427,5,2,3:0:0:0:
363,107,38513,1,0,0:0:0:0:
499,57,38686,5,2,3:0:0:0:
474,52,38772,1,0,3:0:0:0:
481,221,38944,6,0,L|472:331,1,85,2|0,0:0|0:0,0:0:0:0:
366,276,39203,2,0,L|372:191,1,85,0|0,0:0|0:0,0:0:0:0:
474,305,39461,5,0,0:0:0:0:
366,276,39634,1,2,0:0:0:0:
258,247,39806,1,0,0:0:0:0:
474,305,39979,5,8,0:0:0:0:
283,312,40151,6,0,P|238:313|197:281,1,85,0|2,0:0|0:0,0:0:0:0:
188,224,40410,2,0,P|152:202|110:204,1,85,2|2,0:0|0:0,0:0:0:0:
53,241,40668,5,8,0:0:0:0:
190,141,40841,1,2,0:0:0:0:
137,267,41013,5,2,0:0:0:0:
135,279,41099,1,0,0:0:0:0:
133,291,41186,1,2,0:0:0:0:
7,133,41358,6,0,L|72:120,1,42.5,8|0,0:0|0:0,0:0:0:0:
102,68,41530,2,0,L|167:81,1,42.5,2|0,0:0|0:0,0:0:0:0:
190,141,41703,5,4,0:0:0:0:
263,52,41875,5,0,0:0:0:0:
269,76,41961,1,0,0:0:0:0:
184,165,42134,5,0,0:0:0:0:
190,141,42220,1,0,0:0:0:0:
363,187,42392,6,0,L|259:176,1,85,2|2,0:0|0:0,0:0:0:0:
435,113,42737,2,0,L|440:165,1,42.5,8|0,0:0|0:0,0:0:0:0:
461,310,42910,6,0,P|421:315|362:282,1,85,2|2,0:0|0:0,0:0:0:0:
306,332,43168,2,0,P|301:291|334:232,1,85,2|0,0:0|0:0,0:0:0:0:
443,197,43427,5,10,0:0:0:0:
284,177,43599,2,0,P|324:172|383:205,1,85,0|2,0:0|0:0,0:0:0:0:
156,60,43944,5,2,0:3:0:0:
189,53,44030,1,0,0:0:0:0:
322,104,44203,5,0,0:0:0:0:
289,97,44289,1,2,0:3:0:0:
71,101,44461,6,0,L|87:-9,1,85,2|0,0:0|0:0,0:0:0:0:
156,60,44720,1,0,0:0:0:0:
156,60,44806,6,0,L|166:127,1,42.5,8|0,0:0|0:0,0:0:0:0:
65,144,44979,2,0,L|75:77,1,42.5,0|0,0:0|0:0,0:0:0:0:
222,219,45151,6,0,P|178:226|132:202,1,85,2|2,0:0|0:0,0:0:0:0:
303,168,45496,1,8,0:0:0:0:
321,294,45668,1,2,0:0:0:0:
8,330,45841,5,2,3:0:0:0:
36,323,45927,1,0,0:0:0:0:
118,340,46099,5,0,3:0:0:0:
146,333,46185,1,2,3:0:0:0:
228,350,46358,5,0,3:0:0:0:
256,343,46444,2,0,L|261:306,2,21.25,0|0|2,0:0|0:0|3:0,0:0:0:0:
8,330,46703,5,2,0:0:0:0:
8,330,46875,1,4,0:0:0:0:
354,228,47220,6,0,B|396:209|396:209|424:285,1,127.5,4|0,0:0|0:0,0:0:0:0:
305,276,47565,6,0,P|288:240|301:183,1,85,0|0,0:0|0:0,0:0:0:0:
350,158,47824,1,0,0:0:0:0:
366,152,47910,1,2,0:0:0:0:
354,228,48082,1,0,3:0:0:0:
267,134,48255,1,0,0:0:0:0:
283,128,48341,1,0,0:0:0:0:
440,291,48513,1,2,0:0:0:0:
424,285,48599,5,2,0:0:0:0:
338,331,48772,1,0,0:3:0:0:
322,337,48858,1,0,0:0:0:0:
306,343,48944,1,2,0:0:0:0:
224,287,49117,1,0,0:3:0:0:
137,335,49289,2,0,L|131:384,3,42.5,2|0|2|2,0:0|0:0|0:0|0:0,0:0:0:0:
77,287,49634,2,0,L|70:335,3,42.5,2|0|0|2,0:0|0:0|0:0|0:0,0:0:0:0:
16,238,49979,5,2,0:0:0:0:
120,178,50151,1,0,3:0:0:0:
136,184,50237,1,0,0:0:0:0:
152,190,50323,1,0,0:0:0:0:
240,232,50496,1,0,0:0:0:0:
317,179,50668,1,0,3:0:0:0:
333,173,50754,1,0,0:0:0:0:
349,167,50840,1,0,3:0:0:0:
413,235,51013,1,0,0:0:0:0:
429,241,51099,1,0,0:0:0:0:
482,103,51272,1,2,0:0:0:0:
466,97,51358,5,2,0:0:0:0:
378,44,51530,1,0,0:0:0:0:
362,50,51617,1,0,0:0:0:0:
346,56,51703,1,2,0:0:0:0:
250,111,51875,1,0,0:0:0:0:
158,48,52048,1,2,0:0:0:0:
158,48,52134,1,0,0:0:0:0:
158,48,52220,1,0,3:0:0:0:
108,227,52392,1,0,3:0:0:0:
27,122,52565,5,2,3:0:0:0:
79,164,52651,1,0,0:0:0:0:
90,97,52737,5,2,0:0:0:0:
90,97,53082,1,0,0:0:0:0:
22,322,53427,6,0,L|119:308,1,85,2|0,3:0|3:0,0:0:0:0:
198,213,53772,2,0,L|101:227,1,85,0|2,0:0|0:0,0:0:0:0:
216,361,54117,5,0,3:0:0:0:
121,232,54289,1,0,0:0:0:0:
121,232,54375,1,0,0:0:0:0:
121,232,54461,1,2,0:0:0:0:
22,322,54634,5,0,3:0:0:0:
51,318,54720,1,0,0:0:0:0:
80,314,54806,1,2,0:0:0:0:
109,310,54892,1,0,0:0:0:0:
43,145,55151,5,2,0:0:0:0:
37,174,55238,1,0,0:0:0:0:
198,213,55410,5,0,0:0:0:0:
192,184,55497,1,2,0:0:0:0:
178,121,55755,5,0,0:0:0:0:
164,58,56013,1,0,0:0:0:0:
224,78,56272,1,0,0:0:0:0:
213,16,56530,1,2,0:0:0:0:
380,177,56703,5,0,0:0:0:0:
320,157,56789,1,2,0:0:0:0:
334,220,56875,5,4,0:0:0:0:
334,220,57134,1,4,0:0:0:0:
334,220,57392,1,4,0:0:0:0:
178,121,57737,5,10,0:0:0:0:
164,58,57823,1,8,0:0:0:0:
224,78,57910,2,0,L|359:60,1,127.5,8|0,0:0|0:0,0:0:0:0:
414,51,58255,5,2,0:0:0:0:
417,63,58341,1,0,0:0:0:0:
420,75,58427,1,0,0:0:0:0:
422,87,58513,2,0,L|434:-8,1,85,0|0,0:0|0:0,0:0:0:0:
350,61,58772,5,0,0:0:0:0:
313,66,58858,1,0,0:0:0:0:
277,71,58944,1,2,0:0:0:0:
488,145,59117,5,0,0:0:0:0:
451,150,59203,1,0,0:0:0:0:
415,155,59289,1,8,0:0:0:0:
504,14,59461,5,0,0:0:0:0:
314,66,59634,5,2,0:0:0:0:
350,61,59720,1,0,0:0:0:0:
488,145,59892,6,0,L|476:240,1,85
339,145,60151,5,0,0:0:0:0:
339,145,60237,2,0,L|351:50,1,85
418,264,60582,1,0,0:0:0:0:
478,296,60669,1,8,0:0:0:0:
477,229,60755,5,0,0:0:0:0:
479,216,60841,1,0,0:0:0:0:
481,203,60927,1,0,0:0:0:0:
488,145,61013,6,0,P|444:133|413:201,1,127.5,2|0,0:0|0:0,0:0:0:0:
417,68,61358,2,0,L|512:56,1,85,8|0,0:0|0:0,0:0:0:0:
339,145,61703,5,2,0:0:0:0:
341,132,61789,1,0,0:0:0:0:
343,119,61875,1,0,0:0:0:0:
270,242,62048,6,0,L|365:230,1,85,8|0,0:0|0:0,0:0:0:0:
199,319,62392,6,0,P|243:307|274:375,1,127.5,2|0,0:0|0:0,0:0:0:0:
270,242,62737,2,0,L|175:230,1,85,8|0,0:0|0:0,0:0:0:0:
44,205,63082,5,2,0:0:0:0:
67,269,63169,1,2,0:0:0:0:
112,218,63255,1,2,0:0:0:0:
338,255,63427,5,2,0:0:0:0:
315,191,63514,1,2,0:0:0:0:
270,242,63600,1,2,0:0:0:0:
363,144,63772,5,6,0:0:0:0:
345,132,63858,1,0,0:0:0:0:
324,126,63944,1,0,0:0:0:0:
302,128,64030,2,0,L|406:118,1,85,0|0,0:0|0:0,0:0:0:0:
238,65,64289,5,0,0:0:0:0:
234,98,64375,1,0,0:0:0:0:
230,131,64461,1,2,0:0:0:0:
394,53,64634,5,0,0:0:0:0:
390,86,64720,1,0,0:0:0:0:
386,119,64806,1,8,0:0:0:0:
82,77,64979,5,0,0:0:0:0:
230,131,65151,5,2,0:0:0:0:
234,98,65237,1,0,0:0:0:0:
103,230,65410,6,0,L|93:145,1,85,2|0,0:0|0:0,0:0:0:0:
25,259,65668,5,2,0:0:0:0:
25,259,65755,2,0,L|34:343,1,85,0|0,0:0|0:0,0:0:0:0:
158,161,66099,1,2,0:0:0:0:
140,96,66186,1,8,0:0:0:0:
93,145,66272,5,0,0:0:0:0:
132,135,66358,1,2,0:0:0:0:
171,125,66444,1,0,0:0:0:0:
249,105,66530,6,0,P|281:90|308:127,1,85,4|0,0:0|0:0,0:0:0:0:
356,175,66789,2,0,P|388:190|415:153,1,85,4|0,0:0|0:0,0:0:0:0:
464,87,67048,2,0,L|482:162,1,42.5,0|0,0:0|0:0,0:0:0:0:
390,312,67220,5,4,0:0:0:0:
399,271,67306,2,0,L|475:283,1,42.5,0|0,0:0|0:0,0:0:0:0:
512,382,67479,2,0,L|411:368,1,85,4|0,0:0|0:0,0:0:0:0:
390,312,67737,2,0,L|314:324,1,42.5,0|0,1:0|0:0,0:0:0:0:
279,353,67910,5,0,0:0:0:0:
258,357,67996,1,0,0:0:0:0:
236,355,68082,1,0,0:0:0:0:
217,345,68168,1,6,0:0:0:0:
202,328,68255,5,0,0:0:0:0:
180,359,68341,1,0,0:0:0:0:
158,328,68427,1,4,0:0:0:0:
136,359,68513,1,0,0:0:0:0:
114,328,68599,5,4,0:0:0:0:
258,288,68772,1,4,0:0:0:0:
59,228,68944,1,4,3:0:0:0:
59,228,69289,6,0,P|44:275|52:322,1,85,4|0,3:0|0:0,0:0:0:0:
110,160,69634,2,0,P|63:145|16:153,1,85,0|0,0:0|3:0,0:0:0:0:
178,211,69979,2,0,P|193:164|185:117,1,85,0|0,0:0|0:0,0:0:0:0:
127,279,70324,5,0,3:0:0:0:
59,228,70496,1,0,0:0:0:0:
110,160,70668,1,0,0:0:0:0:
178,211,70841,1,0,3:0:0:0:
119,220,71013,5,0,0:0:0:0:
119,220,71186,1,0,0:0:0:0:
39,84,71358,5,0,3:0:0:0:
114,71,71530,1,0,0:0:0:0:
189,58,71703,2,0,L|196:98,4,28.3333333333333,0|0|0|0|0,3:0|0:0|0:0|0:0|0:0,0:0:0:0:
255,12,72048,6,0,P|298:7|348:41,1,85,0|0,3:0|0:0,0:0:0:0:
417,1,72392,2,0,P|422:44|388:94,1,85,0|0,0:0|3:0,0:0:0:0:
428,163,72737,2,0,P|385:168|335:134,1,85,0|0,0:0|0:0,0:0:0:0:
278,94,73082,5,0,3:0:0:0:
299,88,73168,1,0,0:0:0:0:
339,89,73255,1,0,0:0:0:0:
359,82,73341,1,0,0:0:0:0:
404,80,73427,6,0,L|452:67,3,42.5,0|0|0|0,0:0|0:0|3:0|0:0,0:0:0:0:
486,80,73772,6,0,L|501:182,1,85,0|0,0:0|0:0,0:0:0:0:
415,247,74117,2,0,L|430:145,1,85,0|0,3:0|0:0,0:0:0:0:
496,325,74461,5,0,3:0:0:0:
483,323,74548,1,0,0:0:0:0:
470,321,74634,1,0,0:0:0:0:
457,319,74720,1,0,0:0:0:0:
444,317,74806,5,0,3:0:0:0:
371,341,74979,1,2,0:0:0:0:
309,272,75151,1,0,0:0:0:0:
322,270,75238,1,0,0:0:0:0:
335,268,75324,1,0,3:0:0:0:
228,249,75496,6,0,P|227:299|307:263,1,170,2|0,0:0|3:0,0:0:0:0:
430,143,76013,2,0,P|431:193|351:157,1,170,2|0,0:0|3:0,0:0:0:0:
498,217,76530,1,0,0:0:0:0:
496,230,76617,1,0,0:0:0:0:
494,243,76703,1,0,0:0:0:0:
369,93,76875,6,0,B|429:36|429:36|491:96,1,170,2|0,3:0|3:0,0:0:0:0:
430,143,77392,1,0,0:0:0:0:
304,55,77565,6,0,L|296:128,1,42.5,2|0,3:0|0:0,0:0:0:0:
232,105,77737,2,0,L|224:178,1,42.5,0|0,0:0|0:0,0:0:0:0:
160,155,77910,5,0,0:0:0:0:
155,197,77996,1,0,0:0:0:0:
150,239,78083,1,0,0:0:0:0:
144,280,78169,1,0,0:0:0:0:
138,321,78255,6,0,P|199:335|242:291,1,127.5,0|0,0:0|0:0,0:0:0:0:
69,263,78599,6,0,L|55:386,1,85,0|0,0:0|0:0,0:0:0:0:
231,208,78858,2,0,L|245:331,1,85,0|0,0:0|0:0,0:0:0:0:
28,181,79117,5,0,0:0:0:0:
94,168,79375,1,2,0:0:0:0:
160,155,79548,1,2,0:0:0:0:
339,272,79720,5,2,0:0:0:0:
306,279,79806,1,2,0:0:0:0:
273,285,79892,1,2,0:0:0:0:
240,292,79978,1,2,0:0:0:0:
402,77,80324,5,2,0:0:0:0:
404,93,80410,1,0,0:0:0:0:
406,109,80496,1,0,0:0:0:0:
408,125,80582,1,0,0:0:0:0:
410,141,80668,5,8,0:0:0:0:
414,111,80755,1,0,0:0:0:0:
418,81,80841,1,0,0:0:0:0:
423,51,80927,1,0,0:0:0:0:
428,21,81013,5,2,0:0:0:0:
398,26,81099,1,0,0:0:0:0:
368,31,81185,1,0,0:0:0:0:
338,35,81271,1,0,0:0:0:0:
308,39,81358,5,8,0:0:0:0:
308,107,81444,1,0,0:0:0:0:
366,73,81530,1,2,3:0:0:0:
234,12,81703,6,0,L|226:133,1,85,2|0,0:0|0:0,0:0:0:0:
162,126,81961,2,0,L|167:41,1,85,2|0,0:0|0:0,0:0:0:0:
99,73,82220,2,0,L|96:115,1,42.5,2|0,0:0|0:0,0:0:0:0:
17,251,82392,5,2,0:0:0:0:
88,222,82565,1,2,0:0:0:0:
159,252,82737,1,8,0:0:0:0:
230,222,82910,1,2,0:0:0:0:
372,282,83082,5,2,0:0:0:0:
356,287,83168,1,0,0:0:0:0:
338,288,83255,1,0,0:0:0:0:
321,286,83341,1,0,0:0:0:0:
305,280,83427,5,8,0:0:0:0:
337,260,83513,1,0,0:0:0:0:
374,254,83599,1,0,0:0:0:0:
410,266,83686,1,0,0:0:0:0:
438,291,83772,5,2,0:0:0:0:
434,248,83858,1,0,0:0:0:0:
430,205,83944,1,0,0:0:0:0:
426,162,84030,1,0,0:0:0:0:
422,119,84117,5,8,0:0:0:0:
361,149,84203,1,0,0:0:0:0:
300,119,84289,1,2,3:0:0:0:
239,149,84375,1,0,0:0:0:0:
178,119,84461,6,0,P|175:165|198:208,1,85,2|0,0:0|0:0,0:0:0:0:
208,40,84720,2,0,P|162:37|119:60,1,85,2|0,0:0|0:0,0:0:0:0:
59,147,84979,2,0,L|118:132,1,42.5,2|0,0:0|0:0,0:0:0:0:
190,199,85151,5,2,0:0:0:0:
148,209,85237,1,0,0:0:0:0:
106,219,85324,1,2,0:0:0:0:
64,229,85410,1,0,0:0:0:0:
22,239,85496,5,8,0:0:0:0:
42,243,85582,1,0,0:0:0:0:
62,247,85668,1,2,0:0:0:0:
120,331,85841,5,6,0:0:0:0:
140,327,85927,1,0,0:0:0:0:
160,323,86013,1,0,0:0:0:0:
180,319,86099,1,0,0:0:0:0:
200,315,86186,5,8,0:0:0:0:
228,297,86272,1,0,0:0:0:0:
261,290,86358,1,0,0:0:0:0:
294,296,86444,1,0,0:0:0:0:
321,316,86530,5,2,0:0:0:0:
348,336,86617,1,0,0:0:0:0:
381,342,86703,1,0,0:0:0:0:
414,335,86789,1,0,0:0:0:0:
441,315,86875,5,8,0:0:0:0:
447,247,86961,1,0,0:0:0:0:
386,276,87047,1,2,3:0:0:0:
441,315,87134,1,2,3:0:0:0:
503,288,87220,6,0,P|507:217|480:183,1,85,2|0,0:0|0:0,0:0:0:0:
387,211,87479,2,0,P|383:140|410:106,1,85,2|0,0:0|0:0,0:0:0:0:
469,72,87737,2,0,L|480:147,1,42.5,2|0,0:0|0:0,0:0:0:0:
359,22,87910,5,2,0:0:0:0:
458,0,88082,1,2,0:0:0:0:
388,129,88255,5,8,0:0:0:0:
289,107,88427,1,2,0:0:0:0:
86,62,88599,5,2,0:0:0:0:
74,43,88686,1,0,0:0:0:0:
62,24,88772,1,0,0:0:0:0:
50,43,88858,1,0,0:0:0:0:
38,62,88945,5,8,0:0:0:0:
86,62,89030,1,0,0:0:0:0:
134,62,89117,1,0,0:0:0:0:
182,62,89203,1,0,0:0:0:0:
230,62,89289,5,2,0:0:0:0:
223,99,89375,1,0,0:0:0:0:
216,136,89461,1,0,0:0:0:0:
209,173,89548,1,0,0:0:0:0:
202,210,89634,5,8,0:0:0:0:
144,245,89720,1,0,0:0:0:0:
145,177,89806,1,2,3:0:0:0:
307,118,89979,6,0,L|431:100,1,85,2|0,0:0|0:0,0:0:0:0:
474,196,90237,2,0,L|350:178,1,85,2|0,0:0|0:0,0:0:0:0:
463,39,90496,2,0,L|472:101,1,42.5,2|0,0:0|0:0,0:0:0:0:
389,183,90668,5,2,0:0:0:0:
383,225,90754,1,0,0:0:0:0:
389,267,90841,1,2,0:0:0:0:
383,309,90927,1,2,0:0:0:0:
389,351,91013,5,10,0:0:0:0:
456,361,91099,1,2,0:0:0:0:
511,320,91186,1,2,0:0:0:0:
303,274,91358,5,6,0:0:0:0:
273,268,91444,1,0,0:0:0:0:
243,262,91530,1,0,0:0:0:0:
213,256,91617,1,0,0:0:0:0:
183,250,91703,5,8,0:0:0:0:
153,256,91789,1,0,0:0:0:0:
123,262,91876,1,0,0:0:0:0:
93,268,91962,1,0,0:0:0:0:
63,274,92048,5,2,0:0:0:0:
57,290,92134,1,0,0:0:0:0:
55,306,92220,1,0,0:0:0:0:
55,322,92306,1,0,0:0:0:0:
59,338,92392,5,8,0:0:0:0:
127,329,92479,1,0,0:0:0:0:
195,320,92565,1,2,3:0:0:0:
29,130,92737,6,0,L|19:226,1,85,2|0,0:0|0:0,0:0:0:0:
118,157,92996,2,0,L|108:61,1,85,2|0,0:0|0:0,0:0:0:0:
27,36,93255,1,2,0:0:0:0:
207,184,93427,5,2,0:0:0:0:
296,211,93599,1,0,3:0:0:0:
269,300,93772,1,2,3:2:0:0:
180,273,93944,1,2,3:2:0:0:
369,113,94117,5,2,0:0:0:0:
372,133,94203,1,0,0:0:0:0:
375,153,94289,1,0,0:0:0:0:
378,173,94375,1,0,0:0:0:0:
381,193,94461,5,8,0:0:0:0:
392,156,94548,1,0,0:0:0:0:
403,119,94634,1,0,0:0:0:0:
414,82,94720,1,0,0:0:0:0:
425,45,94806,5,2,0:0:0:0:
388,56,94892,1,0,0:0:0:0:
351,67,94978,1,0,0:0:0:0:
314,78,95065,1,0,0:0:0:0:
277,89,95151,5,8,0:0:0:0:
234,142,95238,1,0,0:0:0:0:
300,153,95324,1,2,3:0:0:0:
277,89,95410,1,2,0:0:0:0:
211,78,95496,6,0,L|106:88,1,85,2|0,0:0|0:0,0:0:0:0:
268,4,95755,2,0,L|278:109,1,85,2|0,0:0|0:0,0:0:0:0:
300,153,96013,2,0,L|352:148,1,42.5,2|0,0:0|0:0,0:0:0:0:
481,90,96186,5,2,0:0:0:0:
461,73,96272,1,0,0:0:0:0:
441,90,96358,1,2,0:0:0:0:
421,73,96444,1,2,0:0:0:0:
406,90,96530,5,2,0:0:0:0:
424,118,96617,1,2,0:0:0:0:
443,147,96703,1,2,0:0:0:0:
462,118,96789,1,2,0:0:0:0:
481,90,96876,5,6,0:0:0:0:
483,123,96961,1,0,0:0:0:0:
485,156,97048,1,0,0:0:0:0:
487,189,97134,1,0,0:0:0:0:
489,222,97220,5,8,0:0:0:0:
456,224,97305,1,0,0:0:0:0:
423,226,97392,1,0,0:0:0:0:
390,228,97478,1,0,0:0:0:0:
356,230,97565,5,2,0:0:0:0:
354,197,97650,1,0,0:0:0:0:
352,164,97737,1,0,0:0:0:0:
350,131,97823,1,0,0:0:0:0:
348,97,97909,5,8,0:0:0:0:
415,93,97996,1,0,0:0:0:0:
481,90,98082,1,2,3:0:0:0:
143,333,98255,6,0,L|172:234,1,85,2|0,0:0|0:0,0:0:0:0:
206,171,98513,2,0,L|277:245,1,85,2|0,0:0|0:0,0:0:0:0:
314,306,98772,1,2,0:0:0:0:
136,109,98944,5,2,0:0:0:0:
235,84,99117,1,2,0:0:0:0:
166,251,99289,5,2,0:0:0:0:
67,226,99462,1,2,0:0:0:0:
330,153,99634,5,2,0:0:0:0:
332,165,99720,1,0,0:0:0:0:
334,177,99806,1,0,0:0:0:0:
336,189,99892,1,0,0:0:0:0:
338,201,99979,5,8,0:0:0:0:
304,194,100065,1,0,0:0:0:0:
270,187,100151,1,0,0:0:0:0:
236,180,100237,1,0,0:0:0:0:
202,173,100324,5,2,0:0:0:0:
214,128,100410,1,0,0:0:0:0:
226,83,100496,1,0,0:0:0:0:
238,38,100582,1,0,0:0:0:0:
302,14,100668,5,8,0:0:0:0:
336,21,100754,1,0,0:0:0:0:
370,28,100840,1,2,3:0:0:0:
404,35,100927,1,0,0:0:0:0:
445,93,101013,5,6,0:0:0:0:
445,93,101272,1,6,0:0:0:0:
445,93,101530,1,6,0:0:0:0:
95,199,101703,5,2,0:0:0:0:
144,152,101789,1,2,0:0:0:0:
160,218,101875,1,2,0:0:0:0:
380,302,102048,5,2,0:0:0:0:
331,255,102134,1,2,0:0:0:0:
315,321,102220,1,2,0:0:0:0:
23,360,102392,6,0,L|129:344,1,85,4|0,0:0|0:0,0:0:0:0:
177,293,102651,2,0,L|71:277,1,85,0|0,0:0|0:0,0:0:0:0:
25,269,102910,1,0,0:0:0:0:
20,243,102996,1,0,0:0:0:0:
15,217,103082,6,0,P|56:197|108:203,1,85,2|0,0:0|0:0,0:0:0:0:
59,101,103427,5,8,0:0:0:0:
54,127,103513,1,0,0:0:0:0:
200,118,103686,1,0,0:0:0:0:
205,92,103772,6,0,P|164:72|112:78,1,85,2|0,0:0|0:0,0:0:0:0:
43,11,104030,1,0,0:0:0:0:
43,11,104117,2,0,L|146:0,1,85,8|0,0:0|0:0,0:0:0:0:
269,133,104461,5,2,0:0:0:0:
264,159,104548,1,0,0:0:0:0:
259,185,104634,1,0,0:0:0:0:
382,105,104806,5,8,0:0:0:0:
377,79,104892,1,0,0:0:0:0:
259,185,105065,5,2,0:0:0:0:
284,183,105151,1,2,0:0:0:0:
309,181,105237,1,0,0:0:0:0:
334,179,105324,1,0,0:0:0:0:
359,178,105410,6,0,P|375:223|371:262,1,85,0|0,0:0|0:0,0:0:0:0:
337,315,105668,5,0,0:0:0:0:
494,241,105841,5,2,0:0:0:0:
469,239,105927,1,0,0:0:0:0:
444,237,106013,1,0,0:0:0:0:
312,317,106186,5,8,0:0:0:0:
337,315,106272,1,0,0:0:0:0:
470,143,106444,1,0,0:0:0:0:
472,168,106530,5,2,0:0:0:0:
483,308,106703,1,0,0:0:0:0:
472,168,106875,5,8,0:0:0:0:
483,308,107048,1,0,0:0:0:0:
309,181,107220,5,2,0:0:0:0:
334,179,107306,1,0,0:0:0:0:
359,177,107392,1,0,0:0:0:0:
494,241,107565,5,8,0:0:0:0:
469,239,107651,1,0,0:0:0:0:
312,317,107824,5,10,0:0:0:0:
455,75,107996,5,0,0:0:0:0:
387,63,108082,1,0,0:0:0:0:
411,127,108168,1,0,0:0:0:0:
455,75,108255,5,8,0:0:0:0:
309,181,108427,1,0,0:0:0:0:
469,239,108599,5,2,0:0:0:0:
465,213,108686,1,0,0:0:0:0:
461,187,108772,1,0,0:0:0:0:
316,291,108944,5,8,0:0:0:0:
312,317,109031,1,0,0:0:0:0:
489,356,109203,5,0,0:0:0:0:
109,347,109375,5,0,0:0:0:0:
177,359,109461,1,0,0:0:0:0:
153,295,109547,1,0,0:0:0:0:
109,347,109634,5,8,0:0:0:0:
255,241,109806,1,0,0:0:0:0:
95,183,109978,5,2,0:0:0:0:
99,209,110065,1,0,0:0:0:0:
103,235,110151,1,0,0:0:0:0:
248,131,110323,5,8,0:0:0:0:
252,105,110410,1,2,0:0:0:0:
75,66,110582,1,2,0:0:0:0:
79,92,110669,5,2,0:0:0:0:
176,17,110841,1,0,0:0:0:0:
327,143,111013,5,8,0:0:0:0:
176,17,111186,1,0,0:0:0:0:
248,131,111358,5,2,0:0:0:0:
176,17,111530,1,2,0:0:0:0:
169,119,111703,6,0,L|174:192,1,42.5,2|2,0:0|0:0,0:0:0:0:
329,185,111875,2,0,L|324:112,1,42.5,0|2,0:0|0:0,0:0:0:0:
248,131,112048,5,4,0:0:0:0:
248,131,112306,1,4,0:0:0:0:
248,131,112565,1,4,0:0:0:0:
140,237,112737,6,0,L|245:222,1,85,2|2,0:0|1:0,0:0:0:0:
345,287,113082,1,2,0:0:0:0:
302,293,113168,1,0,0:0:0:0:
140,237,113341,5,2,3:0:0:0:
