osu file format v14

[General]
AudioFilename: audio.mp3
AudioLeadIn: 0
PreviewTime: 77565
Countdown: 0
SampleSet: None
StackLeniency: 0.2
Mode: 0
LetterboxInBreaks: 0
WidescreenStoryboard: 1

[Editor]
DistanceSpacing: 1.3
BeatDivisor: 4
GridSize: 8
TimelineZoom: 4.199999

[Metadata]
Title:polygon
TitleUnicode:polygon
Artist:Sota Fujimori
ArtistUnicode:Sota Fujimori
Creator:Kaifin
Version:Expert
Source:jubeat copious
Tags:REFLEC BEAT colette autumn fanzhen0019 bonzi revurii xlolicore-
BeatmapID:1220396
BeatmapSetID:559097

[Difficulty]
HPDrainRate:6
CircleSize:3
OverallDifficulty:8.5
ApproachRate:9.4
SliderMultiplier:2.6
SliderTickRate:1

[Events]
//Background and Video events
0,0,"polygonbg1080.png",0,0
//Break Periods
//Storyboard Layer 0 (Background)
//Storyboard Layer 1 (Fail)
//Storyboard Layer 2 (Pass)
//Storyboard Layer 3 (Foreground)
//Storyboard Sound Samples

[TimingPoints]
324,344.827586206897,4,3,0,70,1,0
2392,-100,4,2,0,50,0,0
2565,-100,4,3,0,70,0,0
2737,-100,4,3,2,50,0,0
3082,-100,4,2,1,70,0,0
20496,-100,4,2,0,70,0,0
20582,-100,4,2,1,70,0,0
20841,-100,4,2,0,70,0,0
20927,-100,4,2,1,70,0,0
21186,-100,4,2,0,70,0,0
21272,-100,4,2,1,70,0,0
21530,-100,4,2,0,70,0,0
21617,-100,4,2,1,70,0,0
22479,-100,4,2,0,70,0,0
23082,-100,4,2,1,70,0,0
23168,-100,4,2,0,70,0,0
23513,-100,4,2,1,70,0,0
35496,-100,4,2,1,40,0,0
35668,-100,4,2,1,55,0,0
35755,-100,4,2,1,70,0,0
36186,-100,4,2,1,70,0,1
37048,-100,4,2,1,70,0,1
38944,-100,4,2,1,70,0,1
39806,-100,4,2,8,70,0,1
39979,-100,4,2,1,70,0,1
40065,-100,4,2,8,70,0,1
40324,-100,4,2,1,70,0,1
40410,-100,4,2,8,70,0,1
40668,-100,4,2,1,70,0,1
40841,-100,4,2,8,70,0,1
41013,-100,4,2,1,70,0,1
42479,-100,4,2,8,70,0,1
42651,-100,4,2,1,70,0,1
42824,-100,4,2,8,70,0,1
43082,-100,4,2,1,70,0,1
43168,-100,4,2,8,70,0,1
43427,-100,4,2,1,70,0,1
43513,-100,4,2,8,70,0,1
44117,-100,4,2,1,70,0,1
45237,-100,4,2,8,70,0,1
45410,-100,4,2,1,70,0,1
45582,-100,4,2,8,70,0,1
45755,-100,4,2,1,70,0,1
47220,-100,4,2,1,70,0,0
49375,-100,4,2,8,70,0,0
49634,-100,4,2,1,70,0,0
49720,-100,4,2,8,70,0,0
49979,-100,4,2,1,70,0,0
52134,-100,4,2,8,70,0,0
52565,-100,4,2,1,70,0,0
54892,-100,4,2,8,70,0,0
55151,-100,4,2,1,70,0,0
55237,-100,4,2,8,70,0,0
55496,-100,4,2,1,70,0,0
68599,-100,4,2,1,50,0,0
68944,-100,4,2,1,70,0,0
69289,-100,4,2,8,40,0,0
79720,-100,4,2,1,75,0,0
80324,-100,4,2,1,75,0,1
81703,-100,4,2,1,75,0,1
83082,-100,4,2,1,75,0,1
84461,-100,4,2,1,75,0,1
85496,-100,4,2,1,75,0,1
87220,-100,4,2,1,75,0,1
88599,-100,4,2,1,75,0,1
89979,-100,4,2,1,75,0,1
90841,-100,4,2,1,75,0,1
92737,-100,4,2,1,75,0,1
94117,-100,4,2,1,75,0,1
95496,-100,4,2,1,75,0,1
96703,-100,4,2,1,75,0,1
98255,-100,4,2,1,75,0,1
99634,-100,4,2,1,75,0,1
102392,-100,4,2,1,70,0,0

[Colours]
Combo1 : 255,136,255
Combo2 : 255,155,106
Combo3 : 100,170,255
Combo4 : 243,56,84

[HitObjects]
315,104,324,5,0,0:0:0:0:
352,68,410,1,0,0:0:0:0:
389,104,496,1,2,2:0:0:0:
426,68,582,1,0,0:0:0:0:
241,176,755,5,0,0:0:0:0:
204,140,841,1,0,0:0:0:0:
243,322,1013,5,0,2:0:0:0:
169,250,1185,1,2,2:0:0:0:
241,176,1357,1,2,0:0:0:0:
315,248,1530,1,0,0:0:0:0:
82,221,1703,6,0,P|86:290|162:228,1,195,0|0,0:0|0:0,0:0:0:0:
136,154,2048,2,0,B|86:122|35:150|35:150|20:111|70:60|81:63,1,195,2|0,0:0|0:0,0:0:0:0:
140,35,2392,2,0,L|220:11,1,65
306,46,2565,5,2,0:0:0:0:
386,73,2651,1,0,0:0:0:0:
466,100,2737,6,0,B|446:234|446:234|428:164,1,195,8|4,0:0|0:0,0:0:0:0:
328,157,3082,6,0,L|210:172,1,65,6|0,0:0|0:0,0:0:0:0:
145,316,3255,5,0,0:0:0:0:
185,265,3341,2,0,L|314:249,1,130,0|0,0:0|0:0,0:0:0:0:
492,346,3599,6,0,P|439:372|407:318,1,130,0|2,0:0|0:0,0:0:0:0:
480,225,3858,2,0,L|464:95,1,130,0|0,0:0|0:0,0:0:0:0:
306,46,4117,6,0,L|298:110,1,65,8|0,0:0|0:0,0:0:0:0:
389,172,4289,2,0,L|396:236,1,65,2|0,0:1|0:0,0:0:0:0:
207,327,4461,6,0,P|164:325|127:298,1,65,2|0,3:1|0:0,0:0:0:0:
0,180,4634,5,0,0:0:0:0:
52,144,4720,2,0,P|122:147|184:191,1,130,0|0,0:0|0:0,0:0:0:0:
0,180,4979,1,0,0:0:0:0:
306,46,5151,5,2,0:0:0:0:
302,78,5237,1,0,0:0:0:0:
297,110,5324,1,0,0:0:0:0:
52,144,5496,6,0,B|43:80|43:80|182:58,1,195,8|0,0:0|0:0,0:0:0:0:
236,166,5841,6,0,L|109:187,1,65,2|0,0:0|0:0,0:0:0:0:
369,272,6013,5,0,0:0:0:0:
367,211,6099,2,0,L|388:82,1,130,0|0,0:0|0:0,0:0:0:0:
226,272,6358,6,0,P|256:310|270:253,1,130,0|2,0:0|0:0,0:0:0:0:
512,262,6617,2,0,P|472:298|463:245,1,130,0|0,0:0|0:0,0:0:0:0:
171,176,6875,6,0,L|235:165,1,65,8|0,0:0|0:0,0:0:0:0:
452,93,7048,2,0,L|387:82,1,65,2|0,0:1|0:0,0:0:0:0:
250,19,7220,6,0,P|186:10|132:44,1,130,2|0,3:1|0:0,0:0:0:0:
69,120,7479,2,0,P|35:67|45:0,1,130,0|0,0:0|0:0,0:0:0:0:
205,90,7737,1,0,0:0:0:0:
55,198,7910,5,2,0:0:0:0:
62,159,7996,1,0,0:0:0:0:
69,120,8082,1,0,0:0:0:0:
352,242,8255,5,8,0:0:0:0:
366,320,8341,1,0,0:0:0:0:
288,334,8427,1,0,0:0:0:0:
274,256,8513,1,8,0:0:0:0:
330,148,8599,6,0,L|430:159,1,65,2|0,0:0|0:0,0:0:0:0:
182,177,8772,5,0,0:0:0:0:
222,227,8858,2,0,L|359:242,1,130,0|0,0:0|0:0,0:0:0:0:
75,104,9117,6,0,L|212:89,1,130,0|2,0:0|0:0,0:0:0:0:
136,281,9375,2,0,L|-1:266,1,130,0|0,0:0|0:0,0:0:0:0:
222,227,9634,6,0,L|229:291,1,65,8|0,0:0|0:0,0:0:0:0:
67,168,9806,2,0,L|74:103,1,65,2|0,0:1|0:0,0:0:0:0:
275,24,9979,6,0,P|338:28|386:70,1,130,2|0,3:1|0:0,0:0:0:0:
436,158,10237,2,0,P|477:110|482:46,1,130,0|0,0:0|0:0,0:0:0:0:
499,227,10496,1,0,0:0:0:0:
240,122,10668,5,2,0:0:0:0:
272,116,10755,1,0,0:0:0:0:
304,110,10841,1,0,0:0:0:0:
419,360,11013,6,0,L|207:321,1,195,8|0,0:0|0:0,0:0:0:0:
144,364,11358,6,0,L|127:270,1,65,2|0,0:0|0:0,0:0:0:0:
66,141,11530,5,0,0:0:0:0:
55,205,11617,2,0,L|29:346,1,130,0|0,0:0|0:0,0:0:0:0:
203,232,11875,6,0,L|344:257,1,130,0|2,0:0|0:0,0:0:0:0:
439,133,12134,2,0,L|298:158,1,130,0|0,0:0|0:0,0:0:0:0:
472,325,12392,6,0,L|460:260,1,65,8|0,0:0|0:0,0:0:0:0:
236,37,12565,2,0,L|224:101,1,65,0|8,0:0|0:0,0:0:0:0:
63,308,12737,5,4,0:0:0:0:
63,308,12996,1,4,0:0:0:0:
63,308,13255,1,4,0:0:0:0:
349,357,13427,6,0,L|330:250,1,65,2|0,0:0|0:0,0:0:0:0:
331,254,13599,2,0,L|312:361,1,65,2|2,0:0|0:0,0:0:0:0:
239,354,13772,5,2,0:0:0:0:
151,331,13858,1,0,0:0:0:0:
63,308,13944,1,2,0:0:0:0:
277,181,14117,6,0,P|369:174|418:273,1,195,6|0,0:0|0:0,0:0:0:0:
419,252,14461,2,0,B|439:205|439:205|427:156|427:156|446:117|446:117|435:68,1,195,8|0,0:0|0:0,0:0:0:0:
435,68,14806,6,0,P|403:59|371:60,1,65,2|0,0:0|0:0,0:0:0:0:
283,89,14979,2,0,P|250:89|219:81,1,65,0|0,0:0|0:0,0:0:0:0:
429,160,15151,6,0,P|397:151|365:152,1,65,8|0,0:0|0:0,0:0:0:0:
277,181,15324,2,0,P|244:181|213:173,1,65,0|0,0:0|0:0,0:0:0:0:
419,252,15496,6,0,P|387:243|355:244,1,65,2|0,0:0|0:0,0:0:0:0:
267,273,15669,2,0,P|234:273|203:265,1,65,0|0,0:0|0:0,0:0:0:0:
409,344,15841,6,0,P|377:335|345:336,1,65,8|0,0:0|0:0,0:0:0:0:
193,357,16014,2,0,P|224:365|257:365,1,65,0|0,0:0|0:0,0:0:0:0:
504,119,16186,6,0,L|517:311,1,130,2|0,0:0|0:0,0:0:0:0:
293,81,16530,5,8,0:0:0:0:
364,74,16617,1,0,0:0:0:0:
435,68,16703,1,2,0:0:0:0:
120,300,16875,6,0,B|66:353|66:353|14:245,1,195,2|0,0:0|0:0,0:0:0:0:
14,245,17220,2,0,B|56:217|56:217|99:222|99:222|141:194|141:194|192:197,1,195,8|0,0:0|0:0,0:0:0:0:
192,197,17565,6,0,L|176:89,1,65,2|0,0:0|0:0,0:0:0:0:
79,139,17737,2,0,L|63:31,1,65,0|0,0:0|0:0,0:0:0:0:
295,190,17910,6,0,L|279:82,1,65,8|0,0:0|0:0,0:0:0:0:
182,132,18082,2,0,L|166:24,1,65,0|0,0:0|0:0,0:0:0:0:
398,183,18255,6,0,L|382:75,1,65,2|0,0:0|0:0,0:0:0:0:
285,125,18427,2,0,L|269:17,1,65,0|0,0:0|0:0,0:0:0:0:
481,47,18599,6,0,L|497:155,1,65,8|0,0:0|0:0,0:0:0:0:
407,247,18772,2,0,L|391:139,1,65,2|0,0:0|0:0,0:0:0:0:
285,125,18944,5,2,0:0:0:0:
285,125,19030,1,0,0:0:0:0:
285,125,19117,1,0,0:0:0:0:
199,343,19289,5,8,0:0:0:0:
407,247,19461,1,2,0:0:0:0:
117,132,19634,6,0,L|87:330,1,195,6|0,0:0|0:0,0:0:0:0:
87,324,19979,2,0,B|52:267|52:267|210:251,1,195,8|0,0:0|0:0,0:0:0:0:
179,254,20324,6,0,P|213:253|248:274,1,65,2|0,0:0|0:0,0:0:0:0:
362,343,20496,2,0,P|328:344|293:323,1,65,2|0,0:0|0:0,0:0:0:0:
463,165,20668,6,0,L|473:250,1,65,8|0,0:0|0:0,0:0:0:0:
479,311,20841,2,0,L|487:397,1,65,0|0,0:0|0:0,0:0:0:0:
477,84,21013,6,0,P|443:82|408:103,1,65,2|0,0:0|0:0,0:0:0:0:
294,172,21185,2,0,P|327:173|362:152,1,65,2|0,0:0|0:0,0:0:0:0:
195,108,21358,6,0,L|185:193,1,65,8|0,0:0|0:0,0:0:0:0:
172,318,21531,2,0,L|179:254,1,65,2|0,0:0|0:0,0:0:0:0:
114,61,21703,6,0,L|284:42,1,130,2|0,0:0|0:0,0:0:0:0:
411,272,22048,5,8,0:0:0:0:
340,265,22135,1,0,0:0:0:0:
269,259,22221,1,2,0:0:0:0:
4,194,22392,6,0,P|53:151|42:251,1,195,2|0,0:0|0:0,0:0:0:0:
87,240,22737,2,0,B|111:192|111:192|87:112|87:112|115:61,1,195,0|0,0:0|0:0,0:0:0:0:
114,61,23082,6,0,L|199:51,1,65,2|0,0:0|0:0,0:0:0:0:
370,29,23255,2,0,L|306:37,1,65,2|0,0:0|0:0,0:0:0:0:
184,141,23427,6,0,L|269:131,1,65,2|0,0:0|0:0,0:0:0:0:
376,117,23599,2,0,L|312:125,1,65,2|0,0:0|0:0,0:0:0:0:
254,221,23772,6,0,L|339:211,1,65,0|0,0:0|0:0,0:0:0:0:
382,205,23944,2,0,L|318:213,1,65,2|0,0:0|0:0,0:0:0:0:
324,301,24117,5,2,0:0:0:0:
324,301,24203,1,0,0:0:0:0:
324,301,24289,1,0,0:0:0:0:
114,61,24461,5,6,0:0:0:0:
376,117,24634,1,6,0:0:0:0:
254,221,24806,1,6,0:0:0:0:
437,38,25151,5,4,0:0:0:0:
478,89,25237,2,0,L|459:265,1,130,0|0,0:0|0:0,0:0:0:0:
369,181,25496,6,0,L|378:93,1,65,8|0,0:0|0:0,0:0:0:0:
498,314,25668,2,0,L|488:402,1,65,0|0,3:0|3:0,0:0:0:0:
386,299,25841,5,0,0:0:0:0:
353,302,25927,1,0,3:0:0:0:
320,306,26013,1,0,3:0:0:0:
189,214,26186,6,0,L|277:223,1,65,8|0,0:0|0:0,0:0:0:0:
386,299,26358,2,0,L|298:308,1,65,0|0,0:0|0:0,0:0:0:0:
102,366,26530,5,2,0:0:0:0:
51,325,26617,2,0,L|60:237,1,65,0|0,0:0|0:0,0:0:0:0:
233,27,26789,2,0,L|247:159,1,130
69,130,27048,6,0,L|78:42,1,65,0|0,3:0|0:0,0:0:0:0:
246,156,27220,2,0,L|255:244,1,65,0|0,0:0|3:0,0:0:0:0:
51,325,27392,2,0,L|60:237,1,65,0|0,0:0|3:0,0:0:0:0:
264,348,27565,5,8,0:0:0:0:
328,341,27651,1,0,0:0:0:0:
391,333,27737,1,0,0:0:0:0:
454,325,27824,1,0,0:0:0:0:
492,274,27910,5,2,0:0:0:0:
454,223,27996,2,0,L|388:230,1,65,0|0,0:0|0:0,0:0:0:0:
385,102,28168,6,0,B|441:51|441:51|503:152,1,195,0|0,0:0|0:0,0:0:0:0:
169,21,28599,5,0,3:0:0:0:
233,27,28685,1,0,0:0:0:0:
297,33,28772,1,0,3:0:0:0:
50,324,28944,6,0,L|57:258,1,65,8|0,0:0|0:0,0:0:0:0:
179,111,29117,2,0,L|185:175,1,65,0|0,0:0|0:0,0:0:0:0:
264,348,29289,5,0,3:0:0:0:
328,342,29376,1,0,0:0:0:0:
121,266,29548,5,0,0:0:0:0:
57,260,29635,1,8,0:0:0:0:
269,136,29806,5,8,0:0:0:0:
318,178,29893,1,0,0:0:0:0:
89,86,30065,5,8,0:0:0:0:
40,128,30152,1,0,0:0:0:0:
204,368,30324,6,0,L|197:303,1,65,8|0,0:0|0:0,0:0:0:0:
185,175,30497,2,0,L|179:111,1,65,2|0,0:0|0:0,0:0:0:0:
387,57,30668,5,6,0:0:0:0:
428,107,30755,2,0,P|431:171|404:229,1,130,0|0,0:0|0:0,0:0:0:0:
306,239,31013,6,0,P|304:206|317:177,1,65,8|0,0:0|0:0,0:0:0:0:
502,219,31186,2,0,P|503:251|490:280,1,65,0|0,0:0|0:0,0:0:0:0:
354,313,31358,5,0,3:0:0:0:
383,327,31444,1,0,3:0:0:0:
416,324,31530,1,0,3:0:0:0:
325,45,31703,6,0,P|357:43|386:56,1,65,8|0,0:0|0:0,0:0:0:0:
306,239,31876,2,0,P|273:240|244:227,1,65,0|0,3:0|0:0,0:0:0:0:
120,73,32048,5,0,3:0:0:0:
155,124,32134,2,0,P|187:125|216:112,1,65,0|0,3:0|3:0,0:0:0:0:
325,45,32306,6,0,P|388:53|441:91,1,130,0|0,0:0|0:0,0:0:0:0:
148,188,32565,6,0,L|154:124,1,65,0|0,3:0|3:0,0:0:0:0:
244,227,32737,2,0,L|238:291,1,65,0|0,3:0|3:0,0:0:0:0:
38,277,32910,2,0,L|44:213,1,65,0|0,3:0|3:0,0:0:0:0:
134,316,33082,5,8,0:0:0:0:
141,252,33168,1,0,0:0:0:0:
148,188,33255,1,0,3:3:0:0:
154,123,33341,1,0,3:3:0:0:
204,81,33427,5,0,3:0:0:0:
254,123,33513,2,0,L|318:117,1,65,0|0,0:0|0:0,0:0:0:0:
466,250,33686,6,0,B|410:301|410:301|348:200,1,195,0|0,0:0|3:0,0:0:0:0:
476,29,34117,5,0,3:0:0:0:
482,93,34203,1,0,0:0:0:0:
488,157,34290,1,0,3:0:0:0:
312,374,34461,6,0,L|318:310,1,65,8|0,0:0|0:0,0:0:0:0:
476,29,34634,5,0,3:0:0:0:
482,93,34720,1,8,3:0:0:0:
488,157,34807,5,4,0:0:0:0:
488,157,35065,1,4,0:0:0:0:
488,157,35324,1,4,0:0:0:0:
38,255,35668,6,0,L|76:267,1,32.5,2|2,0:0|0:0,0:0:0:0:
124,283,35755,2,0,L|86:295,1,32.5,2|0,0:0|0:0,0:0:0:0:
56,344,35841,5,2,0:0:0:0:
133,197,35927,1,0,0:0:0:0:
206,334,36013,1,2,0:0:0:0:
23,80,36186,6,0,B|54:43|54:43|135:48,1,130,4|0,0:0|0:0,0:0:0:0:
244,166,36444,1,0,0:0:0:0:
197,201,36530,6,0,L|75:193,1,65,8|0,0:0|0:0,0:0:0:0:
263,56,36703,2,0,L|385:64,1,65,0|0,0:0|0:0,0:0:0:0:
370,308,36875,6,0,P|312:313|251:268,1,130,2|0,0:0|0:0,0:0:0:0:
460,218,37134,2,0,L|470:372,1,130,0|0,0:0|0:0,0:0:0:0:
370,128,37392,6,0,P|365:70|410:9,1,130,0|2,0:0|0:0,0:0:0:0:
460,218,37651,2,0,L|305:228,1,130,0|0,0:0|0:0,0:0:0:0:
215,192,37910,6,0,P|273:187|334:232,1,130,8|0,0:0|0:0,0:0:0:0:
125,282,38168,2,0,L|114:127,1,130,0|0,0:0|0:0,0:0:0:0:
196,83,38427,5,2,3:0:0:0:
254,273,38513,1,0,0:0:0:0:
217,67,38686,5,2,3:0:0:0:
115,152,38772,2,0,L|109:74,1,65,0|0,3:0|0:0,0:0:0:0:
317,42,38944,6,0,L|322:119,1,65,2|0,0:0|0:0,0:0:0:0:
344,346,39117,1,0,0:0:0:0:
344,346,39203,2,0,L|339:282,1,65,0|8,0:0|0:0,0:0:0:0:
439,130,39375,5,0,0:0:0:0:
482,180,39461,2,0,L|418:185,1,65,0|0,0:0|0:0,0:0:0:0:
178,208,39634,2,0,L|242:203,1,65,2|0,0:0|0:0,0:0:0:0:
317,42,39806,6,0,L|322:119,1,65,0|0,0:0|0:0,0:0:0:0:
344,346,39979,1,8,0:0:0:0:
20,293,40151,6,0,P|81:275|141:295,1,130,0|2,0:0|0:0,0:0:0:0:
221,344,40410,2,0,P|281:364|342:346,1,130,2|2,0:0|0:0,0:0:0:0:
492,267,40668,6,0,L|428:272,1,65,8|0,0:0|0:0,0:0:0:0:
178,208,40841,2,0,L|242:203,1,65,2|0,0:0|0:0,0:0:0:0:
352,25,41013,5,2,0:0:0:0:
357,108,41099,1,0,0:0:0:0:
362,191,41186,1,2,0:0:0:0:
500,56,41358,6,0,L|436:61,1,65,8|0,0:0|0:0,0:0:0:0:
274,72,41530,2,0,L|210:77,1,65,2|0,0:0|0:0,0:0:0:0:
41,157,41703,6,0,L|46:93,1,65,4|0,0:0|0:0,0:0:0:0:
178,208,41875,5,0,0:0:0:0:
221,258,41961,2,0,L|216:322,1,65,0|8,0:0|0:0,0:0:0:0:
23,349,42134,5,0,0:0:0:0:
23,349,42220,2,0,L|28:285,1,65,0|0,0:0|0:0,0:0:0:0:
413,231,42392,6,0,L|408:295,1,65,2|0,0:0|0:0,0:0:0:0:
215,322,42565,2,0,L|220:258,1,65,2|0,0:0|0:0,0:0:0:0:
349,123,42737,5,8,0:0:0:0:
46,92,42910,6,0,L|210:79,1,130,2|2,0:0|0:0,0:0:0:0:
285,199,43168,2,0,P|226:171|139:223,1,130,2|0,0:0|0:0,0:0:0:0:
478,214,43427,6,0,L|396:207,1,65,10|0,0:0|0:0,0:0:0:0:
239,321,43599,2,0,P|298:293|385:345,1,130,0|2,0:0|0:0,0:0:0:0:
125,271,43944,5,2,0:3:0:0:
175,81,44030,1,0,0:0:0:0:
135,287,44203,5,0,0:0:0:0:
15,203,44289,2,0,L|97:196,1,65,2|0,0:3|0:0,0:0:0:0:
326,98,44461,6,0,L|244:91,1,65,2|0,0:0|0:0,0:0:0:0:
0,117,44634,5,0,0:0:0:0:
59,46,44720,1,0,0:0:0:0:
87,132,44806,6,0,L|80:214,1,65,8|0,0:0|0:0,0:0:0:0:
255,157,44979,2,0,L|262:75,1,65,0|0,0:0|0:0,0:0:0:0:
135,287,45151,6,0,L|128:369,1,65,2|0,0:0|0:0,0:0:0:0:
303,312,45324,2,0,L|310:230,1,65,2|0,0:0|0:0,0:0:0:0:
36,290,45496,5,8,0:0:0:0:
402,309,45668,1,2,0:0:0:0:
153,72,45841,5,2,3:0:0:0:
204,2,45927,2,0,L|285:9,1,65,0|0,0:0|3:0,0:0:0:0:
489,167,46099,2,0,L|359:178,1,130,0|0,3:0|0:0,0:0:0:0:
271,166,46358,5,0,3:0:0:0:
271,166,46415,2,0,L|279:121,2,43.3333333333333,0|0|2,0:0|0:0|3:0,0:0:0:0:
183,349,46703,5,2,0:0:0:0:
183,349,46875,1,4,0:0:0:0:
393,321,47220,6,0,P|434:277|486:375,1,195,4|0,0:0|0:0,0:0:0:0:
296,376,47565,2,0,L|312:196,1,130,0|0,0:0|0:0,0:0:0:0:
432,187,47824,1,0,0:0:0:0:
481,145,47910,2,0,L|391:137,1,65,2|0,0:0|0:0,0:0:0:0:
286,127,48082,2,0,L|196:119,1,65,0|0,3:0|0:0,0:0:0:0:
91,109,48255,1,0,0:0:0:0:
42,151,48341,1,0,0:0:0:0:
152,296,48513,1,2,0:0:0:0:
201,338,48599,6,0,L|217:158,1,130,2|0,0:0|0:3,0:0:0:0:
42,151,48944,2,0,L|26:331,1,130,2|0,0:0|0:3,0:0:0:0:
353,139,49289,5,2,0:0:0:0:
343,108,49375,1,0,0:0:0:0:
333,77,49461,1,2,0:0:0:0:
323,108,49548,1,2,0:0:0:0:
313,139,49634,5,2,0:0:0:0:
281,141,49720,1,0,0:0:0:0:
250,135,49806,1,0,0:0:0:0:
221,121,49893,1,2,0:0:0:0:
198,98,49979,6,0,L|288:106,1,65,2|0,0:0|0:0,0:0:0:0:
337,263,50151,1,0,3:0:0:0:
272,268,50237,1,0,0:0:0:0:
207,273,50324,6,0,L|215:183,1,65,0|0,0:0|0:0,0:0:0:0:
438,153,50496,2,0,L|446:243,1,65,0|0,0:0|0:0,0:0:0:0:
491,345,50668,5,0,3:0:0:0:
491,345,50755,1,0,0:0:0:0:
491,345,50841,1,0,3:0:0:0:
212,208,51013,5,0,0:0:0:0:
207,273,51099,1,0,0:0:0:0:
438,153,51272,5,2,0:0:0:0:
443,88,51358,2,0,L|263:72,1,130,2|0,0:0|0:0,0:0:0:0:
82,219,51703,2,0,L|262:203,1,130,2|0,0:0|0:0,0:0:0:0:
491,345,52048,5,2,0:0:0:0:
426,340,52134,1,0,0:0:0:0:
361,335,52220,1,0,3:0:0:0:
13,135,52392,6,0,L|103:127,1,65,0|0,3:0|0:0,0:0:0:0:
162,288,52565,5,2,3:0:0:0:
82,219,52651,1,0,0:0:0:0:
62,321,52737,6,0,P|183:311|163:172,1,260,2|0,0:0|0:0,0:0:0:0:
77,129,53255,1,0,0:0:0:0:
301,247,53427,1,2,3:0:0:0:
331,249,53513,1,0,0:0:0:0:
363,252,53599,1,0,3:0:0:0:
62,321,53772,5,0,0:0:0:0:
82,219,53858,1,0,0:0:0:0:
383,150,54030,5,2,0:0:0:0:
363,252,54117,2,0,L|266:245,1,65,0|0,3:0|0:0,0:0:0:0:
404,51,54289,2,0,L|501:58,1,65,0|0,0:0|0:0,0:0:0:0:
512,348,54461,5,2,0:0:0:0:
183,129,54634,6,0,L|190:226,1,65,0|0,3:0|0:0,0:0:0:0:
434,304,54806,1,2,0:0:0:0:
372,361,54892,1,0,0:0:0:0:
302,312,54979,2,0,L|295:215,1,65,0|0,0:0|0:0,0:0:0:0:
383,150,55151,5,2,0:0:0:0:
445,207,55237,1,0,0:0:0:0:
116,341,55410,5,0,0:0:0:0:
178,284,55496,2,0,P|113:259|44:297,1,130,2|0,0:0|3:0,0:0:0:0:
238,347,55755,2,0,P|263:282|225:213,1,130,0|0,0:0|0:0,0:0:0:0:
180,170,56013,2,0,P|245:145|314:183,1,130,0|0,0:0|3:0,0:0:0:0:
120,233,56272,2,0,P|95:168|133:99,1,130,0|0,0:0|0:0,0:0:0:0:
326,247,56530,1,2,0:0:0:0:
30,38,56703,5,0,0:0:0:0:
119,24,56789,1,2,0:0:0:0:
208,10,56875,6,0,B|250:78|250:78|287:44,1,130,4|0,0:0|0:0,0:0:0:0:
372,10,57134,2,0,P|437:9|456:68,1,130,4|0,0:0|0:0,0:0:0:0:
358,139,57392,2,0,L|372:6,1,130,4|0,0:0|0:0,0:0:0:0:
457,62,57651,1,0,0:0:0:0:
482,142,57737,6,0,L|490:193,1,32.5,10|0,0:0|0:0,0:0:0:0:
464,178,57824,2,0,L|472:229,1,32.5,8|0,0:0|0:0,0:0:0:0:
446,214,57910,6,0,B|386:256|386:256|264:186,1,195,8|0,0:0|0:0,0:0:0:0:
204,143,58255,5,2,0:0:0:0:
228,271,58341,1,0,0:0:0:0:
152,219,58427,1,0,0:0:0:0:
280,195,58513,1,0,0:0:0:0:
74,129,58599,6,0,L|60:262,1,130,8|0,0:0|0:0,0:0:0:0:
330,356,58858,1,0,0:0:0:0:
293,324,58944,6,0,L|279:191,1,130,2|0,0:0|0:0,0:0:0:0:
53,33,59203,1,0,0:0:0:0:
85,70,59289,6,0,L|151:77,1,65,8|0,0:0|0:0,0:0:0:0:
268,136,59461,2,0,L|201:143,1,65,0|0,0:0|0:0,0:0:0:0:
60,258,59634,5,2,0:0:0:0:
112,179,59720,2,0,P|150:236|141:305,1,130,0|0,0:0|0:0,0:0:0:0:
93,370,59979,2,0,L|160:377,1,65,8|0,0:0|0:0,0:0:0:0:
429,257,60151,1,0,0:0:0:0:
476,322,60237,6,0,P|446:337|404:331,1,65,0|2,0:0|0:0,0:0:0:0:
382,192,60410,2,0,P|426:178|497:216,1,130,0|0,0:0|0:0,0:0:0:0:
341,273,60668,5,8,0:0:0:0:
496,215,60755,1,0,0:0:0:0:
308,136,60841,2,0,L|301:71,2,65,0|0|2,0:0|0:0|0:0,0:0:0:0:
341,273,61186,5,0,0:0:0:0:
496,215,61358,1,8,0:0:0:0:
341,273,61530,1,0,0:0:0:0:
441,13,61703,6,0,L|434:78,1,65,2|0,0:0|0:0,0:0:0:0:
308,136,61875,2,0,L|301:71,1,65,0|0,0:0|0:0,0:0:0:0:
189,27,62048,5,8,0:0:0:0:
34,85,62220,1,0,0:0:0:0:
203,298,62392,5,2,0:0:0:0:
145,143,62564,1,0,0:0:0:0:
416,129,62737,5,8,0:0:0:0:
261,187,62909,1,0,0:0:0:0:
48,240,63082,5,2,0:0:0:0:
125,269,63168,1,2,0:0:0:0:
203,298,63255,2,0,L|183:375,1,65,0|0,0:0|0:0,0:0:0:0:
261,187,63427,5,2,0:0:0:0:
316,122,63513,1,2,0:0:0:0:
345,202,63599,2,0,L|325:279,1,65,2|0,0:0|0:0,0:0:0:0:
84,69,63772,5,6,0:0:0:0:
174,60,63858,1,0,0:0:0:0:
264,51,63944,1,0,0:0:0:0:
354,42,64030,1,0,0:0:0:0:
487,106,64117,6,0,L|447:260,1,130,8|0,0:0|0:0,0:0:0:0:
286,289,64375,1,0,0:0:0:0:
328,264,64461,6,0,L|368:110,1,130,2|0,0:0|0:0,0:0:0:0:
454,231,64720,1,0,0:0:0:0:
497,257,64806,6,0,L|477:334,1,65,8|0,0:0|0:0,0:0:0:0:
386,359,64979,2,0,L|406:282,1,65,0|0,0:0|0:0,0:0:0:0:
268,160,65151,5,2,0:0:0:0:
360,138,65237,2,0,P|321:83|235:72,1,130,0|2,0:0|0:0,0:0:0:0:
185,115,65496,2,0,L|165:192,1,65,8|0,0:0|0:0,0:0:0:0:
402,296,65668,5,2,0:0:0:0:
319,251,65755,2,0,L|299:328,1,65,0|2,0:0|0:0,0:0:0:0:
497,257,65927,2,0,L|459:113,1,130,0|2,0:0|0:0,0:0:0:0:
409,49,66186,5,8,0:0:0:0:
319,251,66272,1,0,0:0:0:0:
268,160,66358,2,0,L|340:141,1,65,2|0,0:0|0:0,0:0:0:0:
202,330,66530,6,0,P|139:319|95:272,1,130,4|0,0:0|0:0,0:0:0:0:
62,184,66789,2,0,P|15:227|5:292,1,130,4|0,0:0|0:0,0:0:0:0:
152,203,67048,2,0,L|172:126,1,65,0|0,0:0|0:0,0:0:0:0:
89,1,67220,5,4,0:0:0:0:
16,41,67306,2,0,L|36:118,1,65,0|0,0:0|0:0,0:0:0:0:
305,116,67479,2,0,P|261:69|198:58,1,130,4|0,0:0|0:0,0:0:0:0:
373,184,67737,2,0,L|393:107,1,65,0|0,1:0|0:0,0:0:0:0:
480,22,67910,5,0,0:0:0:0:
489,54,67996,1,0,0:0:0:0:
457,63,68082,1,0,0:0:0:0:
448,31,68168,5,6,0:0:0:0:
480,22,68255,1,0,0:0:0:0:
489,54,68341,1,0,0:0:0:0:
483,142,68427,5,4,0:0:0:0:
474,174,68513,1,0,0:0:0:0:
480,262,68599,6,0,L|496:324,1,65,4|0,0:0|0:0,0:0:0:0:
496,324,68772,2,0,L|433:340,1,65,4|0,0:0|0:0,0:0:0:0:
433,340,68944,2,0,L|417:277,1,65,4|0,3:0|0:0,0:0:0:0:
141,87,69289,6,0,L|288:67,1,130,4|0,3:0|0:0,0:0:0:0:
62,168,69634,2,0,L|42:21,1,130,0|0,0:0|3:0,0:0:0:0:
143,247,69979,2,0,L|-4:267,1,130,0|0,0:0|0:0,0:0:0:0:
222,166,70324,5,0,3:0:0:0:
222,166,70496,1,0,0:0:0:0:
62,168,70668,5,0,0:0:0:0:
62,168,70840,1,0,3:0:0:0:
141,87,71013,5,0,0:0:0:0:
141,87,71185,1,0,0:0:0:0:
143,247,71358,5,0,3:0:0:0:
143,247,71530,1,0,0:0:0:0:
142,165,71703,6,0,L|142:114,4,43.3333333333333,0|0|0|0|0,3:0|0:0|0:0|0:0|0:0,0:0:0:0:
144,329,72048,5,0,3:0:0:0:
389,223,72220,1,0,0:0:0:0:
299,141,72392,6,0,L|272:314,1,130,0|0,0:0|3:0,0:0:0:0:
354,334,72737,2,0,L|517:270,1,130,0|0,0:0|0:0,0:0:0:0:
493,189,73082,6,0,L|424:134,1,65,0|0,3:0|0:0,0:0:0:0:
442,148,73255,2,0,L|373:93,1,65,0|0,0:0|0:0,0:0:0:0:
389,223,73427,5,0,0:0:0:0:
389,223,73599,1,0,3:0:0:0:
299,141,73772,5,0,0:0:0:0:
391,107,73944,1,0,0:0:0:0:
354,334,74117,5,0,3:0:0:0:
278,269,74289,1,0,0:0:0:0:
493,189,74461,6,0,L|502:142,2,32.5,0|0|0,3:0|0:0|0:0,0:0:0:0:
475,287,74634,2,0,L|466:333,2,32.5,0|0|0,0:0|0:0|0:0,0:0:0:0:
389,223,74806,5,0,3:0:0:0:
389,223,74978,1,2,0:0:0:0:
399,49,75151,5,0,0:0:0:0:
402,76,75238,1,0,0:0:0:0:
405,103,75324,1,0,3:0:0:0:
141,76,75496,6,0,L|449:44,1,260,2|0,0:0|3:0,0:0:0:0:
53,121,76013,2,0,L|361:89,1,260,0|0,0:0|3:0,0:0:0:0:
118,250,76530,5,0,0:0:0:0:
121,223,76617,1,0,0:0:0:0:
124,196,76703,1,0,0:0:0:0:
377,277,76875,6,0,L|69:245,1,260,0|0,3:0|3:0,0:0:0:0:
465,322,77392,1,0,0:0:0:0:
311,94,77565,6,0,L|303:171,1,65,2|0,3:0|0:0,0:0:0:0:
465,322,77737,2,0,L|473:245,1,65,0|0,0:0|0:0,0:0:0:0:
508,131,77910,6,0,P|472:127|434:140,1,65,0|0,0:0|0:0,0:0:0:0:
340,245,78082,2,0,P|308:252|276:248,1,65,0|0,0:0|0:0,0:0:0:0:
132,162,78255,6,0,P|163:111|216:137,1,130,0|0,0:0|0:0,0:0:0:0:
66,39,78513,1,0,0:0:0:0:
123,32,78599,6,0,L|200:24,1,65,0|0,0:0|0:0,0:0:0:0:
10,175,78772,1,0,0:0:0:0:
67,168,78858,6,0,L|144:160,1,65,0|2,0:0|0:0,0:0:0:0:
11,304,79030,1,0,0:0:0:0:
11,304,79117,6,0,L|251:279,1,195,0|2,0:0|0:0,0:0:0:0:
123,32,79548,1,2,0:0:0:0:
11,304,79720,1,2,0:0:0:0:
59,298,79806,1,2,0:0:0:0:
107,292,79892,1,2,0:0:0:0:
204,283,79979,5,2,0:0:0:0:
439,35,80324,6,0,L|451:122,1,65,2|0,0:0|0:0,0:0:0:0:
308,215,80496,2,0,L|296:128,1,65,0|0,0:0|0:0,0:0:0:0:
452,45,80668,6,0,L|448:132,1,65,8|0,0:0|0:0,0:0:0:0:
290,203,80840,2,0,L|293:115,1,65,0|0,0:0|0:0,0:0:0:0:
498,220,81013,5,2,0:0:0:0:
478,311,81099,1,0,0:0:0:0:
387,292,81186,1,0,0:0:0:0:
406,201,81272,1,0,0:0:0:0:
415,384,81358,6,0,L|340:369,1,65,8|0,0:0|0:0,0:0:0:0:
268,354,81530,2,0,L|193:339,1,65,2|0,3:0|0:0,0:0:0:0:
121,324,81703,6,0,P|64:323|44:257,1,130,2|0,0:0|0:0,0:0:0:0:
97,193,81961,2,0,P|158:197|175:256,1,130,2|0,0:0|0:0,0:0:0:0:
14,183,82220,2,0,L|27:84,1,65,2|0,0:0|0:0,0:0:0:0:
142,97,82392,6,0,L|241:110,1,65,2|0,0:0|0:0,0:0:0:0:
228,225,82565,2,0,L|215:324,1,65,2|0,0:0|0:0,0:0:0:0:
100,311,82737,2,0,L|1:298,1,65,8|0,0:0|0:0,0:0:0:0:
14,183,82910,2,0,L|27:84,1,65,2|0,0:0|0:0,0:0:0:0:
215,41,83082,6,0,L|203:128,1,65,2|0,0:0|0:0,0:0:0:0:
346,221,83254,2,0,L|358:134,1,65,0|0,0:0|0:0,0:0:0:0:
202,51,83426,6,0,L|206:138,1,65,8|0,0:0|0:0,0:0:0:0:
364,209,83599,2,0,L|361:121,1,65,0|0,0:0|0:0,0:0:0:0:
44,231,83772,5,2,0:0:0:0:
102,301,83858,1,0,0:0:0:0:
190,326,83944,1,0,0:0:0:0:
278,302,84030,1,0,0:0:0:0:
361,144,84117,6,0,L|298:157,1,65,8|0,0:0|0:0,0:0:0:0:
420,61,84289,2,0,L|357:48,1,65,2|0,3:0|0:0,0:0:0:0:
66,28,84461,6,0,L|51:103,1,65,2|0,0:0|0:0,0:0:0:0:
216,178,84634,1,0,0:0:0:0:
216,178,84720,2,0,L|201:103,1,65,2|8,0:0|0:0,0:0:0:0:
31,204,84892,1,0,0:0:0:0:
31,204,84979,2,0,L|16:279,1,65,2|0,0:0|0:0,0:0:0:0:
246,359,85151,6,0,L|321:344,1,65,2|0,0:0|0:0,0:0:0:0:
436,200,85324,2,0,L|393:151,1,65,2|0,0:0|0:0,0:0:0:0:
203,114,85496,5,8,0:0:0:0:
182,175,85583,1,0,0:0:0:0:
161,236,85668,1,2,0:0:0:0:
436,200,85841,6,0,L|448:287,1,65,6|0,0:0|0:0,0:0:0:0:
308,196,86013,2,0,L|296:109,1,65,0|0,0:0|0:0,0:0:0:0:
449,210,86185,6,0,L|445:297,1,65,8|0,0:0|0:0,0:0:0:0:
290,184,86358,2,0,L|293:96,1,65,0|0,0:0|0:0,0:0:0:0:
421,33,86530,5,2,0:0:0:0:
512,26,86617,1,0,0:0:0:0:
472,107,86703,1,0,0:0:0:0:
381,114,86790,1,0,0:0:0:0:
215,50,86875,6,0,L|200:125,1,65,8|0,0:0|0:0,0:0:0:0:
185,197,87047,2,0,L|170:272,1,65,2|2,3:0|3:0,0:0:0:0:
289,346,87220,6,0,P|348:348|412:299,1,130,2|0,0:0|0:0,0:0:0:0:
269,337,87479,2,0,P|210:335|146:384,1,130,2|0,0:0|0:0,0:0:0:0:
326,266,87737,2,0,L|311:191,1,65,2|0,0:0|0:0,0:0:0:0:
215,50,87910,6,0,L|200:125,1,65,2|0,0:0|0:0,0:0:0:0:
7,202,88082,6,0,L|43:269,1,65,2|0,0:0|0:0,0:0:0:0:
98,108,88255,2,0,L|109:183,1,65,8|0,0:0|0:0,0:0:0:0:
326,266,88427,2,0,L|311:191,1,65,2|0,0:0|0:0,0:0:0:0:
58,380,88599,6,0,L|121:367,1,65,2|0,0:0|0:0,0:0:0:0:
205,349,88772,2,0,L|268:336,1,65,0|0,0:0|0:0,0:0:0:0:
460,233,88944,6,0,L|396:220,1,65,8|0,0:0|0:0,0:0:0:0:
313,202,89117,2,0,L|249:189,1,65,0|0,0:0|0:0,0:0:0:0:
58,86,89289,5,2,0:0:0:0:
121,73,89375,1,0,0:0:0:0:
205,55,89461,1,0,0:0:0:0:
268,42,89547,1,0,0:0:0:0:
352,24,89634,6,0,L|365:88,1,65,8|0,0:0|0:0,0:0:0:0:
236,252,89806,2,0,L|249:188,1,65,2|0,3:0|0:0,0:0:0:0:
508,358,89979,6,0,P|480:366|437:344,1,65,2|0,0:0|0:0,0:0:0:0:
377,305,90151,1,0,0:0:0:0:
377,305,90237,2,0,P|347:293|316:302,1,65,2|8,0:0|0:0,0:0:0:0:
205,372,90410,1,0,0:0:0:0:
205,372,90496,2,0,P|176:383|145:376,1,65,2|0,0:0|0:0,0:0:0:0:
63,325,90668,6,0,L|50:261,1,65,2|0,0:0|0:0,0:0:0:0:
215,50,90841,2,0,L|228:114,1,65,2|2,0:0|0:0,0:0:0:0:
464,279,91013,5,10,0:0:0:0:
442,368,91099,1,2,0:0:0:0:
377,305,91186,1,2,0:0:0:0:
215,50,91358,6,0,L|290:35,1,65,6|0,0:0|0:0,0:0:0:0:
460,117,91531,2,0,L|385:102,1,65,0|0,0:0|0:0,0:0:0:0:
166,245,91703,6,0,L|241:230,1,65,8|0,0:0|0:0,0:0:0:0:
477,319,91876,2,0,L|402:304,1,65,0|0,0:0|0:0,0:0:0:0:
96,308,92048,5,2,0:0:0:0:
78,271,92134,1,0,0:0:0:0:
75,231,92220,1,0,0:0:0:0:
88,192,92306,1,0,0:0:0:0:
229,232,92392,6,0,L|166:245,1,65,8|0,0:0|0:0,0:0:0:0:
383,202,92565,2,0,L|319:214,1,65,2|2,3:0|3:0,0:0:0:0:
96,308,92737,6,0,P|76:246|96:181,1,130,2|0,0:0|0:0,0:0:0:0:
163,122,92996,2,0,P|183:184|163:249,1,130,2|0,0:0|0:0,0:0:0:0:
79,92,93255,2,0,L|91:28,1,65,2|0,0:0|0:0,0:0:0:0:
289,297,93427,6,0,L|277:361,1,65,2|0,0:0|0:0,0:0:0:0:
298,166,93599,2,0,L|310:102,1,65,0|0,3:0|3:0,0:0:0:0:
422,248,93772,6,0,L|359:236,1,65,2|0,3:2|3:0,0:0:0:0:
164,215,93944,2,0,L|228:227,1,65,2|0,3:2|3:0,0:0:0:0:
507,370,94117,6,0,L|495:306,1,65,2|0,0:0|0:0,0:0:0:0:
321,38,94289,2,0,L|309:102,1,65,0|0,0:0|0:0,0:0:0:0:
135,370,94461,6,0,L|123:306,1,65,8|0,0:0|0:0,0:0:0:0:
42,204,94634,2,0,L|30:268,1,65,0|0,0:0|0:0,0:0:0:0:
239,363,94806,5,2,0:0:0:0:
277,360,94892,1,0,0:0:0:0:
313,346,94979,1,0,0:0:0:0:
341,320,95065,1,0,0:0:0:0:
278,212,95151,6,0,L|266:276,1,65,8|0,0:0|0:0,0:0:0:0:
433,184,95324,2,0,L|421:248,1,65,2|0,3:0|0:0,0:0:0:0:
166,66,95496,6,0,L|154:130,1,65,2|0,0:0|0:0,0:0:0:0:
30,267,95668,1,0,0:0:0:0:
30,267,95755,2,0,L|42:203,1,65,2|8,0:0|0:0,0:0:0:0:
321,38,95926,1,0,0:0:0:0:
321,38,96013,2,0,L|309:102,1,65,2|0,0:0|0:0,0:0:0:0:
369,293,96186,5,2,0:0:0:0:
393,322,96272,1,0,0:0:0:0:
422,297,96358,1,2,0:0:0:0:
397,268,96444,1,2,0:0:0:0:
369,293,96530,5,2,0:0:0:0:
393,322,96617,1,2,0:0:0:0:
422,297,96703,2,0,L|460:292,1,32.5,2|0,0:0|0:0,0:0:0:0:
397,268,96789,2,0,L|359:273,1,32.5,2|0,0:0|0:0,0:0:0:0:
278,339,96875,6,0,L|266:275,1,65,6|0,0:0|0:0,0:0:0:0:
453,94,97048,2,0,L|441:158,1,65,0|0,0:0|0:0,0:0:0:0:
260,318,97220,6,0,L|259:252,1,65,8|0,0:0|0:0,0:0:0:0:
474,107,97393,2,0,L|451:167,1,65,0|0,0:0|0:0,0:0:0:0:
120,92,97565,5,2,0:0:0:0:
194,39,97651,1,0,0:0:0:0:
282,21,97737,1,0,0:0:0:0:
371,40,97824,1,0,0:0:0:0:
451,167,97910,6,0,L|386:156,1,65,8|0,0:0|0:0,0:0:0:0:
297,139,98082,2,0,L|232:128,1,65,2|2,3:0|3:0,0:0:0:0:
52,225,98255,6,0,P|112:232|179:194,1,130,2|0,0:0|0:0,0:0:0:0:
40,244,98513,2,0,P|93:271|169:258,1,130,2|0,0:0|0:0,0:0:0:0:
28,262,98772,2,0,P|48:283|86:290,1,65,2|0,0:0|0:0,0:0:0:0:
108,85,98944,6,0,L|97:178,1,65,2|0,0:0|0:0,0:0:0:0:
256,360,99117,6,0,L|245:267,1,65,2|0,0:0|0:0,0:0:0:0:
343,275,99289,2,0,L|300:191,1,65,2|2,0:0|0:0,0:0:0:0:
28,262,99461,2,0,L|17:355,1,65,2|2,0:0|0:0,0:0:0:0:
263,142,99634,6,0,L|170:131,1,65,2|0,0:0|0:0,0:0:0:0:
43,77,99806,2,0,L|136:88,1,65,0|0,0:0|0:0,0:0:0:0:
240,261,99979,6,0,L|147:272,1,65,8|0,0:0|0:0,0:0:0:0:
20,326,100151,2,0,L|113:315,1,65,0|0,0:0|0:0,0:0:0:0:
455,359,100324,5,2,0:0:0:0:
446,275,100410,1,0,0:0:0:0:
437,191,100496,1,0,0:0:0:0:
428,107,100582,1,0,0:0:0:0:
375,39,100668,6,0,P|404:23|457:30,1,65,8|0,0:0|0:0,0:0:0:0:
497,173,100841,2,0,P|468:189|415:182,1,65,2|0,3:0|0:0,0:0:0:0:
193,182,101013,6,0,L|218:23,1,130,6|0,0:0|0:0,0:0:0:0:
294,120,101272,2,0,L|319:279,1,130,6|0,0:0|0:0,0:0:0:0:
102,289,101530,2,0,L|114:209,1,65,6|0,0:0|0:0,0:0:0:0:
331,341,101703,5,2,0:0:0:0:
399,281,101789,1,2,0:0:0:0:
314,248,101875,2,0,L|234:260,1,65,2|0,0:0|0:0,0:0:0:0:
117,50,102048,5,2,0:0:0:0:
49,110,102134,1,2,0:0:0:0:
133,143,102220,2,0,L|213:131,1,65,2|0,0:0|0:0,0:0:0:0:
413,60,102392,6,0,L|425:140,1,65,4|0,0:0|0:0,0:0:0:0:
252,50,102565,1,0,0:0:0:0:
252,50,102651,2,0,L|316:40,1,65,0|8,0:0|0:0,0:0:0:0:
463,215,102824,1,0,0:0:0:0:
443,217,102910,1,0,0:0:0:0:
423,219,102996,1,0,0:0:0:0:
403,221,103082,2,0,L|323:233,1,65,2|0,0:0|0:0,0:0:0:0:
232,146,103255,2,0,L|242:211,1,65,0|0,0:0|0:0,0:0:0:0:
329,137,103427,5,8,0:0:0:0:
329,137,103513,1,0,0:0:0:0:
125,317,103686,5,0,0:0:0:0:
125,317,103772,1,2,0:0:0:0:
241,210,103944,1,0,0:0:0:0:
221,208,104030,1,0,0:0:0:0:
201,206,104117,2,0,L|121:218,2,65,8|0|0,0:0|0:0|0:0,0:0:0:0:
413,60,104461,2,0,L|493:72,2,65,2|0|0,0:0|0:0|0:0,0:0:0:0:
65,25,104806,5,8,0:0:0:0:
65,25,104892,1,0,0:0:0:0:
315,343,105065,5,2,0:0:0:0:
335,341,105151,1,2,0:0:0:0:
355,339,105237,1,0,0:0:0:0:
375,337,105324,1,0,0:0:0:0:
395,335,105410,1,0,0:0:0:0:
136,215,105582,1,0,0:0:0:0:
136,215,105668,1,0,0:0:0:0:
315,87,105841,1,2,0:0:0:0:
315,87,105927,1,0,0:0:0:0:
315,87,106013,1,0,0:0:0:0:
395,335,106186,5,8,0:0:0:0:
395,335,106272,1,0,0:0:0:0:
323,242,106444,5,0,0:0:0:0:
323,242,106530,1,2,0:0:0:0:
416,170,106703,1,0,0:0:0:0:
488,263,106875,1,8,0:0:0:0:
395,335,107048,1,0,0:0:0:0:
189,142,107220,5,2,0:0:0:0:
208,145,107306,1,0,0:0:0:0:
227,148,107392,1,0,0:0:0:0:
395,335,107565,5,8,0:0:0:0:
376,338,107651,1,0,0:0:0:0:
78,338,107824,6,0,L|99:193,1,130,10|0,0:0|0:0,0:0:0:0:
189,142,108082,2,0,L|199:214,1,65,0|0,0:0|0:0,0:0:0:0:
5,88,108255,6,0,L|150:67,1,130,8|0,0:0|0:0,0:0:0:0:
254,317,108599,5,2,0:0:0:0:
235,314,108685,1,0,0:0:0:0:
216,311,108771,1,0,0:0:0:0:
77,212,108944,5,8,0:0:0:0:
96,209,109030,1,0,0:0:0:0:
434,338,109203,6,0,L|413:193,1,130,0|0,0:0|0:0,0:0:0:0:
323,142,109461,2,0,L|313:214,1,65,0|0,0:0|0:0,0:0:0:0:
507,88,109634,6,0,L|362:67,1,130,8|0,0:0|0:0,0:0:0:0:
258,317,109978,5,2,0:0:0:0:
277,314,110064,1,0,0:0:0:0:
296,311,110150,1,0,0:0:0:0:
435,212,110323,5,8,0:0:0:0:
416,209,110409,1,0,0:0:0:0:
82,45,110582,5,2,0:0:0:0:
79,64,110668,1,2,0:0:0:0:
162,101,110841,1,0,0:0:0:0:
245,64,111013,1,8,0:0:0:0:
328,101,111186,1,0,0:0:0:0:
79,64,111358,5,2,0:0:0:0:
328,101,111530,1,2,0:0:0:0:
202,85,111703,5,2,0:0:0:0:
200,97,111789,1,2,0:0:0:0:
198,109,111875,1,0,0:0:0:0:
196,121,111961,1,2,0:0:0:0:
184,206,112048,6,0,L|287:189,1,65,4|0,0:0|0:0,0:0:0:0:
163,232,112306,2,0,L|266:215,1,65,4|0,0:0|0:0,0:0:0:0:
142,258,112565,2,0,L|245:241,1,65,4|0,0:0|0:0,0:0:0:0:
470,344,112737,6,0,B|408:303|408:303|319:374|319:374|265:325,1,260,2|2,0:0|0:0,0:0:0:0:
482,211,113341,6,0,L|487:264,1,32.5,2|0,3:0|0:0,0:0:0:0:
