osu file format v14

[General]
AudioFilename: audio.mp3
AudioLeadIn: 0
PreviewTime: 77565
Countdown: 0
SampleSet: Soft
StackLeniency: 0.6
Mode: 0
LetterboxInBreaks: 0
WidescreenStoryboard: 1

[Editor]
DistanceSpacing: 1.3
BeatDivisor: 4
GridSize: 32
TimelineZoom: 4.199999

[Metadata]
Title:polygon
TitleUnicode:polygon
Artist:Sota Fujimori
ArtistUnicode:Sota Fujimori
Creator:Kaifin
Version:Easy
Source:jubeat copious
Tags:REFLEC BEAT colette autumn fanzhen0019 bonzi revurii xlolicore-
BeatmapID:1200235
BeatmapSetID:559097

[Difficulty]
HPDrainRate:2
CircleSize:2
OverallDifficulty:2
ApproachRate:2
SliderMultiplier:0.799999999999999
SliderTickRate:1

[Events]
//Background and Video events
0,0,"polygonbg1080.png",0,0
//Break Periods
2,69489,76005
//Storyboard Layer 0 (Background)
//Storyboard Layer 1 (Fail)
//Storyboard Layer 2 (Pass)
//Storyboard Layer 3 (Foreground)
//Storyboard Sound Samples

[TimingPoints]
324,344.827586206897,4,3,0,70,1,0
2737,-100,4,3,2,50,0,0
3082,-100,4,2,1,70,0,0
20496,-100,4,2,0,70,0,0
20582,-100,4,2,1,70,0,0
20841,-100,4,2,0,70,0,0
20927,-100,4,2,1,70,0,0
21186,-100,4,2,0,70,0,0
21272,-100,4,2,1,70,0,0
21530,-100,4,2,0,70,0,0
21617,-100,4,2,1,70,0,0
22479,-100,4,2,0,70,0,0
23082,-100,4,2,1,70,0,0
23168,-100,4,2,0,70,0,0
23513,-100,4,2,1,70,0,0
35496,-100,4,2,1,40,0,0
35668,-100,4,2,1,55,0,0
35755,-100,4,2,1,70,0,0
36186,-100,4,2,1,70,0,1
37048,-100,4,2,1,70,0,1
38944,-100,4,2,1,70,0,1
39806,-100,4,2,8,70,0,1
39979,-100,4,2,1,70,0,1
40065,-100,4,2,8,70,0,1
40324,-100,4,2,1,70,0,1
40410,-100,4,2,8,70,0,1
40668,-100,4,2,1,70,0,1
40841,-100,4,2,8,70,0,1
41013,-100,4,2,1,70,0,1
42479,-100,4,2,8,70,0,1
42651,-100,4,2,1,70,0,1
42824,-100,4,2,8,70,0,1
43082,-100,4,2,1,70,0,1
43168,-100,4,2,8,70,0,1
43427,-100,4,2,1,70,0,1
43513,-100,4,2,8,70,0,1
44117,-100,4,2,1,70,0,1
45237,-100,4,2,8,70,0,1
45410,-100,4,2,1,70,0,1
45582,-100,4,2,8,70,0,1
45755,-100,4,2,1,70,0,1
47220,-100,4,2,1,70,0,0
49375,-100,4,2,8,70,0,0
49634,-100,4,2,1,70,0,0
49720,-100,4,2,8,70,0,0
49979,-100,4,2,1,70,0,0
52134,-100,4,2,8,70,0,0
52565,-100,4,2,1,70,0,0
54892,-100,4,2,8,70,0,0
55151,-100,4,2,1,70,0,0
55237,-100,4,2,8,70,0,0
55496,-100,4,2,1,70,0,0
68599,-100,4,2,1,50,0,0
68944,-100,4,2,1,70,0,0
69289,-100,4,2,8,40,0,0
79720,-100,4,2,1,75,0,0
80324,-100,4,2,1,75,0,1
81703,-100,4,2,1,75,0,1
83082,-100,4,2,1,75,0,1
84461,-100,4,2,1,75,0,1
85496,-100,4,2,1,75,0,1
87220,-100,4,2,1,75,0,1
88599,-100,4,2,1,75,0,1
89979,-100,4,2,1,75,0,1
90841,-100,4,2,1,75,0,1
92737,-100,4,2,1,75,0,1
94117,-100,4,2,1,75,0,1
95496,-100,4,2,1,75,0,1
96703,-100,4,2,1,75,0,1
98255,-100,4,2,1,75,0,1
99634,-100,4,2,1,75,0,1
102392,-100,4,2,1,70,0,0

[Colours]
Combo1 : 255,136,255
Combo2 : 255,155,106
Combo3 : 100,170,255
Combo4 : 243,56,84

[HitObjects]
256,192,324,12,0,1703,0:0:0:0:
75,314,3082,6,0,L|168:303,1,79.9999999999999,6|8,0:0|0:0,0:0:0:0:
257,290,3772,2,0,L|350:279,1,79.9999999999999,2|8,0:0|0:0,0:0:0:0:
439,269,4461,2,0,L|448:348,2,79.9999999999999,2|8|2,3:1|0:0|0:0,0:0:0:0:
480,172,5496,1,8,0:0:0:0:
439,75,5841,6,0,L|346:86,1,79.9999999999999,2|8,0:0|0:0,0:0:0:0:
257,99,6531,2,0,L|164:110,1,79.9999999999999,2|8,0:0|0:0,0:0:0:0:
75,120,7220,2,0,L|65:40,2,79.9999999999999,2|8|2,3:1|0:0|0:0,0:0:0:0:
34,217,8255,1,8,0:0:0:0:
75,314,8599,6,0,P|121:313|175:291,1,79.9999999999999,2|8,0:0|0:0,0:0:0:0:
236,239,9289,2,0,P|274:228|314:228,1,79.9999999999999,2|8,0:0|0:0,0:0:0:0:
413,260,9979,2,0,L|423:157,2,79.9999999999999,2|8|2,3:1|0:0|0:0,0:0:0:0:
336,330,11013,1,8,0:0:0:0:
314,228,11358,6,0,L|328:68,1,160,2|2,0:0|0:0,0:0:0:0:
232,27,12392,1,8,0:0:0:0:
191,123,12737,2,0,L|184:199,2,59.9999999999999,4|4|4,0:0|0:0|0:0,0:0:0:0:
292,362,14117,6,0,L|284:282,1,79.9999999999999,6|8,0:0|0:0,0:0:0:0:
315,183,14806,2,0,P|345:157|383:146,1,79.9999999999999,2|8,0:0|0:0,0:0:0:0:
465,81,15496,2,0,P|435:56|397:45,1,79.9999999999999,2|8,0:0|0:0,0:0:0:0:
297,75,16186,1,2,0:0:0:0:
201,34,16530,1,8,0:0:0:0:
121,101,16875,6,0,L|109:186,1,79.9999999999999,2|8,0:0|0:0,0:0:0:0:
201,230,17565,2,0,L|213:315,1,79.9999999999999,2|8,0:0|0:0,0:0:0:0:
116,350,18255,2,0,L|27:341,2,79.9999999999999,2|8|2,0:0|0:0|0:0,0:0:0:0:
212,309,19289,1,8,0:0:0:0:
300,363,19634,6,0,L|389:354,1,79.9999999999999,6|8,0:0|0:0,0:0:0:0:
452,275,20323,2,0,P|414:253|376:247,1,79.9999999999999,2|8,0:0|0:0,0:0:0:0:
278,220,21013,2,0,P|238:212|204:191,1,79.9999999999999,2|8,0:0|0:0,0:0:0:0:
136,113,21703,1,2,0:0:0:0:
94,208,22048,1,8,0:0:0:0:
34,123,22392,6,0,L|51:30,1,79.9999999999999,2|0,0:0|0:0,0:0:0:0:
147,12,23082,2,0,L|240:29,1,79.9999999999999,2|2,0:0|0:0,0:0:0:0:
258,125,23772,2,0,L|241:218,1,79.9999999999999,0|2,0:0|0:0,0:0:0:0:
145,236,24461,2,0,L|52:218,1,79.9999999999999,6|6,0:0|0:0,0:0:0:0:
34,123,25151,6,0,L|51:30,1,79.9999999999999,4|8,0:0|0:0,0:0:0:0:
147,12,25841,2,0,L|164:105,1,79.9999999999999,0|8,0:0|0:0,0:0:0:0:
258,125,26530,2,0,L|275:32,1,79.9999999999999,2|8,0:0|0:0,0:0:0:0:
371,14,27220,2,0,L|388:107,1,79.9999999999999,2|8,0:0|0:0,0:0:0:0:
345,185,27910,6,0,P|266:229|189:206,1,160,2|0,0:0|3:0,0:0:0:0:
123,142,28944,1,8,0:0:0:0:
48,214,29289,2,0,L|71:376,1,160,0|2,3:0|0:0,0:0:0:0:
166,330,30324,1,8,0:0:0:0:
264,363,30668,6,0,P|302:361|339:339,1,79.9999999999999,6|8,0:0|0:0,0:0:0:0:
408,263,31358,2,0,P|373:242|334:240,1,79.9999999999999,0|8,3:0|0:0,0:0:0:0:
230,243,32048,2,0,L|243:154,1,79.9999999999999,0|8,3:0|0:0,0:0:0:0:
340,131,32737,2,0,L|327:42,1,79.9999999999999,0|8,3:0|0:0,0:0:0:0:
229,19,33427,6,0,L|142:30,2,79.9999999999999,0|8|0,3:0|0:0|3:0,0:0:0:0:
328,51,34461,1,8,0:0:0:0:
426,85,34806,2,0,L|486:77,2,59.9999999999999,4|4|4,0:0|0:0|0:0,0:0:0:0:
355,335,36186,6,0,L|263:328,1,79.9999999999999,4|8,0:0|0:0,0:0:0:0:
171,316,36875,2,0,L|79:309,1,79.9999999999999,2|8,0:0|0:0,0:0:0:0:
26,228,37565,2,0,L|33:136,2,79.9999999999999,2|8|2,0:0|0:0|0:0,0:0:0:0:
91,309,38599,1,8,0:0:0:0:
134,214,38944,6,0,L|140:134,1,79.9999999999999,2|8,0:0|0:0,0:0:0:0:
227,77,39634,2,0,L|306:83,1,79.9999999999999,2|8,0:0|0:0,0:0:0:0:
364,170,40324,2,0,L|357:249,1,79.9999999999999,2|8,0:0|0:0,0:0:0:0:
271,307,41013,2,0,L|191:300,1,79.9999999999999,2|8,0:0|0:0,0:0:0:0:
134,214,41703,6,0,L|140:134,1,79.9999999999999,4|8,0:0|0:0,0:0:0:0:
231,85,42392,2,0,L|237:164,1,79.9999999999999,2|8,0:0|0:0,0:0:0:0:
332,206,43082,2,0,P|371:208|420:194,2,79.9999999999999,2|10|2,0:0|0:0|0:0,0:0:0:0:
237,164,44117,1,8,0:0:0:0:
323,106,44461,6,0,L|329:26,1,79.9999999999999,2|8,0:0|0:0,0:0:0:0:
424,69,45151,2,0,L|503:75,1,79.9999999999999,2|8,0:0|0:0,0:0:0:0:
461,169,45841,2,0,L|454:248,1,79.9999999999999,2|2,3:0|3:0,0:0:0:0:
361,206,46530,2,0,L|281:199,1,79.9999999999999,2|4,3:0|0:0,0:0:0:0:
177,186,47220,6,0,B|110:180|110:180|89:270,1,160,4|2,0:0|0:0,0:0:0:0:
151,354,48255,1,2,0:0:0:0:
235,292,48600,2,0,L|315:299,1,79.9999999999999,2|2,0:0|0:0,0:0:0:0:
361,206,49289,2,0,L|281:199,1,79.9999999999999,2|2,0:0|0:0,0:0:0:0:
177,186,49979,6,0,B|156:95|156:95|89:101,1,160,2|2,0:0|0:0,0:0:0:0:
29,186,51013,1,0,3:0:0:0:
103,259,51358,2,0,L|82:346,2,79.9999999999999,2|2|2,0:0|0:0|0:0,0:0:0:0:
177,186,52392,1,0,3:0:0:0:
251,259,52737,6,0,P|328:273|396:233,1,160,2|2,0:0|3:0,0:0:0:0:
436,137,53772,1,0,0:0:0:0:
512,206,54117,2,0,L|485:381,1,160,0|2,3:0|0:0,0:0:0:0:
384,375,55151,1,2,0:0:0:0:
294,321,55496,6,0,L|267:146,1,160,2|0,0:0|3:0,0:0:0:0:
248,60,56530,1,2,0:0:0:0:
168,126,56875,2,0,L|97:138,2,59.9999999999999,4|4|4,0:0|0:0|0:0,0:0:0:0:
412,4,58255,6,0,B|426:41|426:41|412:79,1,79.9999999999999,2|8,0:0|0:0,0:0:0:0:
345,158,58944,2,0,B|331:196|331:196|345:233,1,79.9999999999999,2|8,0:0|0:0,0:0:0:0:
399,322,59634,2,0,L|304:329,1,79.9999999999999,2|8,0:0|0:0,0:0:0:0:
215,337,60324,2,0,L|120:344,1,79.9999999999999,2|8,0:0|0:0,0:0:0:0:
81,253,61013,6,0,L|176:246,1,79.9999999999999,2|8,0:0|0:0,0:0:0:0:
265,238,61703,2,0,L|360:231,1,79.9999999999999,2|8,0:0|0:0,0:0:0:0:
448,224,62392,2,0,L|455:319,2,79.9999999999999,2|8|2,0:0|0:0|0:0,0:0:0:0:
386,140,63427,1,2,0:0:0:0:
459,66,63772,6,0,P|419:41|374:37,1,79.9999999999999,6|8,0:0|0:0,0:0:0:0:
295,85,64461,2,0,P|256:77|223:55,1,79.9999999999999,2|8,0:0|0:0,0:0:0:0:
129,8,65151,2,0,L|119:104,1,79.9999999999999,2|8,0:0|0:0,0:0:0:0:
108,191,65841,2,0,L|98:287,1,79.9999999999999,2|8,0:0|0:0,0:0:0:0:
83,373,66530,6,0,P|151:362|201:283,1,160,4|4,0:0|0:0,0:0:0:0:
122,96,67911,1,2,0:0:0:0:
77,189,68255,1,0,0:0:0:0:
180,181,68599,2,0,L|270:170,1,79.9999999999999,4|4,0:0|3:0,0:0:0:0:
362,163,69289,5,4,0:0:0:0:
256,192,77565,12,2,78944,0:0:0:0:
321,339,80324,6,0,L|409:329,1,79.9999999999999,2|8,0:0|0:0,0:0:0:0:
438,233,81013,2,0,L|350:243,1,79.9999999999999,2|8,0:0|0:0,0:0:0:0:
255,257,81703,2,0,L|175:266,2,79.9999999999999,2|8|2,0:0|0:0|0:0,0:0:0:0:
295,160,82737,1,8,0:0:0:0:
333,64,83082,6,0,L|412:54,1,79.9999999999999,2|8,0:0|0:0,0:0:0:0:
478,135,83772,2,0,L|398:144,1,79.9999999999999,2|8,0:0|0:0,0:0:0:0:
358,242,84461,2,0,L|368:321,2,79.9999999999999,2|8|2,0:0|0:0|0:0,0:0:0:0:
295,160,85495,1,8,0:0:0:0:
262,256,85841,6,0,L|183:266,1,79.9999999999999,6|8,0:0|0:0,0:0:0:0:
84,283,86530,2,0,L|94:204,1,79.9999999999999,2|8,0:0|0:0,0:0:0:0:
165,123,87220,2,0,P|80:97|8:139,1,160,2|2,0:0|0:0,0:0:0:0:
0,226,88255,1,8,0:0:0:0:
84,283,88599,6,0,L|163:273,1,79.9999999999999,2|8,0:0|0:0,0:0:0:0:
267,259,89289,2,0,L|346:249,1,79.9999999999999,2|8,0:0|0:0,0:0:0:0:
450,236,89979,2,0,L|460:157,2,79.9999999999999,2|8|2,0:0|0:0|0:0,0:0:0:0:
409,331,91013,1,10,0:0:0:0:
346,248,91358,6,0,L|356:169,1,79.9999999999999,6|8,0:0|0:0,0:0:0:0:
460,156,92048,2,0,L|450:77,1,79.9999999999999,2|8,0:0|0:0,0:0:0:0:
357,29,92737,2,0,P|318:20|278:26,2,79.9999999999999,2|8|2,0:0|0:0|0:0,0:0:0:0:
449,76,93772,1,8,3:2:0:0:
362,133,94117,6,0,L|352:212,1,79.9999999999999,2|8,0:0|0:0,0:0:0:0:
454,231,94806,2,0,L|464:310,1,79.9999999999999,2|8,0:0|0:0,0:0:0:0:
372,357,95496,2,0,P|333:365|293:359,2,79.9999999999999,2|8|2,0:0|0:0|0:0,0:0:0:0:
464,310,96531,1,8,0:0:0:0:
375,255,96875,6,0,P|335:248|296:257,1,79.9999999999999,6|8,0:0|0:0,0:0:0:0:
205,309,97565,2,0,P|166:315|127:306,1,79.9999999999999,2|8,0:0|0:0,0:0:0:0:
25,293,98255,2,0,P|51:236|148:204,1,160,2|2,0:0|0:0,0:0:0:0:
222,262,99289,1,8,0:0:0:0:
307,202,99634,6,0,L|316:118,1,79.9999999999999,2|8,0:0|0:0,0:0:0:0:
405,68,100324,2,0,L|489:77,1,79.9999999999999,2|8,0:0|0:0,0:0:0:0:
497,179,101013,2,0,L|488:263,1,79.9999999999999,6|0,0:0|0:0,0:0:0:0:
386,271,101703,1,2,0:0:0:0:
307,202,102048,1,2,0:0:0:0:
228,271,102392,6,0,P|189:270|150:262,1,79.9999999999999,4|8,0:0|0:0,0:0:0:0:
44,267,103082,2,0,P|50:227|66:187,1,79.9999999999999,2|8,0:0|0:0,0:0:0:0:
118,101,103772,2,0,L|209:89,1,79.9999999999999,2|8,0:0|0:0,0:0:0:0:
300,76,104461,2,0,L|391:64,1,79.9999999999999,2|8,0:0|0:0,0:0:0:0:
465,124,105151,6,0,L|475:203,2,79.9999999999999,2|8|2,0:0|0:0|0:0,0:0:0:0:
379,65,106186,1,8,0:0:0:0:
293,124,106530,2,0,L|282:203,2,79.9999999999999,2|8|2,0:0|0:0|0:0,0:0:0:0:
379,65,107565,1,8,0:0:0:0:
465,124,107910,6,0,L|475:203,1,79.9999999999999,2|8,0:0|0:0,0:0:0:0:
414,287,108599,2,0,L|334:297,1,79.9999999999999,2|8,0:0|0:0,0:0:0:0:
250,236,109289,2,0,L|239:156,1,79.9999999999999,2|8,0:0|0:0,0:0:0:0:
301,72,109979,2,0,L|380:61,1,79.9999999999999,2|8,0:0|0:0,0:0:0:0:
465,124,110668,6,0,L|475:203,2,79.9999999999999,2|8|2,0:0|0:0|0:0,0:0:0:0:
380,61,111703,1,2,0:0:0:0:
362,163,112048,2,0,L|371:230,2,59.9999999999999,4|4|4,0:0|0:0|0:0,0:0:0:0:
255,49,113082,6,0,L|195:56,1,59.9999999999999,2|2,0:0|3:0,0:0:0:0:
