osu file format v14

[General]
AudioFilename: audio.mp3
AudioLeadIn: 0
PreviewTime: 77565
Countdown: 0
SampleSet: Soft
StackLeniency: 0.3
Mode: 0
LetterboxInBreaks: 0
WidescreenStoryboard: 1

[Editor]
Bookmarks: 324,3082,14117,25151,36186,47220,58255,69289,77565,80324,91358,102392
DistanceSpacing: 1.4
BeatDivisor: 4
GridSize: 4
TimelineZoom: 4.399999

[Metadata]
Title:polygon
TitleUnicode:polygon
Artist:Sota Fujimori
ArtistUnicode:Sota Fujimori
Creator:Kaifin
Version:Bonzi's Ultra
Source:jubeat copious
Tags:REFLEC BEAT colette autumn fanzhen0019 bonzi revurii xlolicore-
BeatmapID:1227359
BeatmapSetID:559097

[Difficulty]
HPDrainRate:7
CircleSize:4.5
OverallDifficulty:9.5
ApproachRate:9.7
SliderMultiplier:2
SliderTickRate:1

[Events]
//Background and Video events
0,0,"polygonbg1080.png",0,0
//Break Periods
2,69489,74311
//Storyboard Layer 0 (Background)
//Storyboard Layer 1 (Fail)
//Storyboard Layer 2 (Pass)
//Storyboard Layer 3 (Foreground)
//Storyboard Sound Samples

[TimingPoints]
324,344.827586206897,4,3,0,70,1,0
324,-151.515151515152,4,3,0,70,0,0
2392,-151.515151515152,4,2,0,50,0,0
2565,-151.515151515152,4,3,0,70,0,0
2737,-100,4,3,2,50,0,0
3082,-57.1428571428571,4,2,1,70,0,0
12737,-100,4,2,1,70,0,0
13427,-57.1428571428571,4,2,1,70,0,0
14117,-200,4,2,1,70,0,0
14461,-45.045045045045,4,2,1,70,0,0
14806,-50,4,2,1,70,0,0
14979,-133.333333333333,4,2,1,70,0,0
15151,-50,4,2,1,70,0,0
15324,-133.333333333333,4,2,1,70,0,0
15496,-50,4,2,1,70,0,0
15668,-133.333333333333,4,2,1,70,0,0
15841,-50,4,2,1,70,0,0
16186,-133.333333333333,4,2,1,70,0,0
16530,-50,4,2,1,70,0,0
16875,-200,4,2,1,70,0,0
17220,-45.045045045045,4,2,1,70,0,0
17565,-50,4,2,1,70,0,0
17737,-133.333333333333,4,2,1,70,0,0
17910,-50,4,2,1,70,0,0
18082,-133.333333333333,4,2,1,70,0,0
18255,-50,4,2,1,70,0,0
18427,-133.333333333333,4,2,1,70,0,0
18599,-50,4,2,1,70,0,0
18944,-200,4,2,1,70,0,0
19289,-66.6666666666667,4,2,1,70,0,0
19634,-200,4,2,1,70,0,0
19979,-45.045045045045,4,2,1,70,0,0
20496,-45.045045045045,4,2,0,70,0,0
20582,-45.045045045045,4,2,1,70,0,0
20668,-200,4,2,1,70,0,0
20841,-200,4,2,0,70,0,0
20927,-200,4,2,1,70,0,0
21013,-45.045045045045,4,2,1,70,0,0
21186,-45.045045045045,4,2,0,70,0,0
21272,-45.045045045045,4,2,1,70,0,0
21358,-200,4,2,1,70,0,0
21530,-200,4,2,0,70,0,0
21617,-200,4,2,1,70,0,0
21875,-133.333333333333,4,2,1,70,0,0
22048,-50,4,2,1,70,0,0
22392,-200,4,2,1,70,0,0
22479,-200,4,2,0,70,0,0
22737,-45.045045045045,4,2,0,70,0,0
23082,-50,4,2,1,70,0,0
23168,-50,4,2,0,70,0,0
23255,-133.333333333333,4,2,0,70,0,0
23427,-50,4,2,0,70,0,0
23513,-50,4,2,1,70,0,0
23599,-133.333333333333,4,2,1,70,0,0
23772,-50,4,2,1,70,0,0
24203,-66.6666666666667,4,2,1,70,0,0
24375,-50,4,2,1,70,0,0
25151,-66.6666666666667,4,2,1,70,0,0
29548,-80,4,2,1,70,0,0
29806,-100,4,2,1,70,0,0
30065,-133.333333333333,4,2,1,70,0,0
30324,-66.6666666666667,4,2,1,70,0,0
30668,-80,4,2,1,70,0,0
34461,-66.6666666666667,4,2,1,70,0,0
34806,-57.1428571428571,4,2,1,70,0,0
35496,-57.1428571428571,4,2,1,40,0,0
35668,-66.6666666666667,4,2,1,55,0,0
35755,-57.1428571428571,4,2,1,70,0,0
36186,-200,4,2,1,70,0,0
37048,-200,4,2,1,70,0,0
38944,-200,4,2,1,70,0,0
39806,-200,4,2,8,70,0,0
39979,-200,4,2,1,70,0,0
40065,-200,4,2,8,70,0,0
40324,-200,4,2,1,70,0,0
40410,-200,4,2,8,70,0,0
40668,-200,4,2,1,70,0,0
40841,-200,4,2,8,70,0,0
41013,-66.6666666666667,4,2,1,70,0,0
41703,-200,4,2,1,70,0,0
42479,-200,4,2,8,70,0,0
42651,-200,4,2,1,70,0,0
42824,-200,4,2,8,70,0,0
43082,-200,4,2,1,70,0,0
43168,-200,4,2,8,70,0,0
43427,-200,4,2,1,70,0,0
43513,-200,4,2,8,70,0,0
44117,-200,4,2,1,70,0,0
45237,-200,4,2,8,70,0,0
45410,-200,4,2,1,70,0,0
45582,-200,4,2,8,70,0,0
45755,-200,4,2,1,70,0,0
46358,-66.6666666666667,4,2,1,70,0,0
47220,-133.333333333333,4,2,1,70,0,0
48858,-153.846153846153,4,2,1,70,0,0
49117,-90.0900900900901,4,2,1,70,0,0
49375,-100,4,2,8,70,0,0
49634,-100,4,2,1,70,0,0
49720,-153.846153846153,4,2,8,70,0,0
49979,-133.333333333333,4,2,1,70,0,0
50237,-153.846153846153,4,2,1,70,0,0
50496,-90.0900900900901,4,2,1,70,0,0
50755,-100,4,2,1,70,0,0
51099,-153.846153846154,4,2,1,70,0,0
51358,-133.333333333333,4,2,1,70,0,0
51617,-153.846153846154,4,2,1,70,0,0
52134,-90.0900900900901,4,2,8,70,0,0
52392,-153.846153846154,4,2,8,70,0,0
52565,-200,4,2,1,70,0,0
52737,-133.333333333333,4,2,1,70,0,0
53255,-80,4,2,1,70,0,0
54117,-133.333333333333,4,2,1,70,0,0
54634,-80,4,2,1,70,0,0
54892,-80,4,2,8,70,0,0
55151,-80,4,2,1,70,0,0
55237,-80,4,2,8,70,0,0
55496,-80,4,2,1,70,0,0
56703,-133.333333333333,4,2,1,70,0,0
56875,-45.045045045045,4,2,1,70,0,0
57737,-200,4,2,1,70,0,0
58255,-133.333333333333,4,2,1,70,0,0
66530,-50,4,2,1,70,0,0
67048,-200,4,2,1,70,0,0
67220,-45.045045045045,4,2,1,70,0,0
67737,-200,4,2,1,70,0,0
67910,-66.6666666666667,4,2,1,70,0,0
68599,-100,4,2,1,50,0,0
68944,-100,4,2,1,70,0,0
69289,-100,4,2,8,40,0,0
74806,-133.333333333333,4,2,8,40,0,0
77565,-66.6666666666667,4,2,8,40,0,0
78944,-50,4,2,8,40,0,0
79720,-50,4,2,1,75,0,0
80324,-66.6666666666667,4,2,1,75,0,1
81703,-66.6666666666667,4,2,1,75,0,1
81961,-69.9300699300699,4,2,1,75,0,1
83082,-69.9300699300699,4,2,1,75,0,1
84461,-69.9300699300699,4,2,1,75,0,1
85496,-69.9300699300699,4,2,1,75,0,1
87220,-69.9300699300699,4,2,1,75,0,1
88599,-69.9300699300699,4,2,1,75,0,1
89979,-69.9300699300699,4,2,1,75,0,1
90841,-69.9300699300699,4,2,1,75,0,1
91013,-69.9300699300699,4,2,1,75,0,0
91358,-69.9300699300699,4,2,1,75,0,1
92737,-69.9300699300699,4,2,1,75,0,1
94117,-69.9300699300699,4,2,1,75,0,1
95496,-69.9300699300699,4,2,1,75,0,1
96703,-69.9300699300699,4,2,1,75,0,1
98255,-69.9300699300699,4,2,1,75,0,1
99634,-69.9300699300699,4,2,1,75,0,1
101272,-50,4,2,1,75,0,0
102392,-133.333333333333,4,2,1,70,0,0
103772,-100,4,2,1,70,0,0
105151,-80,4,2,1,70,0,0
106530,-66.6666666666667,4,2,1,70,0,0
107910,-66.6666666666667,4,2,1,70,0,0
109289,-80,4,2,1,70,0,0
110668,-100,4,2,1,70,0,0
112048,-133.333333333333,4,2,1,70,0,0
112910,-66.6666666666667,4,2,1,70,0,0

[Colours]
Combo1 : 255,136,255
Combo2 : 255,155,106
Combo3 : 100,170,255
Combo4 : 243,56,84

[HitObjects]
0,264,324,5,0,0:0:0:0:
4,272,410,1,0,0:0:0:0:
8,280,497,1,2,2:0:0:0:
12,288,582,1,0,0:0:0:0:
80,332,755,1,0,0:0:0:0:
76,340,840,1,0,0:0:0:0:
132,264,1013,6,0,L|188:268,1,32.999999899292,0|0,2:0|0:0,0:0:0:0:
350,280,1186,2,0,L|293:275,1,32.999999899292,2|0,2:0|0:0,0:0:0:0:
249,163,1358,2,0,L|244:219,1,32.999999899292,2|0,0:0|0:0,0:0:0:0:
233,381,1531,2,0,L|237:324,1,32.999999899292,0|0,2:0|0:0,0:0:0:0:
241,272,1703,1,0,0:0:0:0:
350,361,1875,6,0,L|406:365,1,32.999999899292,0|0,2:0|0:0,0:0:0:0:
459,369,2048,1,2,0:0:0:0:
459,369,2392,5,0,0:0:0:0:
448,300,2479,1,0,0:0:0:0:
459,231,2565,1,2,0:0:0:0:
448,162,2651,1,0,0:0:0:0:
459,93,2737,1,8,0:0:0:0:
459,93,3082,6,0,B|488:48|488:48|370:79,1,175.00000166893,6|0,0:0|0:0,0:0:0:0:
344,224,3341,2,0,B|368:271|368:271|399:154,1,175.00000166893,0|0,0:0|0:0,0:0:0:0:
288,58,3599,2,0,B|234:55|234:55|320:141,1,175.00000166893,0|2,0:0|0:0,0:0:0:0:
459,93,3858,2,0,B|488:48|488:48|370:79,1,175.00000166893,0|0,0:0|0:0,0:0:0:0:
344,224,4117,6,0,B|346:263|346:263|343:272|343:272|346:324,1,87.500000834465,8|0,0:0|0:0,0:0:0:0:
459,93,4289,2,0,B|456:53|456:53|459:44|459:44|456:-7,1,87.500000834465,2|0,0:1|0:0,0:0:0:0:
53,291,4461,6,0,B|23:336|23:336|142:305,1,175.00000166893,2|0,3:1|0:0,0:0:0:0:
168,160,4720,2,0,B|144:113|144:113|113:229,1,175.00000166893,0|0,0:0|0:0,0:0:0:0:
224,326,4978,2,0,B|278:329|278:329|192:242,1,175.00000166893,0|2,0:0|0:0,0:0:0:0:
53,291,5238,6,0,B|55:330|55:330|52:339|52:339|55:391,1,87.500000834465,0|0,0:0|0:0,0:0:0:0:
168,160,5410,1,0,0:0:0:0:
108,120,5496,2,0,B|68:102|68:102|26:114,1,87.500000834465,8|0,0:0|0:0,0:0:0:0:
224,326,5668,2,0,B|265:337|265:337|306:320,1,87.500000834465,0|0,0:0|0:0,0:0:0:0:
444,132,5841,6,0,P|480:116|448:188,1,175.00000166893,2|0,0:0|0:0,0:0:0:0:
320,172,6099,2,0,P|288:148|366:140,1,175.00000166893,0|0,0:0|0:0,0:0:0:0:
417,260,6358,2,0,P|412:299|366:235,1,175.00000166893,0|2,0:0|0:0,0:0:0:0:
444,132,6617,2,0,P|480:116|448:188,1,175.00000166893,0|0,0:0|0:0,0:0:0:0:
320,172,6875,6,0,B|317:133|317:133|320:124|320:124|318:85,1,87.500000834465,8|0,0:0|0:0,0:0:0:0:
417,260,7048,2,0,B|419:298|419:298|416:307|416:307|418:346,1,87.500000834465,2|0,0:1|0:0,0:0:0:0:
68,252,7220,6,0,P|32:268|64:196,1,175.00000166893,2|0,3:1|0:0,0:0:0:0:
192,212,7478,2,0,P|223:235|145:243,1,175.00000166893,0|0,0:0|0:0,0:0:0:0:
95,124,7737,2,0,P|99:84|145:148,1,175.00000166893,0|2,0:0|0:0,0:0:0:0:
68,252,7996,5,0,0:0:0:0:
8,296,8082,2,0,P|-6:251|9:210,1,87.500000834465,0|0,0:0|0:0,0:0:0:0:
167,132,8255,2,0,P|181:87|166:46,1,87.500000834465,8|0,0:0|0:0,0:0:0:0:
85,129,8427,2,0,P|125:143|166:131,1,87.500000834465,0|8,0:0|0:0,0:0:0:0:
424,88,8599,6,0,B|430:34|430:34|366:14|317:58,1,175.00000166893,2|0,0:0|0:0,0:0:0:0:
277,207,8858,2,0,B|320:239|320:239|369:194|355:129,1,175.00000166893,0|0,0:0|0:0,0:0:0:0:
247,20,9117,2,0,B|196:41|196:41|211:106|274:126,1,175.00000166893,0|2,0:0|0:0,0:0:0:0:
424,88,9375,2,0,B|430:34|430:34|366:14|317:58,1,175.00000166893,0|0,0:0|0:0,0:0:0:0:
277,207,9634,6,0,B|280:246|280:246|277:255|277:255|278:294,1,87.500000834465,8|0,0:0|0:0,0:0:0:0:
424,88,9807,2,0,B|422:50|422:50|425:41|425:41|422:2,1,87.500000834465,2|0,0:1|0:0,0:0:0:0:
88,296,9979,6,0,B|81:349|81:349|145:369|194:325,1,175.00000166893,2|0,3:1|0:0,0:0:0:0:
235,177,10238,2,0,B|191:144|191:144|142:189|156:254,1,175.00000166893,0|0,0:0|0:0,0:0:0:0:
265,364,10497,2,0,B|315:342|315:342|300:277|237:257,1,175.00000166893,0|0,0:0|0:0,0:0:0:0:
88,296,10755,5,0,0:0:0:0:
156,338,10841,2,0,P|166:295|156:253,1,87.500000834465,0|0,0:0|0:0,0:0:0:0:
18,88,11013,2,0,B|0:43|20:8|20:8|84:15|122:82|78:141,1,262.500002503395,8|0,0:0|0:0,0:0:0:0:
77,141,11358,6,0,P|61:171|81:242,1,87.500000834465,2|0,0:0|0:0,0:0:0:0:
230,356,11530,5,0,0:0:0:0:
242,345,11617,2,0,L|235:206,1,87.500000834465,0|8,0:0|0:0,0:0:0:0:
200,118,11789,5,0,0:0:0:0:
244,57,11875,2,0,P|276:42|343:52,1,87.500000834465,0|0,0:0|0:0,0:0:0:0:
499,225,12048,5,2,0:0:0:0:
441,288,12134,2,0,P|401:297|333:255,1,87.500000834465,0|0,0:0|0:0,0:0:0:0:
347,147,12306,5,0,0:0:0:0:
409,56,12392,2,0,P|440:87|454:129,1,87.500000834465,8|0,0:0|0:0,0:0:0:0:
236,340,12565,6,0,P|224:298|238:258,1,87.500000834465,0|8,0:0|0:0,0:0:0:0:
322,144,12737,6,0,L|346:146,1,25,4|0,0:0|0:0,0:0:0:0:
322,144,12996,6,0,L|346:146,1,25,4|0,0:0|0:0,0:0:0:0:
322,144,13255,6,0,L|346:146,1,25,4|0,0:0|0:0,0:0:0:0:
458,84,13427,6,0,P|418:68|362:84,1,87.500000834465,2|0,0:0|0:0,0:0:0:0:
376,76,13599,6,0,L|370:-10,2,43.7500004172325,2|0|2,0:0|0:0|0:0,0:0:0:0:
392,296,13772,2,0,L|395:339,4,43.7500004172325,2|0|0|0|2,0:0|0:0|0:0|0:0|0:0,0:0:0:0:
392,296,14117,6,0,B|360:294|360:294|351:297|351:297|315:296,1,75,6|0,0:0|0:0,0:0:0:0:
250,275,14461,6,0,P|219:258|270:319,1,333.000008129883,8|0,0:0|0:0,0:0:0:0:
305,227,14806,6,0,L|302:122,1,100,2|0,0:0|0:0,0:0:0:0:
312,116,14979,6,0,L|316:184,1,37.5000014305115,0|0,0:0|0:0,0:0:0:0:
172,132,15151,6,0,L|175:27,1,100,8|0,0:0|0:0,0:0:0:0:
165,21,15324,6,0,L|161:89,1,37.5000014305115,0|0,0:0|0:0,0:0:0:0:
32,200,15496,6,0,L|29:95,1,100,2|0,0:0|0:0,0:0:0:0:
39,89,15669,6,0,L|43:157,1,37.5000014305115,0|0,0:0|0:0,0:0:0:0:
116,296,15841,6,0,B|160:316|160:316|224:288,1,100,8|0,0:0|0:0,0:0:0:0:
272,264,16013,2,0,B|316:244|316:244|380:272,1,100,0|0,0:0|0:0,0:0:0:0:
428,304,16186,5,2,0:0:0:0:
512,184,16358,2,0,L|456:180,1,37.5000014305115,0|0,0:0|0:0,0:0:0:0:
264,256,16530,5,8,0:0:0:0:
268,260,16617,1,0,0:0:0:0:
272,264,16703,2,0,L|268:160,1,100,2|0,0:0|0:0,0:0:0:0:
268,164,16875,6,0,B|300:166|300:166|309:163|309:163|345:164,1,75,2|0,0:0|0:0,0:0:0:0:
415,184,17220,6,0,B|428:35|428:35|349:64|349:64|341:163,1,333.000008129883,8|0,0:0|0:0,0:0:0:0:
360,248,17565,6,0,P|404:268|476:240,1,100,2|0,0:0|0:0,0:0:0:0:
472,260,17737,6,0,P|448:272|412:276,1,37.5000014305115,0|0,0:0|0:0,0:0:0:0:
196,348,17910,6,0,P|240:328|312:356,1,100,8|0,0:0|0:0,0:0:0:0:
308,336,18082,6,0,P|284:324|248:320,1,37.5000014305115,0|0,0:0|0:0,0:0:0:0:
32,248,18255,6,0,P|76:268|148:240,1,100,2|0,0:0|0:0,0:0:0:0:
144,260,18427,6,0,P|120:272|84:276,1,37.5000014305115,0|0,0:0|0:0,0:0:0:0:
180,52,18599,6,0,P|224:32|296:60,1,100,8|0,0:0|0:0,0:0:0:0:
284,136,18772,2,0,P|240:155|168:127,1,100,2|0,0:0|0:0,0:0:0:0:
340,84,18944,6,0,L|408:88,1,50,2|0,0:0|0:0,0:0:0:0:
460,124,19203,1,2,0:0:0:0:
464,40,19289,6,0,P|476:84|456:132,1,75.0000028610231,8|0,0:0|0:0,0:0:0:0:
384,184,19461,2,0,L|388:284,1,75.0000028610231,2|0,0:0|0:0,0:0:0:0:
432,352,19634,6,0,B|464:350|464:350|473:353|473:353|509:352,1,75,6|0,0:0|0:0,0:0:0:0:
386,258,19979,6,0,B|332:236|332:236|258:280|258:280|432:351,1,333.000008129883,8|0,0:0|0:0,0:0:0:0:
457,281,20324,6,0,P|481:232|426:212,1,111.000002709961,2|0,0:0|0:0,0:0:0:0:
351,120,20496,2,0,P|325:76|366:45,1,111.000002709961,2|0,0:0|0:0,0:0:0:0:
464,16,20668,6,0,L|510:17,1,25,8|0,0:0|0:0,0:0:0:0:
468,20,20841,2,0,L|443:19,1,25,0|0,0:0|0:0,0:0:0:0:
365,45,21013,6,0,B|318:17|318:17|267:64,1,111.000002709961,2|0,0:0|0:0,0:0:0:0:
173,169,21186,2,0,B|126:197|126:197|75:150,1,111.000002709961,2|0,0:0|0:0,0:0:0:0:
24,88,21358,6,0,L|-22:89,1,25,8|0,0:0|0:0,0:0:0:0:
20,84,21530,2,0,L|44:83,1,25,2|0,0:0|0:0,0:0:0:0:
120,92,21703,5,2,0:0:0:0:
204,0,21875,2,0,L|206:37,1,37.5000014305115,0|0,0:0|0:0,0:0:0:0:
256,204,22048,5,8,0:0:0:0:
260,208,22134,1,0,0:0:0:0:
264,212,22220,2,0,L|268:100,1,100,2|0,0:0|0:0,0:0:0:0:
267,112,22392,6,0,B|235:114|235:114|226:111|226:111|190:112,1,75,2|0,0:0|0:0,0:0:0:0:
173,185,22737,6,0,P|41:198|120:92,1,333.000008129883,0|0,0:0|0:0,0:0:0:0:
192,111,23082,6,0,P|236:135|284:126,1,100,2|0,0:0|0:0,0:0:0:0:
295,135,23255,6,0,P|270:144|239:143,1,37.5000014305115,2|0,0:0|0:0,0:0:0:0:
409,52,23427,6,0,P|452:28|500:37,1,100,2|0,0:0|0:0,0:0:0:0:
511,28,23600,6,0,P|486:18|455:19,1,37.5000014305115,2|0,0:0|0:0,0:0:0:0:
363,185,23772,6,0,P|339:228|348:276,1,100,0|0,0:0|0:0,0:0:0:0:
453,200,23944,2,0,P|410:176|362:184,1,100,2|0,0:0|0:0,0:0:0:0:
424,272,24117,1,2,0:0:0:0:
432,284,24203,2,0,L|428:352,2,37.5000014305115,0|0|0,0:0|0:0|0:0,0:0:0:0:
200,244,24375,1,0,0:0:0:0:
176,312,24461,6,0,P|133:335|85:327,1,100,6|0,0:0|0:0,0:0:0:0:
76,164,24634,2,0,P|124:155|166:179,1,100,6|0,0:0|0:0,0:0:0:0:
112,248,24806,2,0,L|8:244,1,100,6|0,0:0|0:0,0:0:0:0:
12,244,25151,5,4,0:0:0:0:
56,300,25237,2,0,B|52:232|52:232|56:223|56:223|51:140,1,150.000005722046,0|0,0:0|0:0,0:0:0:0:
88,88,25496,2,0,B|52:76|52:76|13:86,1,75.0000028610231,8|0,0:0|0:0,0:0:0:0:
156,128,25668,2,0,L|264:126,1,75.0000028610231,0|0,3:0|3:0,0:0:0:0:
336,60,25841,5,0,0:0:0:0:
396,20,25927,2,0,B|408:56|408:56|396:100,1,75.0000028610231,0|0,3:0|3:0,0:0:0:0:
324,224,26099,1,0,0:0:0:0:
263,264,26185,2,0,B|251:228|251:228|263:184,1,75.0000028610231,8|0,0:0|0:0,0:0:0:0:
436,160,26358,2,0,L|540:164,1,75.0000028610231,0|0,0:0|0:0,0:0:0:0:
408,336,26530,5,2,0:0:0:0:
352,380,26617,2,0,B|284:376|284:376|275:380|275:380|192:375,1,150.000005722046,0|0,0:0|0:0,0:0:0:0:
0,284,26875,2,0,L|104:288,1,75.0000028610231,8|0,0:0|0:0,0:0:0:0:
260,192,27048,2,0,L|185:189,1,75.0000028610231,0|0,3:0|0:0,0:0:0:0:
68,112,27220,5,0,0:0:0:0:
32,48,27306,2,0,B|68:36|68:36|116:52,1,75.0000028610231,0|0,3:0|0:0,0:0:0:0:
228,136,27479,1,0,3:0:0:0:
300,132,27565,2,0,L|374:129,1,75.0000028610231,8|0,0:0|0:0,0:0:0:0:
439,18,27737,1,0,0:0:0:0:
431,10,27824,1,0,0:0:0:0:
423,2,27910,5,2,0:0:0:0:
371,54,27996,2,0,L|374:128,1,75.0000028610231,0|0,0:0|0:0,0:0:0:0:
452,268,28168,1,0,0:0:0:0:
420,336,28255,2,0,B|388:352|388:352|332:336,1,75.0000028610231,8|0,0:0|0:0,0:0:0:0:
160,288,28427,1,0,0:0:0:0:
96,256,28513,1,0,3:0:0:0:
36,300,28599,2,0,B|20:332|20:332|36:388,1,75.0000028610231,0|0,3:0|0:0,0:0:0:0:
156,212,28772,2,0,L|152:124,1,75.0000028610231,0|0,3:0|0:0,0:0:0:0:
4,28,28944,6,0,P|12:88|96:88,1,150.000005722046,8|0,0:0|0:0,0:0:0:0:
152,137,29203,1,0,0:0:0:0:
224,0,29289,5,0,3:0:0:0:
212,12,29375,2,0,L|220:88,1,75.0000028610231,0|0,0:0|0:0,0:0:0:0:
312,320,29548,5,0,0:0:0:0:
300,308,29634,2,0,L|308:232,1,62.5,8|0,0:0|3:0,0:0:0:0:
393,67,29806,5,8,0:0:0:0:
381,79,29892,2,0,L|389:155,1,50,0|2,0:0|0:0,0:0:0:0:
483,244,30065,5,8,0:0:0:0:
471,232,30151,2,0,L|477:172,1,37.5000014305115,0|0,0:0|0:0,0:0:0:0:
475,195,30324,6,0,L|480:296,1,75.0000028610231,8|0,0:0|0:0,0:0:0:0:
381,79,30496,2,0,L|377:4,1,75.0000028610231,2|0,0:0|0:0,0:0:0:0:
300,308,30668,5,6,0:0:0:0:
248,364,30755,2,0,B|184:370|184:370|144:324,1,125,0|0,0:0|0:0,0:0:0:0:
220,228,31013,2,0,L|282:230,1,62.5,8|0,0:0|0:0,0:0:0:0:
80,280,31186,2,0,L|-4:276,1,62.5,0|0,0:0|0:0,0:0:0:0:
108,128,31358,5,0,3:0:0:0:
171,98,31444,2,0,B|180:128|180:128|166:185,1,62.5,0|0,3:0|3:0,0:0:0:0:
32,72,31617,1,0,0:0:0:0:
24,64,31703,2,0,B|28:-16,1,62.5,8|0,0:0|0:0,0:0:0:0:
83,217,31875,2,0,B|79:279,1,62.5,0|0,3:0|0:0,0:0:0:0:
171,98,32048,5,0,3:0:0:0:
184,88,32134,2,0,B|239:85|239:85|248:88|248:88|328:84,1,125,0|0,3:0|0:0,0:0:0:0:
412,0,32392,2,0,L|382:55,1,62.5,8|0,0:0|0:0,0:0:0:0:
341,138,32565,2,0,L|307:85,1,62.5,0|0,3:0|3:0,0:0:0:0:
444,288,32737,6,0,L|410:340,1,62.5,0|0,3:0|3:0,0:0:0:0:
352,256,32910,1,0,3:0:0:0:
356,260,32996,1,0,3:0:0:0:
360,264,33082,2,0,L|330:208,1,62.5,8|0,0:0|0:0,0:0:0:0:
422,203,33255,2,0,L|484:205,1,62.5,0|0,3:3|3:3,0:0:0:0:
298,325,33427,6,0,B|238:321|238:321|229:325|229:325|161:321,1,125,0|0,3:0|0:0,0:0:0:0:
160,332,33686,2,0,B|144:312|144:312|140:200,1,125,0|0,0:0|0:0,0:0:0:0:
152,204,33944,2,0,B|160:180|160:180|156:112,1,62.5,0|0,3:0|3:0,0:0:0:0:
92,96,34117,1,0,3:0:0:0:
88,100,34203,1,0,0:0:0:0:
84,104,34289,2,0,L|4:108,1,62.5,0|0,3:0|0:0,0:0:0:0:
120,20,34461,5,8,0:0:0:0:
184,56,34548,1,0,0:0:0:0:
252,32,34634,2,0,P|288:20|348:32,1,75.0000028610231,0|8,3:0|3:0,0:0:0:0:
436,112,34806,6,0,P|377:198|337:128,1,175.00000166893,4|0,0:0|0:0,0:0:0:0:
345,176,35065,6,0,P|403:262|443:192,1,175.00000166893,4|0,0:0|0:0,0:0:0:0:
435,240,35324,6,0,P|376:326|336:256,1,175.00000166893,4|2,0:0|0:0,0:0:0:0:
272,268,35582,1,0,0:0:0:0:
272,268,35668,2,0,L|200:272,2,37.5000014305115,2|2|2,0:0|0:0|0:0,0:0:0:0:
343,303,35841,5,2,0:0:0:0:
248,344,35927,1,0,0:0:0:0:
159,286,36013,1,2,0:0:0:0:
159,286,36186,6,0,L|152:335,1,50,4|0,0:0|0:0,0:0:0:0:
160,348,36444,1,0,0:0:0:0:
96,200,36530,6,0,L|71:196,1,25,8|0,0:0|0:0,0:0:0:0:
416,184,36703,2,0,L|440:187,1,25,0|0,0:0|0:0,0:0:0:0:
228,56,36875,6,0,B|221:43|221:43|227:-12,1,50,2|0,0:0|0:0,0:0:0:0:
284,328,37134,2,0,B|290:340|290:340|284:396,1,50,0|0,0:0|0:0,0:0:0:0:
300,102,37392,6,0,L|359:107,1,50,0|2,0:0|0:0,0:0:0:0:
212,282,37651,2,0,L|152:276,1,50,0|0,0:0|0:0,0:0:0:0:
416,176,37910,6,0,L|475:170,1,50,8|0,0:0|0:0,0:0:0:0:
96,208,38168,2,0,L|36:213,1,50,0|0,0:0|0:0,0:0:0:0:
404,164,38427,6,0,L|463:158,1,50,2|8,3:0|0:0,0:0:0:0:
108,220,38686,1,2,3:0:0:0:
58,224,38772,2,0,L|15:227,1,25,0|0,3:0|0:0,0:0:0:0:
316,48,38944,6,0,L|312:91,1,25,2|0,0:0|0:0,0:0:0:0:
158,216,39117,1,0,0:0:0:0:
122,148,39203,2,0,L|165:144,1,25,0|8,0:0|0:0,0:0:0:0:
354,167,39375,1,0,0:0:0:0:
390,235,39461,2,0,L|346:238,1,25,0|0,0:0|0:0,0:0:0:0:
196,72,39634,6,0,L|194:48,1,25,2|0,0:0|0:0,0:0:0:0:
320,312,39806,2,0,L|323:337,1,25,0|0,0:0|0:0,0:0:0:0:
376,132,39979,2,0,L|400:130,1,25,8|2,0:0|0:2,0:0:0:0:
136,256,40151,6,0,L|111:259,1,25,0|0,0:0|0:0,0:0:0:0:
11,95,40324,1,2,0:0:0:0:
63,159,40410,2,0,L|78:179,1,25,2|0,0:0|0:0,0:0:0:0:
68,335,40582,1,2,0:0:0:0:
16,271,40668,2,0,L|25:247,1,25,8|0,0:0|0:0,0:0:0:0:
159,335,40841,2,0,L|150:359,1,25,2|0,0:0|0:0,0:0:0:0:
116,36,41013,5,2,0:0:0:0:
116,36,41099,1,0,0:0:0:0:
116,36,41186,2,0,B|148:40|148:40|164:32|164:32|199:28,1,75.0000028610231,2|0,0:0|0:0,0:0:0:0:
119,238,41358,2,0,B|106:208|106:208|91:198|91:198|77:178,1,75.0000028610231,8|0,0:0|0:0,0:0:0:0:
292,134,41530,2,0,B|272:159|272:159|271:177|271:177|261:200,1,75.0000028610231,2|0,0:0|0:0,0:0:0:0:
156,132,41703,6,0,L|195:135,1,25,4|0,0:0|0:0,0:0:0:0:
392,288,41875,1,0,0:0:0:0:
344,344,41961,2,0,L|345:319,1,25,0|8,0:0|0:0,0:0:0:0:
452,88,42134,1,0,0:0:0:0:
508,136,42220,2,0,L|469:133,1,25,0|0,0:0|0:0,0:0:0:0:
186,54,42392,6,0,L|189:15,1,25,2|0,0:0|0:0,0:0:0:0:
276,223,42565,2,0,L|256:209,1,25,2|0,0:0|0:0,0:0:0:0:
63,202,42737,2,0,L|86:192,1,25,8|0,0:0|0:0,0:0:0:0:
180,133,42910,6,0,L|178:157,1,25,2|0,0:0|0:0,0:0:0:0:
84,332,43082,1,2,0:0:0:0:
16,300,43168,2,0,P|12:280|20:256,1,25,2|0,0:0|0:0,0:0:0:0:
272,136,43341,1,0,0:0:0:0:
256,209,43427,6,0,P|240:228|196:248,1,50,10|0,0:0|0:0,0:0:0:0:
35,175,43686,2,0,P|59:169|106:178,1,50,2|0,0:0|0:0,0:0:0:0:
195,333,43944,2,0,P|171:323|139:287,1,50,2|8,0:3|0:0,0:0:0:0:
84,88,44203,1,0,0:0:0:0:
158,112,44289,2,0,P|165:124|169:153,1,25,2|0,0:3|0:0,0:0:0:0:
58,313,44461,6,0,P|59:288|83:246,1,50,2|0,0:0|0:0,0:0:0:0:
80,256,44720,1,0,0:0:0:0:
272,136,44806,6,0,P|286:132|314:138,1,25,8|0,0:0|0:0,0:0:0:0:
24,208,44979,2,0,P|11:207|0:204,1,25,0|0,0:0|0:0,0:0:0:0:
184,296,45151,6,0,P|187:310|181:338,1,25,2|0,0:0|0:0,0:0:0:0:
124,156,45324,2,0,P|134:145|162:136,1,25,2|0,0:0|0:0,0:0:0:0:
33,278,45496,2,0,P|18:273|-3:254,1,25,8|0,0:0|0:0,0:0:0:0:
296,132,45668,6,0,L|320:134,1,25,2|0,0:0|0:0,0:0:0:0:
124,156,45841,1,2,3:0:0:0:
198,197,45927,2,0,L|222:199,1,25,0|0,0:0|3:0,0:0:0:0:
400,296,46100,1,0,3:0:0:0:
326,337,46186,2,0,L|301:339,1,25,2|0,3:0|0:0,0:0:0:0:
40,80,46358,6,0,L|-12:88,2,37.5000014305115,0|0|0,3:0|0:0|0:0,0:0:0:0:
67,298,46530,6,0,B|83:265|83:265|80:228,1,75.0000028610231,2|0,3:0|0:0,0:0:0:0:
27,9,46703,2,0,B|23:45|23:45|39:79,1,75.0000028610231,2|0,0:0|0:0,0:0:0:0:
138,127,46875,1,4,0:0:0:0:
138,127,47220,6,0,B|188:152|188:152|256:124,1,112.500004291535,6|0,0:0|0:0,0:0:0:0:
244,40,47565,2,0,B|194:15|194:15|126:43,1,112.500004291535,2|0,0:0|0:0,0:0:0:0:
303,86,47910,6,0,L|363:83,1,37.5000014305115,2|0,0:0|0:0,0:0:0:0:
512,132,48082,2,0,B|372:140,1,112.500004291535,0|0,3:0|0:0,0:0:0:0:
312,204,48427,2,0,L|371:200,1,37.5000014305115,2|2,0:0|0:0,0:0:0:0:
500,256,48599,6,0,L|423:260,1,75.0000028610231,2|0,0:0|0:0,0:0:0:0:
355,300,48858,2,0,L|278:304,1,64.9999970245363,2|0,0:0|0:0,0:0:0:0:
211,281,49117,2,0,L|73:288,1,111.000002709961,2|0,0:0|0:0,0:0:0:0:
12,352,49375,5,0,0:0:0:0:
12,352,49461,2,0,L|17:252,1,100,2|0,0:0|0:0,0:0:0:0:
44,180,49720,2,0,L|48:100,1,64.9999970245363,0|2,0:0|0:0,0:0:0:0:
0,48,49979,6,0,L|77:43,1,75.0000028610231,2|0,0:0|0:0,0:0:0:0:
148,64,50237,2,0,L|225:59,1,64.9999970245363,2|0,0:0|0:0,0:0:0:0:
296,80,50496,2,0,L|425:73,1,111.000002709961,2|0,0:0|0:0,0:0:0:0:
492,16,50755,5,0,0:0:0:0:
492,16,50841,2,0,L|486:115,1,100,0|0,3:0|0:0,0:0:0:0:
432,172,51099,2,0,L|427:251,1,64.9999970245363,2|2,0:0|3:2,0:0:0:0:
476,384,51358,6,0,L|480:299,1,75.0000028610231,2|0,0:0|0:0,0:0:0:0:
368,288,51617,1,2,0:0:0:0:
368,288,51703,2,0,L|365:343,1,32.4999985122681,2|0,0:0|0:0,0:0:0:0:
493,233,51875,6,0,L|428:236,1,64.9999970245363,2|0,0:0|0:0,0:0:0:0:
368,288,52134,2,0,L|231:295,1,111.000002709961,2|0,3:0|0:0,0:0:0:0:
196,236,52392,2,0,L|198:203,1,32.4999985122681,2|0,0:0|0:0,0:0:0:0:
44,240,52565,6,0,L|40:280,1,25,2|0,3:0|0:0,0:0:0:0:
41,264,52737,6,0,P|12:216|40:152,1,112.500004291535,2|0,0:0|0:0,0:0:0:0:
40,156,53082,1,0,0:0:0:0:
256,188,53255,6,0,L|244:400,1,187.5,0|0,0:0|0:0,0:0:0:0:
236,384,53599,1,0,3:0:0:0:
108,96,53772,2,0,L|196:92,1,62.5,0|0,0:0|0:0,0:0:0:0:
252,88,53944,2,0,L|340:84,1,62.5,2|2,0:0|0:0,0:0:0:0:
464,24,54117,6,0,P|420:12|412:84,1,112.500004291535,0|0,3:0|0:0,0:0:0:0:
408,76,54461,1,2,0:0:0:0:
464,360,54634,6,0,L|476:164,1,187.5,0|0,3:0|0:0,0:0:0:0:
488,160,54979,1,0,0:0:0:0:
337,260,55151,2,0,L|249:256,1,62.5,2|0,0:0|0:0,0:0:0:0:
193,252,55323,2,0,L|105:248,1,62.5,0|0,0:0|0:0,0:0:0:0:
32,304,55496,6,0,B|56:252|56:252|32:184,1,125,2|0,0:0|3:0,0:0:0:0:
20,180,55755,2,0,B|-4:128|-4:128|20:60,1,125,0|0,0:0|0:0,0:0:0:0:
32,72,56013,2,0,B|64:64|64:64|100:72,1,62.5,0|0,0:0|0:0,0:0:0:0:
372,112,56186,2,0,B|343:128|343:128|323:160,1,62.5,0|0,3:0|0:0,0:0:0:0:
162,200,56358,2,0,B|184:223|184:223|196:258,1,62.5,0|0,3:0|0:0,0:0:0:0:
256,368,56530,1,2,0:0:0:0:
256,368,56703,2,0,L|256:300,1,37.5000014305115,0|2,0:0|0:0,0:0:0:0:
176,160,56875,6,0,B|88:232|88:232|212:256,1,222.000005419922,4|0,0:0|0:0,0:0:0:0:
323,138,57134,2,0,B|305:26|305:26|222:121,1,222.000005419922,4|0,0:0|0:0,0:0:0:0:
268,277,57392,2,0,B|374:317|374:317|333:198,1,222.000005419922,4|0,0:0|0:0,0:0:0:0:
256,176,57737,6,0,L|256:220,1,25,10|8,0:0|0:0,0:0:0:0:
256,368,57910,1,8,0:0:0:0:
256,368,58255,6,0,L|256:316,1,37.5000014305115,2|0,0:0|0:0,0:0:0:0:
256,238,58427,2,0,L|256:178,1,37.5000014305115,0|0,0:0|0:0,0:0:0:0:
256,108,58599,1,8,0:0:0:0:
256,108,58772,6,0,P|236:98|200:99,1,37.5000014305115,0|0,0:0|0:0,0:0:0:0:
55,167,58944,2,0,P|45:186|46:222,1,37.5000014305115,2|0,0:0|0:0,0:0:0:0:
143,97,59117,2,0,P|122:103|97:129,1,37.5000014305115,0|0,0:0|0:0,0:0:0:0:
44,279,59289,1,8,0:0:0:0:
44,279,59461,6,0,P|62:267|79:235,1,37.5000014305115,0|0,0:0|0:0,0:0:0:0:
91,76,59633,2,0,P|79:57|47:40,1,37.5000014305115,2|0,0:0|0:0,0:0:0:0:
110,188,59806,2,0,P|114:166|104:132,1,37.5000014305115,0|0,0:0|0:0,0:0:0:0:
0,12,59978,1,8,0:0:0:0:
0,12,60151,6,0,P|1:33|20:64,1,37.5000014305115,0|0,0:0|0:0,0:0:0:0:
45,114,60668,2,0,P|61:128|96:136,1,37.5000014305115,8|0,0:0|0:0,0:0:0:0:
152,154,61186,2,0,P|173:152|204:133,1,37.5000014305115,0|0,0:0|0:0,0:0:0:0:
256,108,61703,2,0,P|270:91|278:56,1,37.5000014305115,2|0,0:0|0:0,0:0:0:0:
188,145,62220,6,0,P|170:152|152:154,1,37.5000014305115,0|0,0:0|0:0,0:0:0:0:
75,134,62737,2,0,P|58:126|45:114,1,37.5000014305115,8|0,0:0|0:0,0:0:0:0:
184,48,62996,6,0,P|144:44|100:68,1,75.0000028610231,0|2,0:0|0:0,0:0:0:0:
104,68,63255,1,0,0:0:0:0:
256,200,63427,1,2,0:0:0:0:
290,213,63513,1,2,0:0:0:0:
327,208,63599,1,2,0:0:0:0:
256,368,63772,6,0,L|256:316,1,37.5000014305115,6|0,0:0|0:0,0:0:0:0:
256,238,63944,2,0,L|256:178,1,37.5000014305115,0|0,0:0|0:0,0:0:0:0:
256,108,64116,1,8,0:0:0:0:
256,108,64289,6,0,P|276:98|312:99,1,37.5000014305115,0|0,0:0|0:0,0:0:0:0:
457,167,64461,2,0,P|467:186|466:222,1,37.5000014305115,2|0,0:0|0:0,0:0:0:0:
369,97,64634,2,0,P|390:103|415:129,1,37.5000014305115,0|0,0:0|0:0,0:0:0:0:
468,279,64806,1,8,0:0:0:0:
468,279,64978,6,0,P|450:267|433:235,1,37.5000014305115,0|0,0:0|0:0,0:0:0:0:
421,76,65150,2,0,P|433:57|465:40,1,37.5000014305115,2|0,0:0|0:0,0:0:0:0:
402,188,65323,2,0,P|398:166|408:132,1,37.5000014305115,0|2,0:0|0:0,0:0:0:0:
512,12,65495,1,8,0:0:0:0:
512,12,65668,6,0,P|511:33|492:64,1,37.5000014305115,2|0,0:0|0:0,0:0:0:0:
360,154,66186,2,0,P|339:152|308:133,1,37.5000014305115,8|0,0:0|0:0,0:0:0:0:
323,145,66530,6,0,P|400:116|360:220,1,200,4|0,0:0|0:0,0:0:0:0:
98,206,66789,2,0,P|105:119|189:145,1,200,4|0,0:0|0:0,0:0:0:0:
256,192,67048,6,0,L|256:236,1,25,0|0,0:0|0:0,0:0:0:0:
192,307,67220,6,0,P|99:311|99:203,1,222.000005419922,4|0,0:0|0:0,0:0:0:0:
414,205,67479,2,0,P|419:304|320:307,1,222.000005419922,4|0,0:0|0:0,0:0:0:0:
256,192,67737,6,0,L|256:167,1,25,0|0,1:0|0:0,0:0:0:0:
384,48,67910,5,0,0:0:0:0:
388,52,67996,2,0,P|400:88|380:136,1,75.0000028610231,0|0,0:0|0:0,0:0:0:0:
128,124,68168,5,6,0:0:0:0:
124,120,68254,2,0,P|112:84|132:36,1,75.0000028610231,0|0,0:0|0:0,0:0:0:0:
256,12,68427,5,4,0:0:0:0:
256,20,68513,2,0,L|256:56,2,18.7500007152558,0|0|0,0:0|0:0|0:0,0:0:0:0:
200,92,68599,6,0,L|204:140,1,25,4|0,0:0|0:0,0:0:0:0:
312,188,68772,6,0,L|308:236,1,25,4|0,0:0|0:0,0:0:0:0:
256,332,68944,6,0,L|256:372,1,25,4|0,3:0|0:0,0:0:0:0:
256,357,69289,5,4,3:0:0:0:
256,332,74806,5,0,3:0:0:0:
268,336,74892,1,0,0:0:0:0:
280,340,74979,1,2,0:0:0:0:
292,344,75065,1,0,0:0:0:0:
304,348,75151,1,0,0:0:0:0:
368,308,75324,1,0,3:0:0:0:
440,332,75496,5,2,0:0:0:0:
452,336,75582,1,0,0:0:0:0:
464,340,75668,2,0,L|460:379,1,37.5000014305115,0|0,0:0|0:0,0:0:0:0:
420,220,75841,2,0,L|423:259,1,37.5000014305115,0|0,3:0|0:0,0:0:0:0:
464,100,76013,2,0,L|460:139,1,37.5000014305115,0|0,0:0|0:0,0:0:0:0:
423,17,76186,5,0,0:0:0:0:
356,52,76358,1,0,3:0:0:0:
352,60,76444,1,0,0:0:0:0:
348,68,76530,1,0,0:0:0:0:
284,28,76703,5,0,0:0:0:0:
280,20,76789,1,0,0:0:0:0:
276,12,76875,2,0,L|212:17,1,37.5000014305115,0|0,3:0|0:0,0:0:0:0:
258,179,77048,2,0,L|321:173,1,37.5000014305115,2|0,0:0|0:0,0:0:0:0:
184,86,77221,2,0,L|189:149,1,37.5000014305115,0|0,3:0|0:0,0:0:0:0:
351,105,77392,2,0,L|345:41,1,37.5000014305115,0|0,0:0|0:0,0:0:0:0:
258,179,77565,5,2,3:0:0:0:
248,192,77651,2,0,L|244:288,1,75.0000028610231,0|0,0:0|0:0,0:0:0:0:
340,368,77824,1,0,0:0:0:0:
386,314,77910,2,0,B|354:296|354:296|294:302,1,75.0000028610231,0|0,0:0|0:0,0:0:0:0:
166,315,78082,2,0,L|77:322,1,75.0000028610231,0|0,0:0|0:0,0:0:0:0:
241,341,78255,2,0,L|244:266,1,75.0000028610231,0|0,0:0|0:0,0:0:0:0:
198,40,78427,1,0,0:0:0:0:
194,44,78513,1,0,0:0:0:0:
190,48,78599,2,0,L|186:122,1,75.0000028610231,0|0,0:0|0:0,0:0:0:0:
324,228,78772,2,0,L|412:220,1,75.0000028610231,0|0,0:0|0:0,0:0:0:0:
243,266,78944,6,0,P|256:289|303:314,1,50,2|0,0:0|0:0,0:0:0:0:
256,308,79030,2,0,P|281:315|333:299,1,50,0|0,0:0|0:0,0:0:0:0:
294,328,79117,2,0,P|317:314|342:267,1,50,0|0,0:0|0:0,0:0:0:0:
335,315,79203,2,0,P|341:289|325:237,1,50,2|2,0:0|0:0,0:0:0:0:
355,277,79289,6,0,P|341:253|294:228,1,50,2|2,0:0|0:0,0:0:0:0:
324,228,79375,2,0,P|297:221|246:237,1,50,2|2,0:0|0:0,0:0:0:0:
267,215,79461,2,0,P|240:221|189:206,1,50,2|2,0:0|0:0,0:0:0:0:
210,227,79548,2,0,P|186:213|161:166,1,50,2|0,0:0|0:0,0:0:0:0:
161,195,79634,6,0,P|154:168|169:117,1,50,2|0,0:0|0:0,0:0:0:0:
186,126,79720,2,0,P|200:103|247:78,1,50,2|0,0:0|0:0,0:0:0:0:
253,97,79806,2,0,P|279:90|330:105,1,50,2|0,0:0|0:0,0:0:0:0:
321,122,79892,2,0,P|344:136|369:183,1,50,2|0,0:0|0:0,0:0:0:0:
351,189,79979,1,2,0:0:0:0:
351,189,80324,5,2,0:0:0:0:
308,244,80410,1,0,0:0:0:0:
266,300,80496,1,0,0:0:0:0:
224,356,80582,1,0,0:0:0:0:
143,163,80668,5,8,0:0:0:0:
212,172,80754,1,0,0:0:0:0:
281,181,80840,1,0,0:0:0:0:
351,189,80926,1,0,0:0:0:0:
224,356,81013,5,2,0:0:0:0:
197,291,81099,1,0,0:0:0:0:
170,227,81185,1,0,0:0:0:0:
142,162,81271,1,0,0:0:0:0:
212,172,81358,1,8,0:0:0:0:
281,181,81444,1,0,0:0:0:0:
351,189,81530,5,2,3:0:0:0:
308,244,81617,1,0,0:0:0:0:
322,124,81703,1,2,0:0:0:0:
322,124,81875,5,0,0:0:0:0:
351,189,81961,2,0,L|428:198,1,71.5000009819031,2|8,0:0|0:0,0:0:0:0:
197,293,82134,1,0,0:0:0:0:
225,357,82220,2,0,L|301:366,1,71.5000009819031,2|0,0:0|0:0,0:0:0:0:
99,222,82392,5,2,0:0:0:0:
168,229,82479,1,0,0:0:0:0:
71,157,82565,5,2,0:0:0:0:
141,165,82652,1,0,0:0:0:0:
44,93,82737,5,8,0:0:0:0:
113,100,82824,1,0,0:0:0:0:
17,28,82909,5,2,0:0:0:0:
87,36,82996,1,0,0:0:0:0:
252,115,83082,5,2,0:0:0:0:
183,108,83168,1,0,0:0:0:0:
113,100,83255,1,0,0:0:0:0:
44,93,83342,1,0,0:0:0:0:
156,43,83427,5,8,0:0:0:0:
225,51,83513,1,0,0:0:0:0:
295,58,83600,1,0,0:0:0:0:
364,66,83687,1,0,0:0:0:0:
279,180,83772,5,2,0:0:0:0:
210,172,83858,1,0,0:0:0:0:
141,165,83944,1,0,0:0:0:0:
71,157,84030,1,0,0:0:0:0:
113,100,84117,1,8,0:0:0:0:
156,43,84203,1,0,0:0:0:0:
183,108,84289,5,2,3:0:0:0:
71,157,84375,1,0,0:0:0:0:
87,36,84461,1,2,0:0:0:0:
87,36,84634,5,0,0:0:0:0:
113,100,84720,2,0,L|190:109,1,71.5000009819031,2|8,0:0|0:0,0:0:0:0:
30,214,84892,1,0,0:0:0:0:
56,279,84978,2,0,L|133:288,1,71.5000009819031,2|0,0:0|0:0,0:0:0:0:
415,238,85151,5,2,0:0:0:0:
346,230,85237,1,0,0:0:0:0:
287,64,85324,5,2,0:0:0:0:
339,110,85410,1,0,0:0:0:0:
289,280,85496,5,8,0:0:0:0:
275,211,85582,1,0,0:0:0:0:
413,103,85669,5,2,0:0:0:0:
386,167,85755,1,2,0:0:0:0:
211,172,85841,5,6,0:0:0:0:
141,165,85927,1,0,0:0:0:0:
113,101,86013,1,0,0:0:0:0:
183,109,86099,1,0,0:0:0:0:
346,230,86186,5,8,0:0:0:0:
374,295,86272,1,0,0:0:0:0:
332,350,86358,1,0,0:0:0:0:
304,285,86444,1,0,0:0:0:0:
329,85,86530,5,2,0:0:0:0:
369,27,86616,1,0,0:0:0:0:
439,36,86702,1,0,0:0:0:0:
397,93,86788,1,0,0:0:0:0:
329,85,86875,1,8,0:0:0:0:
369,27,86961,1,0,0:0:0:0:
439,36,87048,5,2,3:0:0:0:
356,148,87134,1,2,3:0:0:0:
223,103,87220,1,2,0:0:0:0:
223,103,87392,5,0,0:0:0:0:
264,165,87478,2,0,L|254:242,1,71.5000009819031,2|8,0:0|0:0,0:0:0:0:
74,374,87651,1,0,0:0:0:0:
34,312,87737,2,0,L|43:231,1,71.5000009819031,2|0,0:0|0:0,0:0:0:0:
223,103,87910,5,2,0:0:0:0:
154,115,87996,1,0,0:0:0:0:
264,165,88082,5,2,0:0:0:0:
195,177,88168,1,0,0:0:0:0:
305,226,88255,5,8,0:0:0:0:
236,239,88341,1,0,0:0:0:0:
346,288,88427,5,2,0:0:0:0:
276,300,88513,1,0,0:0:0:0:
85,128,88599,5,2,0:0:0:0:
154,115,88686,1,0,0:0:0:0:
223,103,88772,1,0,0:0:0:0:
293,91,88858,1,0,0:0:0:0:
221,290,88944,5,8,0:0:0:0:
176,236,89031,1,0,0:0:0:0:
130,182,89117,1,0,0:0:0:0:
85,128,89203,1,0,0:0:0:0:
294,90,89289,5,2,0:0:0:0:
269,156,89375,1,0,0:0:0:0:
245,223,89461,1,0,0:0:0:0:
221,290,89548,1,0,0:0:0:0:
176,236,89634,1,8,0:0:0:0:
130,182,89720,1,0,0:0:0:0:
85,128,89806,5,2,3:0:0:0:
154,114,89892,1,0,0:0:0:0:
61,195,89979,1,2,0:0:0:0:
61,195,90151,5,0,0:0:0:0:
85,128,90237,2,0,L|136:189,1,71.5000009819031,2|8,0:0|0:0,0:0:0:0:
86,305,90410,1,0,0:0:0:0:
62,373,90496,2,0,L|14:315,1,71.5000009819031,2|0,0:0|0:0,0:0:0:0:
311,245,90668,5,2,0:0:0:0:
242,258,90755,1,0,0:0:0:0:
173,271,90841,2,0,L|177:219,2,35.7500004909515,2|0|2,0:0|0:0|0:0,0:0:0:0:
372,288,91012,5,10,0:0:0:0:
376,292,91099,1,2,0:0:0:0:
380,296,91186,2,0,L|488:300,1,71.5000009819031,2|0,0:0|0:0,0:0:0:0:
492,216,91358,5,6,0:0:0:0:
486,210,91444,1,0,0:0:0:0:
492,205,91530,1,0,0:0:0:0:
497,210,91617,1,0,0:0:0:0:
300,332,91703,5,8,0:0:0:0:
294,326,91789,1,0,0:0:0:0:
300,321,91875,1,0,0:0:0:0:
305,326,91962,1,0,0:0:0:0:
168,140,92048,5,2,0:0:0:0:
162,134,92134,1,0,0:0:0:0:
168,129,92220,1,0,0:0:0:0:
173,134,92307,1,0,0:0:0:0:
239,91,92392,2,0,B|252:128|252:128|241:161,1,71.5000009819031,8|0,0:0|0:0,0:0:0:0:
104,272,92565,2,0,L|112:372,1,71.5000009819031,2|2,3:0|3:0,0:0:0:0:
176,384,92737,1,2,0:0:0:0:
176,384,92910,5,0,0:0:0:0:
228,324,92996,2,0,L|299:329,1,71.5000009819031,2|8,0:0|0:0,0:0:0:0:
452,384,93168,1,0,0:0:0:0:
512,324,93255,2,0,B|520:288|520:288|504:228,1,71.5000009819031,2|0,0:0|0:0,0:0:0:0:
292,108,93427,6,0,P|276:144|288:176,1,71.5000009819031,2|0,0:0|0:0,0:0:0:0:
364,180,93599,2,0,P|380:144|368:112,1,71.5000009819031,0|0,3:0|3:0,0:0:0:0:
223,252,93772,6,0,L|227:323,1,71.5000009819031,2|0,3:2|3:0,0:0:0:0:
432,44,93944,2,0,B|404:24|404:24|332:28,1,71.5000009819031,2|0,3:2|3:0,0:0:0:0:
360,252,94117,5,2,0:0:0:0:
367,253,94203,1,0,0:0:0:0:
375,253,94289,1,0,0:0:0:0:
383,250,94375,1,0,0:0:0:0:
216,136,94461,5,8,0:0:0:0:
208,133,94547,1,0,0:0:0:0:
200,133,94633,1,0,0:0:0:0:
192,134,94719,1,0,0:0:0:0:
38,207,94806,5,2,0:0:0:0:
30,210,94892,1,0,0:0:0:0:
22,210,94978,1,0,0:0:0:0:
14,209,95064,1,0,0:0:0:0:
104,168,95151,2,0,B|116:201|116:201|103:256,1,71.5000009819031,8|0,0:0|0:0,0:0:0:0:
37,29,95324,2,0,B|70:17|70:17|125:30,1,71.5000009819031,2|0,3:0|0:0,0:0:0:0:
152,80,95496,1,2,0:0:0:0:
152,80,95668,5,0,0:0:0:0:
221,41,95755,2,0,L|228:128,1,71.5000009819031,2|8,0:0|0:0,0:0:0:0:
148,316,95927,1,0,0:0:0:0:
107,236,96013,2,0,B|139:225|139:225|176:231,1,71.5000009819031,2|0,0:0|0:0,0:0:0:0:
388,288,96186,6,0,L|475:295,1,71.5000009819031,2|0,0:0|0:0,0:0:0:0:
464,224,96358,2,0,L|392:218,1,71.5000009819031,2|2,0:0|0:0,0:0:0:0:
148,316,96530,6,0,L|76:310,1,71.5000009819031,2|2,0:0|0:0,0:0:0:0:
0,144,96703,2,0,L|87:151,1,71.5000009819031,2|2,0:0|0:0,0:0:0:0:
243,28,96875,5,6,0:0:0:0:
246,4,96961,1,0,0:0:0:0:
225,18,97048,1,0,0:0:0:0:
221,41,97134,1,0,0:0:0:0:
328,258,97220,5,8,0:0:0:0:
322,185,97306,1,0,0:0:0:0:
392,218,97392,1,0,0:0:0:0:
398,291,97478,1,0,0:0:0:0:
428,16,97565,5,2,0:0:0:0:
509,42,97651,1,0,0:0:0:0:
509,128,97737,1,0,0:0:0:0:
428,154,97824,1,0,0:0:0:0:
377,85,97910,2,0,B|344:72|344:72|296:84,1,71.5000009819031,8|0,0:0|0:0,0:0:0:0:
188,180,98082,2,0,L|107:181,1,71.5000009819031,2|2,3:0|3:0,0:0:0:0:
4,80,98255,1,2,0:0:0:0:
4,80,98427,5,0,0:0:0:0:
72,40,98513,2,0,B|84:72|84:72|72:128,1,71.5000009819031,2|8,0:0|0:0,0:0:0:0:
256,320,98686,1,0,0:0:0:0:
328,258,98772,2,0,L|415:265,1,71.5000009819031,2|0,0:0|0:0,0:0:0:0:
48,284,98944,6,0,B|28:260|28:260|36:204,1,71.5000009819031,2|0,0:0|0:0,0:0:0:0:
253,167,99117,2,0,B|255:198|255:198|215:238,1,71.5000009819031,2|0,0:0|0:0,0:0:0:0:
19,141,99289,2,0,B|35:114|35:114|91:104,1,71.5000009819031,2|2,0:0|0:0,0:0:0:0:
192,299,99461,2,0,B|162:310|162:310|112:285,1,71.5000009819031,2|2,0:0|0:0,0:0:0:0:
146,69,99633,5,2,0:0:0:0:
170,76,99719,1,0,0:0:0:0:
186,94,99806,1,0,0:0:0:0:
189,117,99892,1,0,0:0:0:0:
226,226,99979,5,8,0:0:0:0:
282,184,100065,1,0,0:0:0:0:
302,116,100151,1,0,0:0:0:0:
279,50,100237,1,0,0:0:0:0:
428,98,100324,5,2,0:0:0:0:
381,173,100410,1,0,0:0:0:0:
383,261,100496,1,0,0:0:0:0:
430,335,100582,1,0,0:0:0:0:
510,372,100668,2,0,P|519:341|501:289,1,71.5000009819031,8|0,0:0|0:0,0:0:0:0:
302,116,100841,2,0,P|271:107|219:125,1,71.5000009819031,2|0,3:0|0:0,0:0:0:0:
456,168,101013,1,6,0:0:0:0:
456,168,101186,5,0,0:0:0:0:
512,220,101272,2,0,P|440:244|384:144,1,200,6|0,0:0|0:0,0:0:0:0:
381,152,101530,2,0,P|332:128|272:152,1,100,6|0,0:0|0:0,0:0:0:0:
224,184,101703,1,2,0:0:0:0:
228,188,101789,2,0,L|187:183,4,25,2|0|0|0|2,0:0|0:0|0:0|0:0|0:0,0:0:0:0:
228,188,102048,5,2,0:0:0:0:
292,244,102134,1,2,0:0:0:0:
216,344,102220,1,2,0:0:0:0:
216,344,102392,6,0,P|180:332|128:344,1,75.0000028610231,4|0,0:0|0:0,0:0:0:0:
128,332,102651,2,0,P|94:348|65:394,1,75.0000028610231,0|0,0:0|0:0,0:0:0:0:
16,244,102996,1,0,0:0:0:0:
32,256,103082,2,0,P|56:256|88:236,1,37.5000014305115,2|0,0:0|0:0,0:0:0:0:
148,200,103255,2,0,P|164:183|173:146,1,37.5000014305115,0|0,0:0|0:0,0:0:0:0:
120,40,103427,1,8,0:0:0:0:
104,52,103513,2,0,P|92:80|116:144,1,75.0000028610231,0|0,0:0|0:0,0:0:0:0:
170,171,103772,6,0,L|288:168,1,100,2|0,0:0|0:0,0:0:0:0:
373,259,104030,1,0,0:0:0:0:
365,246,104117,2,0,L|338:203,1,50,8|0,0:0|0:0,0:0:0:0:
364,81,104289,2,0,L|340:124,1,50,0|0,0:0|0:0,0:0:0:0:
504,162,104461,5,2,0:0:0:0:
456,164,104548,1,0,0:0:0:0:
408,166,104634,1,0,0:0:0:0:
317,359,104806,1,8,0:0:0:0:
304,343,104892,2,0,P|298:315|303:277,1,50,0|0,0:0|0:0,0:0:0:0:
281,165,105065,1,2,0:0:0:0:
340,124,105151,6,0,P|360:73|283:22,1,125,2|0,0:0|0:0,0:0:0:0:
244,4,105410,2,0,P|189:12|184:104,1,125,0|0,0:0|0:0,0:0:0:0:
140,144,105668,2,0,P|95:176|26:115,1,125,0|2,0:0|0:0,0:0:0:0:
12,56,105927,5,0,0:0:0:0:
72,16,106013,2,0,P|84:48|68:100,1,62.5,0|0,0:0|0:0,0:0:0:0:
64,280,106186,1,8,0:0:0:0:
0,320,106272,2,0,P|52:354|136:308,1,125,0|0,0:0|0:0,0:0:0:0:
244,268,106530,6,0,P|280:256|344:272,1,75.0000028610231,2|0,0:0|0:0,0:0:0:0:
452,300,106703,2,0,P|485:316|519:373,1,75.0000028610231,0|0,0:0|0:0,0:0:0:0:
253,340,106875,2,0,P|241:304|243:267,1,75.0000028610231,8|0,0:0|0:0,0:0:0:0:
464,60,107048,2,0,P|440:96|324:64,1,150.000005722046,0|2,0:0|0:0,0:0:0:0:
188,48,107306,5,0,0:0:0:0:
256,4,107392,2,0,P|268:40|252:92,1,75.0000028610231,0|0,0:0|0:0,0:0:0:0:
96,232,107565,1,8,0:0:0:0:
16,188,107651,2,0,P|4:224|20:276,1,75.0000028610231,0|0,0:0|0:0,0:0:0:0:
188,336,107824,1,10,0:0:0:0:
260,312,107910,1,2,0:0:0:0:
332,340,107996,1,0,0:0:0:0:
404,312,108082,2,0,P|416:348|408:388,1,75.0000028610231,0|0,0:0|0:0,0:0:0:0:
258,150,108255,6,0,L|262:46,1,75.0000028610231,8|0,0:0|0:0,0:0:0:0:
464,184,108427,2,0,P|408:228|336:212,1,150.000005722046,0|2,0:0|0:0,0:0:0:0:
260,75,108686,1,0,0:0:0:0:
196,28,108772,2,0,P|180:67|196:116,1,75.0000028610231,0|0,0:0|0:0,0:0:0:0:
260,312,108944,1,8,0:0:0:0:
321,269,109030,2,0,P|337:308|321:357,1,75.0000028610231,0|0,0:0|0:0,0:0:0:0:
272,384,109203,1,0,0:0:0:0:
28,232,109375,5,0,0:0:0:0:
16,248,109461,2,0,L|88:244,1,62.5,0|0,0:0|0:0,0:0:0:0:
185,98,109634,2,0,L|122:101,1,62.5,8|0,0:0|0:0,0:0:0:0:
140,184,109806,2,0,L|276:176,1,125,0|2,0:0|0:0,0:0:0:0:
376,224,110065,5,0,0:0:0:0:
392,212,110151,2,0,L|388:284,1,62.5,0|0,0:0|0:0,0:0:0:0:
340,136,110324,2,0,L|343:73,1,62.5,8|2,0:0|0:0,0:0:0:0:
418,24,110496,1,0,0:0:0:0:
421,28,110582,1,2,0:0:0:0:
425,32,110668,5,2,0:0:0:0:
451,181,110841,1,0,0:0:0:0:
343,73,111013,1,8,0:0:0:0:
492,97,111186,1,0,0:0:0:0:
359,165,111358,5,2,0:0:0:0:
288,168,111530,1,2,0:0:0:0:
217,171,111703,1,2,0:0:0:0:
212,180,111789,1,2,0:0:0:0:
207,189,111875,2,0,L|203:238,1,50,0|2,0:0|0:0,0:0:0:0:
195,336,112048,5,4,0:0:0:0:
195,336,112306,5,4,0:0:0:0:
195,336,112565,5,4,0:0:0:0:
195,336,112737,6,0,L|192:373,1,37.5000014305115,2|0,0:0|0:0,0:0:0:0:
203,238,112910,6,0,L|206:201,4,37.5000014305115,2|0|0|0|2,1:0|0:0|0:0|0:0|0:0,0:0:0:0:
115,281,113341,6,0,L|96:281,1,18.7500007152558,2|0,3:0|0:0,0:0:0:0:
