osu file format v14

[General]
AudioFilename: audio.mp3
AudioLeadIn: 0
PreviewTime: 77565
Countdown: 0
SampleSet: None
StackLeniency: 0.3
Mode: 0
LetterboxInBreaks: 0
WidescreenStoryboard: 1

[Editor]
Bookmarks: 324,3082,14117,25151,36186,47220,58255,69289,77565,80324,91358,102392
DistanceSpacing: 2
BeatDivisor: 4
GridSize: 4
TimelineZoom: 2.100001

[Metadata]
Title:polygon
TitleUnicode:polygon
Artist:Sota Fujimori
ArtistUnicode:Sota Fujimori
Creator:DT-sama
Version:non me lo fa mettere il nome greco
Source:lezione di geometria delle elementari
Tags:poligoni trapezi quadrati quadrilateri forme triangoli angoli piĆ¹ angoli che uno due o anche tre
BeatmapID:1353964
BeatmapSetID:638249

[Difficulty]
HPDrainRate:6
CircleSize:4
OverallDifficulty:9.7
ApproachRate:9.7
SliderMultiplier:2
SliderTickRate:1

[Events]
//Background and Video events
0,0,"triangeles.png",0,0
//Break Periods
2,47075,51897
2,52937,57242
2,69489,77415
//Storyboard Layer 0 (Background)
//Storyboard Layer 1 (Fail)
//Storyboard Layer 2 (Pass)
//Storyboard Layer 3 (Foreground)
//Storyboard Sound Samples

[TimingPoints]
324,344.827586206897,4,3,0,70,1,0

[Colours]
Combo1 : 255,136,255
Combo2 : 255,155,106
Combo3 : 100,170,255
Combo4 : 243,56,84

[HitObjects]
88,144,3082,5,0,0:0:0:0:
88,160,3168,1,0,0:0:0:0:
48,196,3255,1,0,0:0:0:0:
48,220,3341,1,0,0:0:0:0:
116,256,3427,1,0,0:0:0:0:
128,268,3513,1,0,0:0:0:0:
232,292,3599,1,0,0:0:0:0:
132,96,3772,5,0,0:0:0:0:
116,108,3858,1,0,0:0:0:0:
68,184,3944,1,0,0:0:0:0:
372,208,4117,5,0,0:0:0:0:
380,188,4203,1,0,0:0:0:0:
464,176,4289,1,0,0:0:0:0:
460,160,4375,1,0,0:0:0:0:
396,104,4461,5,0,0:0:0:0:
308,328,4634,1,0,0:0:0:0:
296,320,4720,1,0,0:0:0:0:
252,272,4806,1,0,0:0:0:0:
132,52,4979,5,0,0:0:0:0:
120,68,5065,1,0,0:0:0:0:
132,124,5151,1,0,0:0:0:0:
192,148,5237,1,0,0:0:0:0:
240,108,5324,1,0,0:0:0:0:
232,48,5410,1,0,0:0:0:0:
168,20,5496,5,0,0:0:0:0:
132,124,5841,5,0,0:0:0:0:
120,132,5927,1,0,0:0:0:0:
64,200,6013,1,0,0:0:0:0:
88,216,6099,1,0,0:0:0:0:
176,268,6186,1,0,0:0:0:0:
144,296,6272,1,0,0:0:0:0:
56,332,6358,1,0,0:0:0:0:
208,176,6530,5,0,0:0:0:0:
236,168,6617,1,0,0:0:0:0:
304,200,6703,1,0,0:0:0:0:
364,164,6789,1,0,0:0:0:0:
360,88,6875,1,0,0:0:0:0:
292,56,6961,1,0,0:0:0:0:
228,92,7048,5,0,0:0:0:0:
312,144,7220,5,0,0:0:0:0:
344,140,7306,1,0,0:0:0:0:
400,84,7392,1,0,0:0:0:0:
432,100,7479,1,0,0:0:0:0:
464,188,7565,1,0,0:0:0:0:
364,336,7737,5,0,0:0:0:0:
384,312,7823,1,0,0:0:0:0:
372,228,7909,1,0,0:0:0:0:
292,56,8082,5,0,0:0:0:0:
88,60,8255,5,0,0:0:0:0:
108,136,8341,1,0,0:0:0:0:
184,176,8427,1,0,0:0:0:0:
168,216,8513,1,0,0:0:0:0:
104,272,8599,5,0,0:0:0:0:
116,284,8686,1,0,0:0:0:0:
200,296,8772,1,0,0:0:0:0:
228,284,8858,1,0,0:0:0:0:
280,208,8944,1,0,0:0:0:0:
392,48,9117,5,0,0:0:0:0:
384,76,9203,1,0,0:0:0:0:
308,96,9289,1,0,0:0:0:0:
316,116,9375,1,0,0:0:0:0:
376,160,9461,1,0,0:0:0:0:
368,192,9548,1,0,0:0:0:0:
320,264,9634,1,0,0:0:0:0:
44,80,9806,5,0,0:0:0:0:
188,104,9979,5,0,0:0:0:0:
192,128,10065,1,0,0:0:0:0:
144,200,10151,1,0,0:0:0:0:
372,76,10324,1,0,0:0:0:0:
341,87,10410,1,0,0:0:0:0:
283,158,10496,5,0,0:0:0:0:
288,176,10582,1,0,0:0:0:0:
335,227,10669,1,0,0:0:0:0:
313,296,10755,1,0,0:0:0:0:
242,308,10841,1,0,0:0:0:0:
194,257,10927,1,0,0:0:0:0:
215,191,11013,5,0,0:0:0:0:
416,44,11358,5,0,0:0:0:0:
392,48,11444,1,0,0:0:0:0:
364,60,11530,1,0,0:0:0:0:
348,88,11617,1,0,0:0:0:0:
368,112,11703,1,0,0:0:0:0:
392,144,11789,1,0,0:0:0:0:
392,184,11875,1,0,0:0:0:0:
364,216,11961,1,0,0:0:0:0:
320,228,12048,5,0,0:0:0:0:
268,208,12134,1,0,0:0:0:0:
208,224,12220,1,0,0:0:0:0:
176,272,12306,1,0,0:0:0:0:
192,328,12392,1,0,0:0:0:0:
244,360,12479,1,0,0:0:0:0:
312,352,12565,1,0,0:0:0:0:
348,288,12651,1,0,0:0:0:0:
304,224,12737,5,0,0:0:0:0:
280,168,12824,1,0,0:0:0:0:
292,112,12910,1,0,0:0:0:0:
280,56,12996,1,0,0:0:0:0:
308,224,13082,5,0,0:0:0:0:
264,160,13169,1,0,0:0:0:0:
312,104,13255,1,0,0:0:0:0:
272,32,13341,1,0,0:0:0:0:
240,96,13427,5,0,0:0:0:0:
292,160,13513,1,0,0:0:0:0:
264,224,13600,1,0,0:0:0:0:
312,280,13686,1,0,0:0:0:0:
224,92,13772,5,0,0:0:0:0:
336,172,13858,1,0,0:0:0:0:
236,224,13945,1,0,0:0:0:0:
348,288,14031,1,0,0:0:0:0:
244,360,14117,5,0,0:0:0:0:
468,36,14461,5,0,0:0:0:0:
64,164,14806,5,0,0:0:0:0:
204,64,14979,1,0,0:0:0:0:
448,220,15151,5,0,0:0:0:0:
308,320,15324,1,0,0:0:0:0:
84,44,15496,5,0,0:0:0:0:
184,184,15669,1,0,0:0:0:0:
428,340,15841,5,0,0:0:0:0:
328,200,16014,1,0,0:0:0:0:
256,192,16186,12,0,16530,0:0:0:0:
256,36,16875,5,0,0:0:0:0:
36,356,17220,5,0,0:0:0:0:
464,40,17565,5,0,0:0:0:0:
352,184,17737,1,0,0:0:0:0:
24,120,17910,5,0,0:0:0:0:
136,264,18082,1,0,0:0:0:0:
484,376,18255,5,0,0:0:0:0:
372,232,18427,1,0,0:0:0:0:
156,152,18600,5,0,0:0:0:0:
44,296,18772,1,0,0:0:0:0:
256,192,18944,12,0,19289,0:0:0:0:
480,352,19634,5,0,0:0:0:0:
28,24,19979,5,0,0:0:0:0:
472,44,20324,5,0,0:0:0:0:
228,100,20496,1,0,0:0:0:0:
120,360,20668,5,0,0:0:0:0:
176,252,20841,1,0,0:0:0:0:
40,44,21013,5,0,0:0:0:0:
284,100,21185,1,0,0:0:0:0:
336,252,21357,5,0,0:0:0:0:
392,360,21530,1,0,0:0:0:0:
256,192,21703,12,0,22048,0:0:0:0:
256,188,22392,5,0,0:0:0:0:
40,32,22737,5,0,0:0:0:0:
472,356,23082,5,0,0:0:0:0:
468,244,23255,1,0,0:0:0:0:
88,132,23427,5,0,0:0:0:0:
252,252,23599,1,0,0:0:0:0:
464,112,23772,5,0,0:0:0:0:
468,244,23944,1,0,0:0:0:0:
280,64,24117,5,0,0:0:0:0:
92,324,24289,1,0,0:0:0:0:
368,204,24461,5,0,0:0:0:0:
352,184,24548,1,0,0:0:0:0:
336,164,24634,1,0,0:0:0:0:
320,144,24806,1,0,0:0:0:0:
68,44,25151,5,0,0:0:0:0:
92,124,25237,1,0,0:0:0:0:
172,156,25324,1,0,0:0:0:0:
220,144,25410,1,0,0:0:0:0:
224,120,25496,1,0,0:0:0:0:
152,72,25668,5,0,0:0:0:0:
292,336,25841,1,0,0:0:0:0:
256,308,25927,1,0,0:0:0:0:
252,264,26013,1,0,0:0:0:0:
272,224,26099,1,0,0:0:0:0:
244,188,26186,1,0,0:0:0:0:
332,68,26358,1,0,0:0:0:0:
136,272,26530,5,0,0:0:0:0:
156,284,26617,1,0,0:0:0:0:
180,276,26703,1,0,0:0:0:0:
200,288,26789,1,0,0:0:0:0:
220,276,26875,1,0,0:0:0:0:
332,68,27048,1,0,0:0:0:0:
392,320,27220,5,0,0:0:0:0:
340,252,27392,1,0,0:0:0:0:
168,208,27565,1,0,0:0:0:0:
240,148,27737,1,0,0:0:0:0:
392,48,27910,5,0,0:0:0:0:
188,88,28082,1,0,0:0:0:0:
260,72,28168,1,0,0:0:0:0:
328,104,28255,1,0,0:0:0:0:
240,220,28427,1,0,0:0:0:0:
456,240,28599,1,0,0:0:0:0:
384,224,28685,1,0,0:0:0:0:
316,256,28772,1,0,0:0:0:0:
204,336,28944,1,0,0:0:0:0:
129,339,29030,1,0,0:0:0:0:
64,296,29117,1,0,0:0:0:0:
60,220,29203,1,0,0:0:0:0:
112,168,29289,5,0,0:0:0:0:
376,296,29461,1,0,0:0:0:0:
380,116,29634,5,0,0:0:0:0:
116,244,29806,1,0,0:0:0:0:
116,52,29979,5,0,0:0:0:0:
192,112,30065,1,0,0:0:0:0:
264,56,30151,1,0,0:0:0:0:
380,192,30324,1,0,0:0:0:0:
508,8,30496,1,0,0:0:0:0:
380,192,30668,5,0,0:0:0:0:
376,277,30754,1,0,0:0:0:0:
441,333,30841,1,0,0:0:0:0:
490,337,30927,1,0,0:0:0:0:
501,316,31013,1,0,0:0:0:0:
449,247,31185,5,0,0:0:0:0:
244,40,31358,1,0,0:0:0:0:
280,68,31444,1,0,0:0:0:0:
284,112,31530,1,0,0:0:0:0:
264,152,31616,1,0,0:0:0:0:
292,188,31703,1,0,0:0:0:0:
204,308,31875,1,0,0:0:0:0:
400,104,32048,5,0,0:0:0:0:
380,92,32135,1,0,0:0:0:0:
356,100,32221,1,0,0:0:0:0:
336,88,32307,1,0,0:0:0:0:
316,100,32393,1,0,0:0:0:0:
204,308,32566,1,0,0:0:0:0:
120,64,32737,5,0,0:0:0:0:
172,132,32909,1,0,0:0:0:0:
344,176,33082,1,0,0:0:0:0:
272,236,33254,1,0,0:0:0:0:
120,336,33427,5,0,0:0:0:0:
324,296,33599,1,0,0:0:0:0:
252,312,33685,1,0,0:0:0:0:
184,280,33772,1,0,0:0:0:0:
272,164,33944,1,0,0:0:0:0:
56,144,34116,1,0,0:0:0:0:
128,160,34202,1,0,0:0:0:0:
196,128,34289,1,0,0:0:0:0:
308,48,34461,1,0,0:0:0:0:
383,45,34547,1,0,0:0:0:0:
448,88,34634,1,0,0:0:0:0:
452,164,34720,1,0,0:0:0:0:
400,216,34806,5,0,0:0:0:0:
88,24,35065,5,0,0:0:0:0:
92,372,35324,5,0,0:0:0:0:
256,192,35582,12,0,36013,0:0:0:0:
408,40,36186,5,0,0:0:0:0:
424,68,36272,1,0,0:0:0:0:
388,144,36358,1,0,0:0:0:0:
376,172,36444,1,0,0:0:0:0:
432,256,36530,1,0,0:0:0:0:
184,316,36703,1,0,0:0:0:0:
432,256,36875,5,0,0:0:0:0:
308,224,37048,1,0,0:0:0:0:
288,272,37134,1,0,0:0:0:0:
336,352,37220,1,0,0:0:0:0:
384,160,37392,1,0,0:0:0:0:
284,56,37565,5,0,0:0:0:0:
296,108,37651,1,0,0:0:0:0:
384,160,37737,1,0,0:0:0:0:
376,188,37824,1,0,0:0:0:0:
312,248,37910,1,0,0:0:0:0:
176,264,38082,5,0,0:0:0:0:
180,280,38168,1,0,0:0:0:0:
232,320,38255,1,0,0:0:0:0:
376,324,38427,5,0,0:0:0:0:
364,336,38513,1,0,0:0:0:0:
328,352,38599,1,0,0:0:0:0:
152,348,38772,1,0,0:0:0:0:
240,204,38944,5,0,0:0:0:0:
104,240,39117,1,0,0:0:0:0:
80,200,39203,1,0,0:0:0:0:
156,148,39290,1,0,0:0:0:0:
324,152,39461,5,0,0:0:0:0:
240,204,39634,1,0,0:0:0:0:
260,236,39720,1,0,0:0:0:0:
344,264,39806,1,0,0:0:0:0:
232,52,39979,5,0,0:0:0:0:
452,92,40151,5,0,0:0:0:0:
440,120,40237,1,0,0:0:0:0:
348,152,40324,5,0,0:0:0:0:
360,172,40410,1,0,0:0:0:0:
428,200,40496,1,0,0:0:0:0:
452,272,40582,1,0,0:0:0:0:
396,320,40668,1,0,0:0:0:0:
324,296,40755,1,0,0:0:0:0:
304,224,40841,5,0,0:0:0:0:
140,68,41186,5,0,0:0:0:0:
380,244,41358,5,0,0:0:0:0:
104,344,41703,5,0,0:0:0:0:
80,128,41875,1,0,0:0:0:0:
68,156,41961,1,0,0:0:0:0:
124,240,42047,1,0,0:0:0:0:
328,68,42220,1,0,0:0:0:0:
80,128,42392,5,0,0:0:0:0:
204,160,42565,1,0,0:0:0:0:
224,112,42651,1,0,0:0:0:0:
176,32,42737,1,0,0:0:0:0:
128,224,42909,1,0,0:0:0:0:
228,328,43082,5,0,0:0:0:0:
216,276,43168,1,0,0:0:0:0:
128,224,43254,1,0,0:0:0:0:
136,196,43341,1,0,0:0:0:0:
200,136,43427,1,0,0:0:0:0:
336,120,43599,5,0,0:0:0:0:
332,104,43685,1,0,0:0:0:0:
280,64,43772,1,0,0:0:0:0:
136,60,43944,5,0,0:0:0:0:
148,48,44030,1,0,0:0:0:0:
184,32,44116,1,0,0:0:0:0:
360,36,44289,1,0,0:0:0:0:
272,180,44461,5,0,0:0:0:0:
408,144,44634,1,0,0:0:0:0:
432,184,44720,1,0,0:0:0:0:
356,236,44807,1,0,0:0:0:0:
188,232,44978,5,0,0:0:0:0:
272,180,45151,1,0,0:0:0:0:
252,148,45237,1,0,0:0:0:0:
168,120,45323,1,0,0:0:0:0:
196,76,45410,1,0,0:0:0:0:
280,332,45496,5,0,0:0:0:0:
92,324,45668,5,0,0:0:0:0:
104,296,45754,1,0,0:0:0:0:
164,232,45841,5,0,0:0:0:0:
152,212,45927,1,0,0:0:0:0:
84,184,46013,1,0,0:0:0:0:
60,112,46099,1,0,0:0:0:0:
116,64,46185,1,0,0:0:0:0:
188,88,46272,1,0,0:0:0:0:
208,160,46358,5,0,0:0:0:0:
264,212,46444,1,0,0:0:0:0:
340,212,46530,1,0,0:0:0:0:
396,164,46617,1,0,0:0:0:0:
376,92,46703,1,0,0:0:0:0:
304,116,46789,1,0,0:0:0:0:
328,188,46875,5,0,0:0:0:0:
364,120,52392,5,0,0:0:0:0:
364,120,52565,1,0,0:0:0:0:
364,120,52651,1,0,0:0:0:0:
364,120,52737,5,0,0:0:0:0:
256,192,57737,12,0,58082,0:0:0:0:
84,80,58255,5,0,0:0:0:0:
64,124,58341,1,0,0:0:0:0:
92,160,58427,1,0,0:0:0:0:
72,192,58513,1,0,0:0:0:0:
184,320,58772,5,0,0:0:0:0:
204,288,58858,1,0,0:0:0:0:
376,168,59116,5,0,0:0:0:0:
356,200,59202,1,0,0:0:0:0:
492,328,59461,5,0,0:0:0:0:
512,296,59547,1,0,0:0:0:0:
480,252,59634,5,0,0:0:0:0:
512,196,59720,1,0,0:0:0:0:
464,144,59806,1,0,0:0:0:0:
500,84,59892,1,0,0:0:0:0:
272,160,60151,5,0,0:0:0:0:
360,48,60237,1,0,0:0:0:0:
360,256,60496,5,0,0:0:0:0:
272,160,60668,5,0,0:0:0:0:
284,68,60755,1,0,0:0:0:0:
272,160,61186,1,0,0:0:0:0:
228,116,61272,1,0,0:0:0:0:
272,160,61703,1,0,0:0:0:0:
244,160,61789,1,0,0:0:0:0:
272,160,62220,1,0,0:0:0:0:
272,172,62306,1,0,0:0:0:0:
256,192,62392,12,0,63427,0:0:0:0:
428,304,63772,5,0,0:0:0:0:
448,260,63858,1,0,0:0:0:0:
420,224,63944,1,0,0:0:0:0:
440,192,64030,1,0,0:0:0:0:
328,64,64289,5,0,0:0:0:0:
308,96,64375,1,0,0:0:0:0:
136,216,64633,5,0,0:0:0:0:
156,184,64719,1,0,0:0:0:0:
20,56,64978,5,0,0:0:0:0:
0,88,65064,1,0,0:0:0:0:
32,132,65151,5,0,0:0:0:0:
0,188,65237,1,0,0:0:0:0:
48,240,65323,1,0,0:0:0:0:
12,300,65409,1,0,0:0:0:0:
240,224,65668,5,0,0:0:0:0:
152,336,65754,1,0,0:0:0:0:
152,128,66013,5,0,0:0:0:0:
240,224,66185,5,0,0:0:0:0:
228,316,66272,1,0,0:0:0:0:
368,52,66530,5,0,0:0:0:0:
240,224,66703,5,0,0:0:0:0:
280,268,66789,1,0,0:0:0:0:
136,60,67220,1,0,0:0:0:0:
108,60,67306,1,0,0:0:0:0:
424,344,67565,5,0,0:0:0:0:
240,224,67737,1,0,0:0:0:0:
240,212,67823,1,0,0:0:0:0:
240,200,67910,5,0,0:0:0:0:
196,260,67996,1,0,0:0:0:0:
232,328,68082,5,0,0:0:0:0:
276,268,68168,1,0,0:0:0:0:
204,204,68255,1,0,0:0:0:0:
280,132,68341,1,0,0:0:0:0:
208,64,68427,1,0,0:0:0:0:
136,132,68513,1,0,0:0:0:0:
256,192,68599,12,0,69289,0:0:0:0:
256,192,77910,12,0,79979,0:0:0:0:
472,52,80324,5,0,0:0:0:0:
440,92,80410,1,0,0:0:0:0:
408,132,80496,1,0,0:0:0:0:
376,168,80582,1,0,0:0:0:0:
276,268,80668,5,0,0:0:0:0:
260,236,80755,1,0,0:0:0:0:
248,204,80841,1,0,0:0:0:0:
236,172,80927,1,0,0:0:0:0:
172,16,81013,5,0,0:0:0:0:
156,36,81099,1,0,0:0:0:0:
140,56,81186,1,0,0:0:0:0:
124,76,81272,1,0,0:0:0:0:
52,196,81358,5,0,0:0:0:0:
60,204,81444,1,0,0:0:0:0:
68,212,81530,1,0,0:0:0:0:
76,220,81617,1,0,0:0:0:0:
176,284,81703,5,0,0:0:0:0:
184,275,81789,1,0,0:0:0:0:
292,200,82047,5,0,0:0:0:0:
232,152,82133,1,0,0:0:0:0:
236,76,82220,1,0,0:0:0:0:
296,32,82306,1,0,0:0:0:0:
368,56,82392,1,0,0:0:0:0:
400,124,82478,1,0,0:0:0:0:
368,192,82564,5,0,0:0:0:0:
360,180,82651,1,0,0:0:0:0:
352,168,82737,1,0,0:0:0:0:
344,156,82824,1,0,0:0:0:0:
304,116,82910,5,0,0:0:0:0:
40,332,83082,5,0,0:0:0:0:
52,312,83168,1,0,0:0:0:0:
64,292,83254,1,0,0:0:0:0:
76,272,83340,1,0,0:0:0:0:
120,60,83426,5,0,0:0:0:0:
132,76,83513,1,0,0:0:0:0:
144,92,83599,1,0,0:0:0:0:
156,108,83685,1,0,0:0:0:0:
264,328,83771,5,0,0:0:0:0:
268,312,83857,1,0,0:0:0:0:
272,296,83944,1,0,0:0:0:0:
276,280,84030,1,0,0:0:0:0:
316,48,84117,5,0,0:0:0:0:
320,56,84203,1,0,0:0:0:0:
324,64,84289,1,0,0:0:0:0:
328,72,84375,1,0,0:0:0:0:
364,172,84461,5,0,0:0:0:0:
356,181,84547,1,0,0:0:0:0:
220,184,84805,5,0,0:0:0:0:
280,232,84891,1,0,0:0:0:0:
276,308,84978,1,0,0:0:0:0:
216,352,85064,1,0,0:0:0:0:
144,328,85150,1,0,0:0:0:0:
112,260,85236,1,0,0:0:0:0:
144,192,85322,5,0,0:0:0:0:
152,204,85409,1,0,0:0:0:0:
160,216,85495,1,0,0:0:0:0:
168,228,85582,1,0,0:0:0:0:
200,264,85668,5,0,0:0:0:0:
464,64,85841,5,0,0:0:0:0:
416,76,85927,1,0,0:0:0:0:
368,88,86013,1,0,0:0:0:0:
320,100,86099,1,0,0:0:0:0:
144,132,86186,5,0,0:0:0:0:
172,152,86272,1,0,0:0:0:0:
200,172,86358,1,0,0:0:0:0:
228,192,86444,1,0,0:0:0:0:
364,220,86530,5,0,0:0:0:0:
344,236,86616,1,0,0:0:0:0:
324,252,86702,1,0,0:0:0:0:
304,268,86788,1,0,0:0:0:0:
192,288,86875,5,0,0:0:0:0:
200,300,86961,1,0,0:0:0:0:
208,312,87047,1,0,0:0:0:0:
216,324,87133,1,0,0:0:0:0:
304,356,87220,5,0,0:0:0:0:
312,352,87306,1,0,0:0:0:0:
392,216,87565,5,0,0:0:0:0:
432,152,87651,1,0,0:0:0:0:
392,88,87737,1,0,0:0:0:0:
316,84,87824,1,0,0:0:0:0:
280,148,87910,1,0,0:0:0:0:
316,216,87996,1,0,0:0:0:0:
328,160,88082,5,0,0:0:0:0:
340,128,88168,1,0,0:0:0:0:
376,128,88255,1,0,0:0:0:0:
388,168,88341,1,0,0:0:0:0:
356,184,88427,1,0,0:0:0:0:
48,320,88599,5,0,0:0:0:0:
96,308,88685,1,0,0:0:0:0:
144,296,88771,1,0,0:0:0:0:
192,284,88857,1,0,0:0:0:0:
368,252,88944,5,0,0:0:0:0:
340,232,89030,1,0,0:0:0:0:
312,212,89116,1,0,0:0:0:0:
284,192,89202,1,0,0:0:0:0:
148,164,89288,5,0,0:0:0:0:
168,148,89374,1,0,0:0:0:0:
188,132,89460,1,0,0:0:0:0:
208,116,89546,1,0,0:0:0:0:
320,96,89633,5,0,0:0:0:0:
312,84,89719,1,0,0:0:0:0:
304,72,89805,1,0,0:0:0:0:
296,60,89891,1,0,0:0:0:0:
208,28,89978,5,0,0:0:0:0:
200,32,90064,1,0,0:0:0:0:
120,168,90323,5,0,0:0:0:0:
80,232,90409,1,0,0:0:0:0:
120,296,90495,1,0,0:0:0:0:
196,300,90582,1,0,0:0:0:0:
232,236,90668,1,0,0:0:0:0:
196,168,90754,1,0,0:0:0:0:
180,224,90841,5,0,0:0:0:0:
168,256,90927,1,0,0:0:0:0:
132,256,91014,1,0,0:0:0:0:
120,216,91100,1,0,0:0:0:0:
152,200,91186,1,0,0:0:0:0:
412,64,91358,5,0,0:0:0:0:
400,164,91444,1,0,0:0:0:0:
316,220,91530,1,0,0:0:0:0:
216,208,91617,1,0,0:0:0:0:
116,36,91703,5,0,0:0:0:0:
180,72,91789,1,0,0:0:0:0:
192,144,91875,1,0,0:0:0:0:
148,204,91961,1,0,0:0:0:0:
0,292,92048,5,0,0:0:0:0:
32,256,92134,1,0,0:0:0:0:
80,244,92220,1,0,0:0:0:0:
128,260,92306,1,0,0:0:0:0:
152,348,92392,5,0,0:0:0:0:
128,348,92479,1,0,0:0:0:0:
104,344,92565,1,0,0:0:0:0:
84,332,92651,1,0,0:0:0:0:
128,260,92737,5,0,0:0:0:0:
136,264,92824,1,0,0:0:0:0:
344,184,93082,5,0,0:0:0:0:
272,116,93168,1,0,0:0:0:0:
248,212,93255,1,0,0:0:0:0:
344,184,93341,1,0,0:0:0:0:
272,116,93427,1,0,0:0:0:0:
248,212,93513,1,0,0:0:0:0:
344,184,93599,5,0,0:0:0:0:
268,116,93686,1,0,0:0:0:0:
184,172,93772,1,0,0:0:0:0:
204,268,93858,1,0,0:0:0:0:
304,276,93944,1,0,0:0:0:0:
412,320,94117,5,0,0:0:0:0:
400,220,94203,1,0,0:0:0:0:
316,164,94289,1,0,0:0:0:0:
216,176,94376,1,0,0:0:0:0:
116,348,94462,5,0,0:0:0:0:
180,312,94548,1,0,0:0:0:0:
192,240,94634,1,0,0:0:0:0:
148,180,94720,1,0,0:0:0:0:
0,92,94807,5,0,0:0:0:0:
32,128,94893,1,0,0:0:0:0:
80,140,94979,1,0,0:0:0:0:
128,124,95065,1,0,0:0:0:0:
152,36,95151,5,0,0:0:0:0:
128,36,95238,1,0,0:0:0:0:
104,40,95324,1,0,0:0:0:0:
84,52,95410,1,0,0:0:0:0:
128,124,95496,5,0,0:0:0:0:
136,120,95583,1,0,0:0:0:0:
344,200,95841,5,0,0:0:0:0:
272,268,95927,1,0,0:0:0:0:
248,172,96014,1,0,0:0:0:0:
344,200,96100,1,0,0:0:0:0:
272,268,96186,1,0,0:0:0:0:
248,172,96272,1,0,0:0:0:0:
344,200,96358,5,0,0:0:0:0:
268,268,96445,1,0,0:0:0:0:
184,212,96531,1,0,0:0:0:0:
204,116,96617,1,0,0:0:0:0:
304,108,96703,1,0,0:0:0:0:
460,352,96875,5,0,0:0:0:0:
360,364,96961,1,0,0:0:0:0:
268,324,97048,1,0,0:0:0:0:
244,228,97134,1,0,0:0:0:0:
204,116,97220,5,0,0:0:0:0:
279,105,97306,1,0,0:0:0:0:
347,137,97393,1,0,0:0:0:0:
367,209,97479,1,0,0:0:0:0:
404,316,97565,5,0,0:0:0:0:
348,320,97651,1,0,0:0:0:0:
296,296,97738,1,0,0:0:0:0:
280,244,97824,1,0,0:0:0:0:
268,152,97910,5,0,0:0:0:0:
311,152,97996,1,0,0:0:0:0:
349,170,98083,1,0,0:0:0:0:
367,209,98169,1,0,0:0:0:0:
280,244,98255,5,0,0:0:0:0:
275,235,98341,1,0,0:0:0:0:
176,132,98599,5,0,0:0:0:0:
104,64,98685,1,0,0:0:0:0:
80,160,98772,1,0,0:0:0:0:
176,132,98858,1,0,0:0:0:0:
104,64,98944,1,0,0:0:0:0:
80,160,99030,1,0,0:0:0:0:
176,132,99116,5,0,0:0:0:0:
100,64,99203,1,0,0:0:0:0:
40,144,99289,1,0,0:0:0:0:
116,208,99375,1,0,0:0:0:0:
176,132,99461,5,0,0:0:0:0:
52,352,99634,5,0,0:0:0:0:
152,364,99720,1,0,0:0:0:0:
244,324,99807,1,0,0:0:0:0:
268,228,99893,1,0,0:0:0:0:
308,116,99979,5,0,0:0:0:0:
233,105,100065,1,0,0:0:0:0:
165,137,100152,1,0,0:0:0:0:
145,209,100238,1,0,0:0:0:0:
108,316,100324,5,0,0:0:0:0:
164,320,100410,1,0,0:0:0:0:
216,296,100497,1,0,0:0:0:0:
232,244,100583,1,0,0:0:0:0:
244,152,100669,5,0,0:0:0:0:
201,152,100755,1,0,0:0:0:0:
163,170,100842,1,0,0:0:0:0:
145,209,100928,1,0,0:0:0:0:
232,244,101014,5,0,0:0:0:0:
237,235,101100,1,0,0:0:0:0:
304,104,101358,5,0,0:0:0:0:
376,36,101444,1,0,0:0:0:0:
400,132,101531,1,0,0:0:0:0:
304,104,101617,1,0,0:0:0:0:
376,36,101703,1,0,0:0:0:0:
400,132,101789,1,0,0:0:0:0:
304,104,101875,5,0,0:0:0:0:
464,92,101962,1,0,0:0:0:0:
344,196,102048,1,0,0:0:0:0:
444,188,102134,1,0,0:0:0:0:
380,36,102220,5,0,0:0:0:0:
