osu file format v14

[General]
AudioFilename: audio.mp3
AudioLeadIn: 1500
PreviewTime:22054
Countdown: 0
SampleSet: Soft
StackLeniency: 0
Mode: 0
LetterboxInBreaks: 0
WidescreenStoryboard: 1

[Editor]
Bookmarks: 10686,20475,23317,33423,43528,53633,63738,73844,78896,81423,91528,102896
DistanceSpacing: 1.5
BeatDivisor: 4
GridSize: 16
TimelineZoom: 2

[Metadata]
Title:WOBBLE IMPACT
TitleUnicode:WOBBLE IMPACT
Artist:Sota Fujimori
ArtistUnicode:Sota Fujimori
Creator:Lulu-
Version:n/a's lowermost fulfillment extra
Source:beatmania IIDX 21 SPADA
Tags:dubstep drumstep dnb drum and bass BEMANI Konami 藤森 崇多 synthesized5 Kloyd Gamu Firiiu Scaltinof YokesPai Sebu Nerova Riuz GX -PC faygo Zetera taku Celine citreum bws [_Drop_]
BeatmapID:2303940
BeatmapSetID:752742

[Difficulty]
HPDrainRate:5.6
CircleSize:2
OverallDifficulty:9.2
ApproachRate:9.5
SliderMultiplier:2
SliderTickRate:2

[Events]
//Background and Video events
0,0,"wallpaper-1657762.jpg",0,0
//Break Periods
//Storyboard Layer 0 (Background)
//Storyboard Layer 1 (Fail)
//Storyboard Layer 2 (Pass)
//Storyboard Layer 3 (Foreground)
//Storyboard Layer 4 (Overlay)
//Storyboard Sound Samples

[TimingPoints]
581,315.789473684211,4,2,1,80,1,0
581,-500,4,2,1,80,0,0
5002,-83.3333333333333,4,2,1,80,0,0
5633,-500,4,2,1,80,0,0
9107,-250,4,2,1,80,0,0
10054,-83.3333333333333,4,2,1,80,0,0
10528,-20.8333333333334,4,2,1,80,0,0
10686,-100,4,2,1,80,0,1
11002,-100,4,2,1,80,0,0
13212,-500,4,2,1,80,0,0
13844,-100,4,2,1,80,0,0
14475,-200,4,2,1,80,0,0
15738,-100,4,2,1,80,0,1
16054,-100,4,2,1,80,0,0
18265,-500,4,2,1,80,0,0
18896,-100,4,2,1,80,0,0
19528,-50,4,2,1,80,0,0
22054,-200,4,2,1,50,0,0
22528,-133.333333333333,4,2,1,50,0,0
23002,-40,4,2,1,80,0,0
23317,-50,4,2,1,80,0,0
23633,-66.6666666666667,4,2,1,60,0,0
23949,-66.6666666666667,4,2,1,80,0,0
25212,-37.037037037037,4,2,1,80,0,0
25844,-78.125,4,2,1,80,0,0
27265,-50,4,2,1,80,0,0
28686,-66.6666666666667,4,2,1,80,0,0
29475,-100,4,2,1,80,0,0
29633,-50,4,2,1,80,0,0
29791,-40,4,2,1,80,0,0
30265,-37.037037037037,4,2,1,80,0,0
30896,-66.6666666666667,4,2,1,80,0,0
31528,-55.5555555555556,4,2,1,80,0,0
31844,-76.9230769230769,4,2,1,80,0,0
32317,-40,4,2,1,80,0,0
33107,-25,4,2,1,80,0,0
33423,-50,4,2,1,80,0,0
33738,-66.6666666666667,4,2,1,80,0,0
35317,-37.037037037037,4,2,1,80,0,0
35949,-78.125,4,2,1,80,0,0
37370,-50,4,2,1,80,0,0
38791,-66.6666666666667,4,2,1,80,0,0
39581,-100,4,2,1,80,0,0
39738,-50,4,2,1,80,0,0
39896,-40,4,2,1,80,0,0
40370,-37.037037037037,4,2,1,80,0,0
41002,-66.6666666666667,4,2,1,80,0,0
41633,-55.5555555555556,4,2,1,80,0,0
41949,-76.9230769230769,4,2,1,80,0,0
42423,-40,4,2,1,80,0,0
43212,-25,4,2,1,80,0,0
43528,-50,4,2,1,80,0,0
44159,-41.6666666666667,4,2,1,80,0,0
44475,-66.6666666666667,4,2,1,80,0,0
45423,-44.4444444444445,4,2,1,80,0,0
46054,-40,4,2,1,80,0,0
46370,-100,4,2,1,80,0,0
47002,-66.6666666666667,4,2,1,80,0,0
47317,-38.0228136882129,4,2,1,80,0,0
48265,-100,4,2,1,80,0,0
48581,-50,4,2,1,80,0,0
49212,-41.6666666666667,4,2,1,80,0,0
49528,-66.6666666666667,4,2,1,80,0,0
50475,-44.4444444444445,4,2,1,80,0,0
50791,-100,4,2,1,80,0,0
51107,-40,4,2,1,80,0,0
51423,-100,4,2,1,80,0,0
52054,-66.6666666666667,4,2,1,80,0,0
52370,-52.0833333333333,4,2,1,80,0,0
53317,-100,4,2,1,80,0,0
53633,-500,4,2,1,80,0,0
54265,-66.6666666666667,4,2,1,80,0,0
54581,-100,4,2,1,80,0,0
54896,-66.6666666666667,4,2,1,80,0,0
55212,-50,4,2,1,80,0,0
56002,-25,4,2,1,80,0,0
56159,-40,4,2,1,80,0,0
56475,-100,4,2,1,80,0,0
57423,-66.6666666666667,4,2,1,80,0,0
58686,-500,4,2,1,80,0,0
59317,-66.6666666666667,4,2,1,80,0,0
59633,-100,4,2,1,80,0,0
59949,-66.6666666666667,4,2,1,80,0,0
60581,-50,4,2,1,80,0,0
60896,-100,4,2,1,80,0,0
61212,-40,4,2,1,80,0,0
61528,-100,4,2,1,80,0,0
62475,-66.6666666666667,4,2,1,80,0,0
62949,-50,4,2,1,80,0,0
63738,-55.5555555555556,4,2,1,80,0,1
64054,-55.5555555555556,4,2,1,80,0,0
64370,-250,4,2,1,80,0,0
64844,-40,4,2,1,80,0,0
65317,-66.6666666666667,4,2,1,80,0,0
66423,-55.5555555555556,4,2,1,80,0,0
66896,-100,4,2,1,80,0,0
67370,-40,4,2,1,80,0,0
69107,-55.5555555555556,4,2,1,80,0,0
69423,-250,4,2,1,80,0,0
69896,-40,4,2,1,80,0,0
70370,-100,4,2,1,80,0,0
71002,-55.5555555555556,4,2,1,80,0,0
71949,-100,4,2,1,80,0,0
72423,-40,4,2,1,80,0,0
72896,-50,4,2,1,80,0,0
73686,-33.3333333333333,4,2,1,80,0,0
73844,-500,4,2,1,80,0,0
74475,-66.6666666666667,4,2,1,80,0,0
75423,-33.3333333333333,4,2,1,80,0,0
76054,-50,4,2,1,80,0,0
77317,-100,4,2,1,80,0,0
77633,-55.5555555555556,4,2,1,80,0,0
78896,-50,4,2,1,80,0,0
80159,-1000,4,2,1,80,0,0
80396,-1000,4,2,1,5,0,0
80475,-1000,4,2,1,80,0,0
80712,-1000,4,2,1,5,0,0
80791,-1000,4,2,1,80,0,0
81028,-1000,4,2,1,5,0,0
81107,-25,4,2,1,80,0,0
81423,-25,4,2,1,80,0,1
81738,-45.4545454545455,4,2,1,80,0,1
82686,-55.5555555555556,4,2,1,80,0,1
83317,-33.3333333333333,4,2,1,80,0,1
84581,-100,4,2,1,80,0,1
86159,-45.4545454545455,4,2,1,80,0,1
88370,-66.6666666666667,4,2,1,80,0,1
90896,-200,4,2,1,80,0,0
91528,-200,4,2,1,80,0,1
91844,-83.3333333333333,4,2,1,80,0,1
93107,-66.6666666666667,4,2,1,80,0,1
93423,-33.3333333333333,4,2,1,80,0,1
95317,-28.5714285714286,4,2,1,80,0,1
96896,-83.3333333333333,4,2,1,80,0,1
97844,-66.6666666666667,4,2,1,80,0,1
100054,-100,4,2,1,80,0,1
101002,-66.6666666666667,4,2,1,80,0,1
101317,-50,4,2,1,80,0,1
101633,-50,4,2,1,80,0,0
102581,-66.6666666666667,4,2,1,80,0,0
102896,-40,4,2,1,80,0,1
103212,-45.4545454545455,4,2,1,80,0,0
104159,-55.5555555555556,4,2,1,80,0,0
104475,-200,4,2,1,80,0,0
104791,-37.037037037037,4,2,1,80,0,0
105423,-78.125,4,2,1,80,0,0
106844,-45.4545454545455,4,2,1,80,0,0
107317,-66.6666666666667,4,2,1,80,0,0
107633,-50,4,2,1,80,0,0
107949,-40,4,2,1,80,0,0
108265,-52.6315789473684,4,2,1,80,0,0
108581,-62.5,4,2,1,80,0,0
109844,-37.037037037037,4,2,1,80,0,0
110475,-55.5555555555556,4,2,1,80,0,0
111896,-66.6666666666667,4,2,1,80,0,0
112686,-50,4,2,1,80,0,0
113002,-66.6666666666667,4,2,1,80,0,0
113633,-50,4,2,1,80,0,0
114265,-28.5714285714286,4,2,1,80,0,0
114896,-28.5714285714286,4,2,1,5,0,0

[Colours]
Combo1 : 255,128,0
Combo2 : 173,250,97
Combo3 : 255,0,0
Combo4 : 60,155,251
Combo5 : 247,217,49
Combo6 : 96,186,5
Combo7 : 158,12,12
Combo8 : 133,84,214

[HitObjects]
56,263,581,6,0,P|37:264|34:283,1,40,4|0,1:2|2:0,0:0:0:0:
88,361,1054,1,0,1:0:0:0:
208,30,1212,1,8,2:0:0:0:
198,44,1528,54,0,P|179:42|176:23,1,40,0|0,1:0|2:0,0:0:0:0:
306,20,2002,1,0,1:0:0:0:
123,181,2159,1,0,2:0:0:0:
69,162,2238,1,0,1:0:0:0:
15,143,2317,1,0,1:0:0:0:
223,148,2475,53,8,2:0:0:0:
276,248,2633,1,0,2:0:0:0:
319,28,2791,53,0,2:0:0:0:
81,272,2949,1,0,2:0:0:0:
412,357,3107,2,0,L|402:312,1,40,0|0,1:0|2:0,0:0:0:0:
495,283,3581,1,0,1:0:0:0:
123,181,3738,1,8,2:0:0:0:
133,191,4054,54,0,L|143:146,1,40,0|0,1:0|2:0,0:0:0:0:
50,117,4528,1,0,1:0:0:0:
422,15,4685,1,0,2:0:0:0:
455,63,4765,1,0,1:0:0:0:
448,120,4844,1,0,1:0:0:0:
367,366,5002,54,0,B|352:284|352:284|325:267|325:267|334:172|334:172|354:147,1,239.999992675781,8|0,2:0|2:0,0:0:0:0:
448,239,5475,1,0,1:0:0:0:
460,227,5633,54,0,P|478:228|480:247,1,40,0|0,1:0|2:0,0:0:0:0:
475,347,6107,1,0,1:0:0:0:
297,50,6265,1,8,2:0:0:0:
282,58,6581,54,0,P|263:59|261:78,1,40,0|0,1:0|2:0,0:0:0:0:
326,152,7054,1,0,1:0:0:0:
153,372,7212,1,0,2:0:0:0:
139,316,7291,1,0,1:0:0:0:
92,282,7370,1,0,1:0:0:0:
27,361,7528,53,8,2:0:0:0:
158,200,7686,1,0,2:0:0:0:
36,186,7844,53,0,2:0:0:0:
345,21,8002,1,0,2:0:0:0:
333,371,8159,2,0,L|293:374,1,40,0|0,1:0|2:0,0:0:0:0:
243,290,8633,1,0,1:0:0:0:
441,48,8791,1,8,2:0:0:0:
452,57,9107,54,0,L|492:60,1,40,0|0,1:0|0:0,0:0:0:0:
245,52,9423,53,0,2:0:0:0:
352,107,9581,1,0,1:0:0:0:
154,304,9738,5,0,1:0:0:0:
271,284,9817,1,0,1:0:0:0:
387,261,9896,1,0,1:0:0:0:
387,261,10054,38,0,B|308:267|308:267|234:299|234:299|154:305,1,239.999992675781,8|0,2:0|1:0,0:0:0:0:
110,346,10528,6,0,B|172:318|172:318|245:313|245:313|312:283|312:283|386:278|386:278|453:248,1,359.999989013672,8|0,2:0|0:0,0:0:0:0:
475,211,10686,22,0,L|479:181,8,25,0|0|0|0|0|0|0|0|0,1:0|0:0|0:0|0:0|0:0|0:0|0:0|0:0|2:0,0:0:0:0:
485,344,11159,1,0,1:0:0:0:
301,59,11317,53,8,2:0:0:0:
399,23,11396,1,0,2:0:0:0:
381,125,11475,1,0,2:0:0:0:
53,20,11633,2,0,L|151:35,1,100,0|0,1:0|2:0,0:0:0:0:
301,59,11949,54,0,L|274:54,6,25,0|0|0|0|0|0|0,2:0|0:0|0:0|0:0|0:0|0:0|0:0,0:0:0:0:
399,23,12265,2,0,L|349:30,1,50,0|0,2:0|1:0,0:0:0:0:
381,125,12423,1,0,1:0:0:0:
284,366,12581,54,0,L|481:335,1,200,8|0,2:0|2:0,0:0:0:0:
376,307,13054,1,0,2:0:0:0:
40,347,13212,54,0,P|23:357|24:376,1,40,0|0,1:0|2:0,0:0:0:0:
134,374,13686,1,0,1:0:0:0:
381,125,13844,2,0,L|282:109,1,100,8|0,2:0|2:0,0:0:0:0:
13,232,14159,1,0,1:0:0:0:
24,244,14475,54,0,L|31:199,1,25,0|0,2:0|2:0,0:0:0:0:
61,128,14633,2,0,L|89:92,1,25,0|0,1:0|2:0,0:0:0:0:
151,46,14791,2,0,L|193:29,1,25,0|0,2:0|1:0,0:0:0:0:
269,20,14949,2,0,L|314:26,1,25,0|0,1:0|2:0,0:0:0:0:
136,241,15107,53,8,2:0:0:0:
154,183,15186,1,0,2:0:0:0:
199,142,15265,1,0,2:0:0:0:
258,129,15344,1,0,2:0:0:0:
261,194,15423,53,0,2:0:0:0:
231,200,15502,1,0,2:0:0:0:
209,221,15581,1,8,2:0:0:0:
200,250,15660,1,0,2:0:0:0:
270,263,15738,54,0,L|287:280,8,25,0|0|0|0|0|0|0|0|0,1:0|0:0|0:0|0:0|0:0|0:0|0:0|0:0|0:0,0:0:0:0:
249,372,16212,1,0,1:0:0:0:
91,55,16370,53,8,2:0:0:0:
14,127,16449,1,0,2:0:0:0:
114,155,16528,1,0,2:0:0:0:
60,372,16686,2,0,L|46:263,1,100,0|0,1:0|2:0,0:0:0:0:
91,55,17002,54,0,L|86:20,6,25,0|0|0|0|0|0|0,2:0|0:0|0:0|0:0|1:0|0:0|0:0,0:0:0:0:
14,126,17317,2,0,L|21:77,1,50,0|0,2:0|1:0,0:0:0:0:
114,155,17475,1,0,1:0:0:0:
402,19,17633,54,0,L|376:217,1,200,8|0,2:0|2:0,0:0:0:0:
443,127,18107,1,0,2:0:0:0:
361,369,18265,54,0,P|379:372|387:355,1,40,0|0,1:0|2:0,0:0:0:0:
457,283,18738,1,0,1:0:0:0:
199,69,18896,2,0,P|237:39|286:41,1,100,8|0,2:0|2:0,0:0:0:0:
483,157,19212,1,0,1:0:0:0:
483,157,19528,86,0,B|501:218|472:258|430:284|368:261|368:261|307:239|265:265|236:305|255:367,3,400,0|8|0|8,1:0|2:0|1:0|2:0,0:0:0:0:
352,342,20554,1,8,2:0:0:0:
395,252,20633,1,8,2:0:0:0:
353,161,20712,1,8,2:0:0:0:
256,192,20791,12,0,21738,0:0:0:0:
81,179,22054,22,0,P|57:186|43:206,2,50,0|0|0,1:0|0:0|1:0,0:0:0:0:
105,187,22528,2,0,P|103:251|42:229,1,150,0|0,0:0|1:0,0:0:0:0:
135,212,23002,102,0,P|276:134|488:165,1,375,8|0,2:0|2:0,0:0:0:0:
491,277,23317,102,0,B|434:305|370:306|317:267|309:231|309:231|335:223|369:225|396:233,1,300,4|0,1:2|2:0,0:0:0:0:
326,373,23633,2,0,P|262:335|219:274,1,150.000005722046,0|0,2:0|0:0,0:0:0:0:
480,87,23949,2,0,B|517:42|517:42|352:16,1,225.000008583069,8|0,2:0|2:0,0:0:0:0:
285,87,24265,53,0,2:0:0:0:
229,78,24344,1,0,2:0:0:0:
162,149,24423,1,0,2:0:0:0:
106,140,24502,1,0,2:0:0:0:
39,211,24581,54,0,B|2:256|2:256|92:269,1,150.000005722046,0|0,1:0|2:0,0:0:0:0:
146,328,24817,2,0,B|183:283|183:283|92:269,1,150.000005722046,0|0,1:0|2:0,0:0:0:0:
92,269,25054,1,0,1:0:0:0:
250,375,25212,102,0,B|364:354|364:354|394:332|394:332|509:312,1,270.000001029968,8|0,2:0|2:0,0:0:0:0:
512,328,25528,54,0,B|397:348|397:348|361:337|361:337|246:357,1,270.000001029968,0|0,2:0|2:0,0:0:0:0:
111,44,25844,6,0,B|81:30|81:30|68:59,1,64,0|0,1:0|0:0,0:0:0:0:
14,175,26002,2,0,B|0:204|0:204|29:217,1,64,0|0,2:0|0:0,0:0:0:0:
145,272,26159,2,0,B|174:285|174:285|187:256,1,64,0|0,2:0|2:0,0:0:0:0:
242,140,26317,2,0,B|255:110|255:110|226:97,1,64,0|0,1:0|2:0,0:0:0:0:
112,115,26475,69,8,2:0:0:0:
85,173,26581,1,0,2:0:0:0:
143,200,26686,1,0,2:0:0:0:
170,142,26791,1,0,2:0:0:0:
128,158,26949,101,0,1:0:0:0:
311,251,27107,1,0,2:0:0:0:
337,311,27186,1,0,2:0:0:0:
364,372,27265,2,0,B|316:177|316:177|284:240|284:240|309:250,1,300,0|0,1:0|1:0,0:0:0:0:
316,177,27581,1,0,1:0:0:0:
416,220,27738,5,8,2:0:0:0:
445,114,27844,1,0,2:0:0:0:
474,9,27949,1,0,2:0:0:0:
483,25,28054,53,0,2:0:0:0:
376,52,28159,1,0,2:0:0:0:
271,80,28265,1,0,2:0:0:0:
280,64,28370,102,0,B|233:20|178:30|135:56|120:106|120:106|110:72|123:38|149:15,1,300,0|0,1:0|2:0,0:0:0:0:
210,130,28686,2,0,P|163:186|90:194,1,150.000005722046,0|0,2:0|0:0,0:0:0:0:
450,44,29002,2,0,B|497:28|497:28|469:201,1,225.000008583069,8|0,2:0|2:0,0:0:0:0:
400,270,29317,53,0,2:0:0:0:
425,321,29396,1,0,2:0:0:0:
345,378,29475,2,0,P|324:365|300:362,1,50,0|0,2:0|2:0,0:0:0:0:
0,323,29633,54,0,P|49:315|91:289,1,100,0|0,1:0|2:0,0:0:0:0:
188,310,29791,2,0,P|205:165|97:262,1,375,0|0,1:0|0:0,0:0:0:0:
34,122,30107,21,0,1:0:0:0:
40,58,30186,1,0,1:0:0:0:
90,21,30265,2,0,B|191:38|191:38|221:44|218:63|248:69|248:69|349:87,1,270.000001029968,8|0,2:0|2:0,0:0:0:0:
352,67,30581,54,0,B|250:49|250:49|221:43|217:63|187:58|187:58|85:40,1,270.000001029968,0|0,2:0|2:0,0:0:0:0:
401,349,30896,86,0,B|427:371|470:364|487:327|487:327|474:204,1,225.000008583069,0|0,1:0|2:0,0:0:0:0:
475,98,31212,1,0,2:0:0:0:
475,98,31370,1,0,1:0:0:0:
207,297,31528,6,0,B|248:308|248:308|257:303|257:303|253:316|253:316|262:311|262:311|304:323,2,119.999996337891,8|0|0,2:0|2:0|2:0,0:0:0:0:
62,353,31844,38,0,L|54:288,1,64.9999970245363,0|0,2:0|2:0,0:0:0:0:
32,94,32002,2,0,L|24:29,1,64.9999970245363,0|0,1:0|2:0,0:0:0:0:
44,191,32159,53,0,2:0:0:0:
44,191,32317,2,0,L|462:139,1,375,0|0,1:0|0:0,0:0:0:0:
437,131,32633,1,0,1:0:0:0:
485,334,32791,53,8,2:0:0:0:
449,360,32870,1,0,2:0:0:0:
406,370,32949,1,0,2:0:0:0:
363,364,33028,1,0,0:0:0:0:
320,320,33107,54,0,P|503:200|284:218,1,600
214,301,33423,54,0,B|117:298|81:207|141:216|106:125|8:122,1,300,0|0,1:0|2:0,0:0:0:0:
201,155,33738,2,0,P|165:87|103:46,1,150.000005722046,0|0,2:0|0:0,0:0:0:0:
393,339,34054,2,0,B|448:372|448:372|457:212,1,225.000008583069,8|0,2:0|2:0,0:0:0:0:
389,137,34370,53,0,2:0:0:0:
335,150,34449,1,0,2:0:0:0:
267,77,34528,1,0,2:0:0:0:
213,90,34607,1,0,2:0:0:0:
145,15,34686,54,0,B|140:101|140:101|85:68,1,150.000005722046,0|0,1:0|2:0,0:0:0:0:
25,121,34923,2,0,B|30:35|30:35|85:68,1,150.000005722046,0|0,1:0|2:0,0:0:0:0:
85,68,35159,1,0,1:0:0:0:
2,315,35317,38,0,B|63:352|130:326|130:326|198:299|259:337,1,270.000001029968,8|0,2:0|2:0,0:0:0:0:
255,359,35633,54,0,B|184:373|130:325|130:325|75:277|5:292,1,270.000001029968,0|0,2:0|2:0,0:0:0:0:
309,36,35949,70,0,P|326:16|331:42,1,64,0|0,1:0|0:0,0:0:0:0:
391,145,36107,2,0,P|410:162|384:167,1,64,0|0,2:0|0:0,0:0:0:0:
282,227,36265,2,0,P|264:246|259:220,1,64,0|0,2:0|2:0,0:0:0:0:
199,118,36423,2,0,P|179:100|205:95,1,64,0|0,1:0|2:0,0:0:0:0:
334,109,36581,5,8,2:0:0:0:
318,171,36686,1,0,2:0:0:0:
256,154,36791,1,0,2:0:0:0:
273,92,36897,1,0,1:0:0:0:
295,131,37054,37,0,1:0:0:0:
368,318,37212,1,0,2:0:0:0:
434,307,37291,1,0,2:0:0:0:
500,294,37370,2,0,B|312:366|312:366|298:327|330:300|368:318,1,300,8|0,2:0|1:0,0:0:0:0:
313,367,37686,1,0,1:0:0:0:
171,377,37844,69,8,2:0:0:0:
189,272,37949,1,0,0:0:0:0:
207,167,38054,1,0,0:0:0:0:
196,182,38159,53,0,2:0:0:0:
126,99,38264,1,0,0:0:0:0:
57,18,38369,1,0,0:0:0:0:
40,29,38475,38,0,B|-19:89|52:177|136:154|155:82|136:48|136:48|132:67|122:81,1,300,0|0,1:0|2:0,0:0:0:0:
0,210,38791,2,0,P|69:235|146:217,1,150.000005722046,0|0,2:0|0:0,0:0:0:0:
380,70,39107,2,0,B|351:14|351:14|511:38,1,225.000008583069,8|0,2:0|2:0,0:0:0:0:
476,131,39423,53,0,2:0:0:0:
492,185,39502,1,0,2:0:0:0:
456,277,39581,2,0,P|441:296|419:307,1,50,0|0,2:0|2:0,0:0:0:0:
199,117,39738,54,0,P|245:132|270:174,1,100,0|0,1:0|2:0,0:0:0:0:
232,281,39896,2,0,P|357:224|292:360,1,375,0|0,1:0|0:0,0:0:0:0:
100,369,40212,21,0,1:0:0:0:
88,306,40291,1,0,1:0:0:0:
121,253,40370,2,0,B|122:212|122:212|99:163|99:163|35:113|35:113|13:64|13:64|14:23,1,270.000001029968,8|0,2:0|2:0,0:0:0:0:
31,17,40686,54,0,B|57:47|57:47|71:99|71:99|55:178|55:178|69:230|69:230|96:261,1,270.000001029968,0|0,2:0|2:0,0:0:0:0:
451,136,41002,86,0,B|479:116|479:116|485:80|485:80|465:52|465:52|346:31,1,225.000008583069,0|0,1:0|0:0,0:0:0:0:
252,74,41317,1,0,2:0:0:0:
252,74,41475,1,0,1:0:0:0:
312,364,41633,70,0,B|323:323|323:323|318:314|318:314|331:318|331:318|326:309|326:309|338:267,2,119.999996337891,8|0|0,2:0|2:0|2:0,0:0:0:0:
497,286,41949,102,0,P|476:261|447:247,1,64.9999970245363,0|0,2:0|0:0,0:0:0:0:
261,185,42107,2,0,P|230:195|198:193,1,64.9999970245363,0|0,1:0|0:0,0:0:0:0:
0,252,42265,53,0,2:0:0:0:
0,252,42423,2,0,P|107:350|94:205,1,375,0|0,1:0|0:0,0:0:0:0:
15,129,42738,1,0,1:0:0:0:
294,36,42896,53,8,2:0:0:0:
250,43,42975,1,0,0:0:0:0:
207,50,43054,1,0,2:0:0:0:
164,57,43133,1,0,0:0:0:0:
124,98,43212,54,0,B|176:82|176:82|245:119|245:119|306:55|306:55|329:209|329:209|390:145|390:145|459:182|459:182|512:166,1,600
512,165,43528,37,4,1:2:0:0:
405,40,43844,54,0,P|454:34|491:65,1,100,0|0,2:0|0:0,0:0:0:0:
491,65,44002,1,0,0:0:0:0:
367,311,44159,54,0,B|305:346|305:346|238:302|238:302|227:247|227:247|160:203|160:203|98:239,1,359.999989013672,8|0,2:0|2:0,0:0:0:0:
97,239,44475,2,0,B|105:278|105:278|153:310|153:310|197:284,1,150.000005722046,0|0,2:0|0:0,0:0:0:0:
256,19,44791,21,0,1:0:0:0:
191,95,44896,1,0,2:0:0:0:
92,111,45002,1,0,2:0:0:0:
5,59,45107,22,0,B|39:56|39:56|10:168,1,150.000005722046,0|0,1:0|1:0,0:0:0:0:
118,342,45344,1,0,1:0:0:0:
135,370,45423,2,0,B|84:374|84:374|126:205,1,225.000008583069,8|0,2:0|0:0,0:0:0:0:
272,32,45738,1,0,1:0:0:0:
272,32,45896,54,0,B|325:15|325:15|364:55,1,112.500004291535,0|0,2:0|2:0,0:0:0:0:
478,205,46054,54,0,B|449:132|449:132|342:158|342:158|299:258|299:258|365:299,1,375,0|0,1:0|2:0,0:0:0:0:
472,312,46370,2,0,L|504:350,1,50,0|0,2:0|0:0,0:0:0:0:
504,350,46528,1,0,1:0:0:0:
257,186,46686,53,8,2:0:0:0:
189,155,46764,1,0,2:0:0:0:
114,156,46843,1,0,2:0:0:0:
47,189,46922,1,0,2:0:0:0:
1,247,47002,21,0,2:0:0:0:
93,280,47107,1,0,2:0:0:0:
189,257,47212,1,0,2:0:0:0:
257,186,47317,22,0,L|0:247,1,263.000012440491,0|0,2:0|1:0,0:0:0:0:
172,17,47633,1,0,2:0:0:0:
222,31,47712,1,0,1:0:0:0:
272,45,47791,1,0,1:0:0:0:
313,355,47949,53,8,2:0:0:0:
479,44,48107,1,0,2:0:0:0:
379,119,48265,6,0,L|342:127,6,25,0|0|0|0|0|0|0,2:0|0:0|0:0|0:0|0:0|0:0|2:0,0:0:0:0:
465,205,48581,37,0,1:0:0:0:
426,357,48896,54,0,P|473:352|495:309,1,100,0|0,2:0|0:0,0:0:0:0:
495,309,49054,1,0,0:0:0:0:
287,35,49212,54,0,B|167:-24|126:127|190:90|149:242|29:183,1,359.999989013672,8|0,2:0|2:0,0:0:0:0:
30,183,49528,2,0,P|20:141|116:102,1,150.000005722046,0|0,2:0|0:0,0:0:0:0:
272,295,49844,85,0,1:0:0:0:
351,236,49949,1,0,2:0:0:0:
448,259,50054,1,0,2:0:0:0:
493,348,50159,86,0,B|425:359|425:359|414:351|414:351|347:363,1,150.000005722046,0|0,2:0|1:0,0:0:0:0:
83,327,50396,1,0,2:0:0:0:
58,347,50475,2,0,B|159:329|159:329|171:312|171:312|272:295,1,225.000008583069,8|0,2:0|0:0,0:0:0:0:
448,32,50791,6,0,B|455:34|455:34|445:39|445:39|443:47|443:47|463:36|463:36|471:38|471:38|441:55|441:55|449:57|449:57|469:45|469:45|466:53|466:53|457:59|457:59|464:61,1,150,0|0,2:0|2:0,0:0:0:0:
242,97,51107,38,0,B|305:24|305:24|396:183|396:183|302:201,1,375,4|0,1:2|2:0,0:0:0:0:
203,189,51423,2,0,L|147:221,1,50,0|0,2:0|0:0,0:0:0:0:
159,214,51580,1,0,1:0:0:0:
370,350,51738,53,8,2:0:0:0:
441,360,51816,1,0,0:0:0:0:
499,315,51895,1,0,0:0:0:0:
510,242,51974,1,0,0:0:0:0:
465,183,52054,21,0,1:0:0:0:
368,184,52159,1,0,2:0:0:0:
321,267,52265,1,0,2:0:0:0:
370,350,52370,22,0,L|465:183,1,192.0000046875,0|0,2:0|1:0,0:0:0:0:
299,102,52686,2,0,L|266:9,2,96.0000023437501,0|0|0,2:0|1:0|1:0,0:0:0:0:
200,249,53002,53,0,2:0:0:0:
115,190,53081,1,8,2:0:0:0:
207,146,53159,1,0,1:0:0:0:
115,349,53317,54,0,L|15:336,1,100,8|0,2:0|0:0,0:0:0:0:
134,39,53633,38,0,P|152:33|161:50,1,40,4|8,1:2|2:0,0:0:0:0:
41,87,54107,1,0,0:0:0:0:
266,327,54265,54,0,P|332:369|420:276,1,225.000008583069,0|0,2:0|2:0,0:0:0:0:
436,267,54581,2,0,P|386:232|341:286,1,100,8|0,2:0|0:0,0:0:0:0:
322,14,54896,102,0,L|416:46,2,100.000003814697,0|0|0,1:0|0:0|0:0,0:0:0:0:
322,14,55212,70,0,L|360:211,1,200,8|0,2:0|1:0,0:0:0:0:
512,79,55528,54,0,L|436:145,1,100,0|0,2:0|2:0,0:0:0:0:
360,210,55686,2,0,L|436:145,1,100,0|0,1:0|1:0,0:0:0:0:
512,79,55844,1,8,2:0:0:0:
322,14,56002,86,0,L|512:79,1,200,0|0,2:0|2:0,0:0:0:0:
446,256,56159,86,0,P|319:354|264:203,1,375,0|0,1:0|2:0,0:0:0:0:
359,210,56475,2,0,L|346:258,1,50,8|0,2:0|0:0,0:0:0:0:
345,258,56633,1,0,1:0:0:0:
155,319,56791,53,0,2:0:0:0:
141,245,56869,1,0,2:0:0:0:
128,171,56948,1,0,2:0:0:0:
114,97,57027,1,0,2:0:0:0:
101,23,57106,101,8,2:0:0:0:
67,117,57212,1,0,2:0:0:0:
33,211,57317,1,0,2:0:0:0:
0,306,57423,6,0,L|146:271,1,150.000005722046,0|0,2:0|1:0,0:0:0:0:
299,277,57659,1,0,0:0:0:0:
286,296,57738,2,0,L|411:377,1,150.000005722046,8|0,2:0|1:0,0:0:0:0:
254,72,58054,53,0,1:0:0:0:
229,214,58212,1,0,1:0:0:0:
204,356,58370,1,8,2:0:0:0:
191,345,58686,54,0,P|173:339|164:356,1,40,4|8,1:2|2:0,0:0:0:0:
298,371,59160,1,0,0:0:0:0:
72,239,59317,54,0,B|45:138|45:138|48:122|48:122|21:21,1,225.000008583069,0|0,2:0|2:0,0:0:0:0:
44,12,59633,2,0,B|79:48|79:48|127:40,1,100,8|0,2:0|0:0,0:0:0:0:
295,236,59949,37,0,1:0:0:0:
390,205,60054,1,0,2:0:0:0:
485,174,60159,2,0,L|464:272,1,100.000003814697,0|0,2:0|0:0,0:0:0:0:
443,370,60370,53,0,2:0:0:0:
369,303,60475,1,0,2:0:0:0:
295,236,60581,2,0,L|485:174,1,200,0|0,1:0|1:0,0:0:0:0:
443,370,60896,70,0,L|369:303,1,100,8|0,2:0|0:0,0:0:0:0:
181,8,61212,54,0,B|112:52|0:29|0:29|76:116|71:197,1,375,4|0,1:2|2:0,0:0:0:0:
197,143,61528,2,0,L|153:117,1,50,8|0,2:0|0:0,0:0:0:0:
153,117,61686,1,0,1:0:0:0:
444,23,61844,53,0,2:0:0:0:
453,97,61922,1,0,2:0:0:0:
464,172,62001,1,0,2:0:0:0:
477,246,62080,1,0,2:0:0:0:
489,318,62159,101,8,2:0:0:0:
428,240,62265,1,0,2:0:0:0:
365,162,62370,1,0,2:0:0:0:
302,83,62475,70,0,B|303:122|303:122|216:190,1,150.000005722046,0|0,2:0|1:0,0:0:0:0:
89,282,62712,2,0,B|122:260|122:260|224:301,1,150.000005722046,0|0,2:0|1:0,0:0:0:0:
366,367,62949,2,0,B|330:348|330:348|322:289,1,100,0|0,1:0|2:0,0:0:0:0:
315,240,63107,53,0,1:0:0:0:
24,66,63265,1,0,1:0:0:0:
153,24,63423,1,8,2:0:0:0:
146,13,63738,5,4,1:2:0:0:
106,159,63896,1,0,2:0:0:0:
67,305,64054,2,0,B|75:272|75:272|96:260|96:260|84:240|84:240|88:223|88:223|76:203|76:203|97:191|97:191|106:158,1,179.999994506836,0|0,2:0|0:0,0:0:0:0:
268,345,64370,54,0,L|276:339,1,10,8|0,2:0|0:0,0:0:0:0:
205,282,64528,2,0,L|213:276,1,10,0|0,2:0|0:0,0:0:0:0:
182,369,64686,1,0,2:0:0:0:
436,232,64844,54,0,B|497:179|536:113|497:23|457:-4|394:-18|326:-17|274:34|296:122|346:135|386:118,1,500,0|0,1:0|1:0,0:0:0:0:
437,22,65317,1,0,1:0:0:0:
425,29,65633,69,8,2:0:0:0:
429,75,65711,1,0,2:0:0:0:
405,116,65790,1,0,2:0:0:0:
365,142,65869,1,0,2:0:0:0:
335,200,65949,53,0,2:0:0:0:
293,138,66027,1,0,0:0:0:0:
223,112,66106,1,0,0:0:0:0:
148,122,66185,1,0,2:0:0:0:
80,150,66264,1,0,1:0:0:0:
387,283,66423,38,0,B|418:261|448:279|448:279|471:272|471:272|478:296|478:296|507:313|505:351,2,179.999994506836,0|0|0,2:0|2:0|0:0,0:0:0:0:
493,176,66896,54,0,P|469:181|459:203,1,50,8|0,2:0|0:0,0:0:0:0:
413,378,67054,2,0,P|420:354|406:335,1,50,0|0,2:0|0:0,0:0:0:0:
279,208,67212,2,0,P|295:226|319:223,1,50,0|0,2:0|0:0,0:0:0:0:
329,6,67370,54,0,B|248:146|111:199|19:200|-27:101|26:36|97:45,1,500,0|0,1:0|1:0,0:0:0:0:
197,16,67844,1,0,2:0:0:0:
201,41,67923,1,0,1:0:0:0:
198,65,68001,1,0,1:0:0:0:
111,371,68159,1,8,2:0:0:0:
0,311,68317,5,0,2:0:0:0:
182,261,68475,1,0,2:0:0:0:
364,211,68633,1,8,2:0:0:0:
503,308,68791,37,0,1:0:0:0:
463,162,68949,1,0,2:0:0:0:
424,16,69107,2,0,B|432:49|432:49|453:61|453:61|441:81|441:81|445:98|445:98|433:118|433:118|454:130|454:130|463:163,1,179.999994506836,0|0,2:0|0:0,0:0:0:0:
247,87,69423,54,0,L|235:75,1,10,8|0,2:0|0:0,0:0:0:0:
333,111,69581,1,0,2:0:0:0:
310,24,69738,2,0,L|326:20,1,10,0|0,2:0|0:0,0:0:0:0:
167,281,69896,54,0,B|172:319|162:352|117:402|60:407|-20:353|-8:278|27:239|27:239|17:213|17:213|65:220|116:199|134:143,1,500,0|0,1:0|1:0,0:0:0:0:
77,30,70370,2,0,P|33:50|23:98,1,100,0|0,2:0|1:0,0:0:0:0:
38,113,70687,69,8,2:0:0:0:
104,134,70765,1,0,0:0:0:0:
170,156,70844,1,0,0:0:0:0:
237,178,70923,1,0,0:0:0:0:
303,200,71002,54,0,B|320:181|320:181|332:244,1,89.9999972534181,0|0,2:0|2:0,0:0:0:0:
469,355,71159,2,0,B|452:374|452:374|440:311,1,89.9999972534181,0|0,2:0|2:0,0:0:0:0:
249,340,71317,1,0,1:0:0:0:
407,131,71475,38,0,B|442:113|455:82|455:82|464:87|464:87|455:69|455:69|464:73|464:73|477:42|512:25,2,179.999994506836,0|0|0,2:0|2:0|1:0,0:0:0:0:
320,53,71949,54,0,P|310:76|325:102,1,50,8|0,2:0|2:0,0:0:0:0:
272,283,72107,2,0,P|296:280|311:254,1,50,0|0,2:0|2:0,0:0:0:0:
493,210,72265,2,0,P|478:189|448:189,1,50,0|0,2:0|2:0,0:0:0:0:
97,124,72423,54,0,B|67:46|105:-7|186:-25|243:18|263:129|190:246|116:309,1,500,0|0,1:0|0:0,0:0:0:0:
20,361,72896,54,0,P|56:328|105:328,1,100,0|0,2:0|1:0,0:0:0:0:
240,200,73054,2,0,P|263:244|310:260,1,100,0|0,1:0|2:0,0:0:0:0:
479,371,73213,69,8,2:0:0:0:
430,316,73291,1,0,2:0:0:0:
360,291,73370,1,0,2:0:0:0:
287,302,73449,1,0,2:0:0:0:
228,347,73528,1,8,2:0:0:0:
460,158,73686,54,0,P|493:197|450:168,1,150.000005722046,0|0,2:0|2:0,0:0:0:0:
405,36,73844,86,0,L|407:28,12,5,4|0|0|0|0|0|0|0|0|0|0|0|0,1:2|0:0|0:0|0:0|0:0|0:0|0:0|0:0|0:0|0:0|0:0|0:0|0:0,0:0:0:0:
337,184,74475,54,0,P|313:112|258:62,1,150.000005722046,8|0,2:0|2:0,0:0:0:0:
124,51,74712,2,0,P|198:54|260:93,1,150.000005722046,0|0,2:0|2:0,0:0:0:0:
146,73,74949,2,0,P|109:77|79:100,1,75.0000028610231,0|0,2:0|2:0,0:0:0:0:
10,297,75107,37,0,2:0:0:0:
106,322,75212,1,0,2:0:0:0:
203,347,75317,1,0,2:0:0:0:
300,373,75423,6,0,L|9:296,1,300.000011444092,0|0,2:0|1:0,0:0:0:0:
405,36,75738,1,8,2:0:0:0:
389,30,76054,54,0,B|368:43|368:43|393:44,1,50,0|0,2:0|0:0,0:0:0:0:
428,162,76212,1,8,2:0:0:0:
498,82,76371,53,0,2:0:0:0:
493,122,76449,1,0,2:0:0:0:
489,163,76528,1,0,1:0:0:0:
485,204,76607,1,0,2:0:0:0:
481,245,76686,101,0,2:0:0:0:
398,301,76791,1,0,2:0:0:0:
304,262,76896,1,0,2:0:0:0:
221,318,77002,70,0,L|215:268,1,50,8|0,2:0|0:0,0:0:0:0:
11,242,77159,2,0,L|47:207,1,50,0|0,2:0|0:0,0:0:0:0:
221,318,77317,54,0,L|184:352,1,50,0|0,2:0|2:0,0:0:0:0:
11,242,77475,2,0,L|16:291,1,50,0|0,2:0|2:0,0:0:0:0:
116,280,77633,102,0,B|102:317|102:317|107:328|107:328|91:322|91:322|96:333|96:333|82:371,2,119.999996337891,0|0|0,2:0|2:0|2:0,0:0:0:0:
230,113,77949,2,0,B|216:75|216:75|221:64|221:64|205:70|205:70|210:59|210:59|196:21,2,119.999996337891,0|0|0,2:0|2:0|2:0,0:0:0:0:
277,272,78265,53,8,2:0:0:0:
394,248,78370,1,0,2:0:0:0:
511,224,78475,1,0,2:0:0:0:
488,267,78581,53,8,2:0:0:0:
394,248,78686,1,0,2:0:0:0:
300,229,78791,1,0,2:0:0:0:
356,361,78896,5,4,1:2:0:0:
356,361,79212,54,0,B|387:342|387:342|401:291|401:291|376:229|376:229|396:207|396:207|403:181|403:181|422:159|422:159|397:97|397:97|411:45|411:45|444:27,2,400,0|0|0,2:0|2:0|2:0,0:0:0:0:
356,361,80081,1,0,2:0:0:0:
356,361,80159,70,0,L|348:349,1,15,0|0,2:0|0:0,0:0:0:0:
400,195,80475,2,0,L|392:183,1,15,0|0,2:0|0:0,0:0:0:0:
443,27,80791,2,0,L|435:15,1,15,0|0,2:0|0:0,0:0:0:0:
451,39,81107,70,0,L|50:86,1,400,8|0,2:0|0:0,0:0:0:0:
53,85,81423,1,4,1:2:0:0:
13,201,81738,102,0,P|109:230|155:140,1,220.000006713867,8|0,2:0|0:0,0:0:0:0:
53,85,82054,53,0,2:0:0:0:
402,230,82212,1,0,1:0:0:0:
459,85,82370,1,8,2:0:0:0:
110,230,82528,1,0,1:0:0:0:
255,132,82686,54,0,P|313:74|256:16,1,179.999994506836,0|0,2:0|1:0,0:0:0:0:
257,16,83002,2,0,P|199:73|256:131,1,179.999994506836,8|0,2:0|0:0,0:0:0:0:
469,247,83317,6,0,B|415:261|415:261|369:302|369:302|281:240|281:240|269:300|269:300|242:307|242:307|230:368|230:368|142:305|142:305|96:346|96:346|43:361,2,600.000022888185,0|8|0,1:0|2:0|1:0,0:0:0:0:
349,82,84265,37,8,2:0:0:0:
490,29,84423,1,0,0:0:0:0:
317,372,84581,54,0,L|311:322,1,50,0|0,2:0|2:0,0:0:0:0:
216,315,84738,2,0,L|210:265,1,50,0|0,2:0|2:0,0:0:0:0:
115,258,84896,2,0,L|109:208,1,50,8|0,2:0|2:0,0:0:0:0:
14,201,85054,2,0,L|8:151,1,50,0|0,1:0|2:0,0:0:0:0:
212,139,85212,21,0,2:0:0:0:
303,79,85317,1,0,1:0:0:0:
396,21,85423,1,0,1:0:0:0:
381,15,85528,53,8,2:0:0:0:
441,107,85634,1,0,1:0:0:0:
499,200,85739,1,0,1:0:0:0:
506,185,85844,53,0,2:0:0:0:
413,243,85950,1,0,1:0:0:0:
320,302,86055,1,0,1:0:0:0:
335,308,86159,102,0,L|217:122,1,220.000006713867,8|0,2:0|0:0,0:0:0:0:
359,161,86475,1,4,1:2:0:0:
457,118,86791,38,0,P|431:23|339:56,1,220.000006713867,8|0,2:0|0:0,0:0:0:0:
359,161,87107,53,0,2:0:0:0:
93,257,87265,1,0,2:0:0:0:
153,161,87423,1,8,2:0:0:0:
418,257,87581,1,0,1:0:0:0:
153,353,87738,53,0,2:0:0:0:
419,65,87896,1,0,1:0:0:0:
93,65,88054,1,8,2:0:0:0:
359,353,88212,1,0,1:0:0:0:
366,366,88291,1,0,1:0:0:0:
376,376,88370,70,0,B|388:382|401:376|405:362|405:362|395:325,1,75.0000028610231,0|0,2:0|2:0,0:0:0:0:
322,172,88528,2,0,B|310:166|297:172|293:186|293:186|304:222,1,75.0000028610231,0|0,1:0|2:0,0:0:0:0:
451,247,88686,2,0,B|457:235|451:222|437:218|437:218|401:228,1,75.0000028610231,8|0,2:0|2:0,0:0:0:0:
247,301,88844,2,0,B|241:313|247:326|261:330|261:330|298:319,1,75.0000028610231,0|0,2:0|2:0,0:0:0:0:
83,57,89002,85,0,1:0:0:0:
53,371,89159,1,0,2:0:0:0:
132,82,89317,5,8,2:0:0:0:
216,320,89474,1,0,1:0:0:0:
176,83,89633,5,0,2:0:0:0:
317,228,89790,1,0,2:0:0:0:
208,69,89949,5,8,2:0:0:0:
360,126,90106,1,0,1:0:0:0:
355,37,90265,85,0,2:0:0:0:
225,47,90422,1,0,1:0:0:0:
349,330,90581,53,8,2:0:0:0:
439,354,90660,1,0,1:0:0:0:
414,264,90739,1,0,1:0:0:0:
199,177,90896,70,0,B|192:220|175:214|175:214|181:198|219:221,2,100,8|8|4,2:0|2:0|1:2,0:0:0:0:
304,160,91844,22,0,L|422:178,1,119.999996337891,8|0,0:0|0:0,0:0:0:0:
209,322,92159,1,0,1:0:0:0:
115,342,92238,1,0,1:0:0:0:
21,362,92317,1,0,1:0:0:0:
206,51,92475,2,0,L|87:32,1,119.999996337891,8|0,2:0|1:0,0:0:0:0:
340,31,92791,53,0,1:0:0:0:
69,234,92949,1,0,1:0:0:0:
381,367,93107,2,0,P|374:295|311:259,1,150.000005722046,8|0,2:0|0:0,0:0:0:0:
41,129,93423,22,0,B|92:142|92:142|150:130|150:130|194:170|194:170|259:132|259:132|232:235|232:235|297:197|297:197|341:237|341:237|400:225|400:225|451:238,2,600.000022888185,0|0|0,1:0|1:0|1:0,0:0:0:0:
97,22,94212,21,0,2:0:0:0:
9,355,94370,1,8,2:0:0:0:
107,319,94449,1,0,2:0:0:0:
27,251,94528,1,0,1:0:0:0:
415,362,94686,53,0,2:0:0:0:
256,192,94844,1,0,2:0:0:0:
503,29,95002,1,8,2:0:0:0:
405,65,95081,1,0,2:0:0:0:
485,133,95160,1,0,1:0:0:0:
189,366,95317,6,0,L|115:23,1,350.00000333786,8|0,2:0|1:0,0:0:0:0:
430,259,95633,38,0,L|87:332,1,350.00000333786,8|0,2:0|1:0,0:0:0:0:
323,18,95949,86,0,L|396:360,1,350.00000333786,8|0,2:0|1:0,0:0:0:0:
82,125,96265,6,0,L|424:51,1,350.00000333786,8|0,2:0|1:0,0:0:0:0:
486,166,96581,5,0,1:0:0:0:
494,150,96659,1,0,2:0:0:0:
496,132,96738,1,0,2:0:0:0:
354,265,96896,2,0,P|350:322|395:359,1,119.999996337891,8|0,2:0|1:0,0:0:0:0:
459,273,97212,53,0,2:0:0:0:
132,160,97370,1,0,2:0:0:0:
53,273,97528,1,8,2:0:0:0:
380,160,97686,1,0,1:0:0:0:
191,328,97844,54,0,P|255:360|320:327,1,150.000005722046,0|0,2:0|1:0,0:0:0:0:
319,56,98159,2,0,B|271:56|255:24|255:24|239:56|192:56,1,150.000005722046,8|0,2:0|1:0,0:0:0:0:
189,75,98396,1,0,1:0:0:0:
203,86,98475,86,0,B|211:107|211:107|207:122|192:134|170:134,1,75.0000028610231,0|0,2:0|2:0,0:0:0:0:
0,173,98633,2,0,B|-8:152|-8:152|-4:137|11:125|32:124,1,75.0000028610231,0|0,1:0|2:0,0:0:0:0:
145,231,98791,2,0,B|124:239|124:239|109:235|97:220|96:198,1,75.0000028610231,8|0,2:0|2:0,0:0:0:0:
58,28,98949,2,0,B|79:20|79:20|94:24|106:39|106:60,1,75.0000028610231,0|0,2:0|2:0,0:0:0:0:
74,360,99107,101,0,1:0:0:0:
458,309,99265,1,0,2:0:0:0:
245,201,99423,53,8,2:0:0:0:
480,262,99581,1,0,1:0:0:0:
372,155,99738,101,0,2:0:0:0:
452,138,99817,1,0,2:0:0:0:
396,108,99896,53,0,2:0:0:0:
438,91,99975,1,0,2:0:0:0:
420,61,100054,54,0,P|407:37|393:19,3,50,8|0|0|0,2:0|2:0|1:0|2:0,0:0:0:0:
277,57,100370,53,0,2:0:0:0:
298,77,100449,1,0,2:0:0:0:
226,93,100528,5,0,1:0:0:0:
250,131,100607,1,0,2:0:0:0:
163,110,100686,5,8,2:0:0:0:
182,174,100765,1,0,1:0:0:0:
96,104,100844,5,0,1:0:0:0:
99,205,100923,1,0,2:0:0:0:
11,158,101002,6,0,L|55:-1,1,150.000005722046,8|0,2:0|1:0,0:0:0:0:
169,321,101317,38,0,B|134:313|127:348|107:337|107:337|88:326|81:360|46:353,2,133.333333333333,8|8|8,2:0|2:0|2:0,0:0:0:0:
169,321,102265,6,0,B|224:284|322:300|355:356|355:356|335:379|298:382|273:358,1,300,0|0,2:0|2:0,0:0:0:0:
278,329,102581,2,0,P|263:296|274:261,1,75.0000028610231,8|0,2:0|0:0,0:0:0:0:
444,22,102896,22,0,B|503:92|503:92|373:81|373:81|358:63|358:63|228:52,1,375,4|0,1:2|2:0,0:0:0:0:
236,154,103212,2,0,B|303:159|303:159|318:177|318:177|447:188,1,220.000006713867,8|0,2:0|0:0,0:0:0:0:
115,346,103528,53,0,1:0:0:0:
83,300,103607,1,0,1:0:0:0:
93,246,103686,1,0,1:0:0:0:
207,274,103844,1,8,2:0:0:0:
21,137,104002,1,0,1:0:0:0:
395,322,104159,54,0,B|426:327|452:314|459:285|459:285|446:188,1,179.999994506836,0|0,2:0|1:0,0:0:0:0:
449,24,104475,2,0,P|414:38|407:72,1,75,8|0,2:0|2:0,0:0:0:0:
428,93,104791,38,0,B|313:73|313:73|283:51|283:51|169:30,3,270.000001029968,8|0|8|0,2:0|1:0|2:0|2:0,0:0:0:0:
96,128,105423,6,0,B|123:143|123:143|107:171,1,64,0|0,1:0|0:0,0:0:0:0:
5,284,105581,2,0,B|20:256|20:256|48:272,1,64,0|0,2:0|0:0,0:0:0:0:
162,375,105738,2,0,B|134:359|134:359|150:331,1,64,8|0,2:0|0:0,0:0:0:0:
252,218,105896,2,0,B|236:245|236:245|208:229,1,64,0|0,1:0|0:0,0:0:0:0:
89,229,106054,69,0,2:0:0:0:
106,290,106159,1,0,2:0:0:0:
168,274,106264,1,0,2:0:0:0:
151,212,106369,1,8,2:0:0:0:
129,251,106527,101,0,1:0:0:0:
442,355,106686,1,0,2:0:0:0:
451,282,106765,1,0,2:0:0:0:
460,209,106844,2,0,B|495:370|495:370|476:351|476:351|485:324,2,220.000006713867,0|8|0,1:0|2:0|1:0,0:0:0:0:
145,53,107317,5,8,2:0:0:0:
242,76,107423,1,0,0:0:0:0:
339,99,107528,1,0,0:0:0:0:
351,88,107633,38,0,L|256:116,1,100,8|0,2:0|0:0,0:0:0:0:
20,369,107949,54,0,B|-19:318|-2:253|57:223|113:221|163:278|159:331|133:364|133:364|126:331|105:315,1,375,0|0,1:0|2:0,0:0:0:0:
0,166,108265,2,0,P|93:148|178:184,1,189.999994926453,8|0,2:0|0:0,0:0:0:0:
480,352,108581,54,0,B|456:368|456:368|463:328|463:328|439:344|439:344|298:320,1,240,0|0,2:0|2:0,0:0:0:0:
274,334,108896,1,8,2:0:0:0:
494,149,109054,2,0,P|495:111|455:66,1,80,0|0,1:0|2:0,0:0:0:0:
353,24,109212,53,0,2:0:0:0:
62,230,109370,1,0,0:0:0:0:
383,378,109528,1,8,2:0:0:0:
207,116,109686,1,0,1:0:0:0:
186,124,109765,1,0,1:0:0:0:
164,131,109844,86,0,B|172:172|172:172|157:224|157:224|103:284|103:284|90:336|90:336|98:376,3,270.000001029968,8|0|8|0,2:0|1:0|2:0|2:0,0:0:0:0:
69,160,110475,86,0,B|29:95|29:95|106:4|106:4|176:32,1,269.999991760254,0|0,1:0|2:0,0:0:0:0:
164,131,110791,1,8,2:0:0:0:
470,50,110949,1,0,1:0:0:0:
328,134,111107,69,0,0:0:0:0:
273,102,111212,1,0,0:0:0:0:
305,47,111317,1,0,0:0:0:0:
360,79,111422,1,8,2:0:0:0:
317,90,111581,101,0,1:0:0:0:
495,339,111738,1,0,2:0:0:0:
495,339,111896,2,0,B|426:326|426:326|415:330|415:330|347:318,1,150.000005722046,0|8,1:0|2:0,0:0:0:0:
400,288,112133,1,0,1:0:0:0:
452,258,112212,1,0,1:0:0:0:
119,378,112370,53,8,2:0:0:0:
78,323,112449,1,0,2:0:0:0:
38,268,112528,1,0,1:0:0:0:
65,206,112607,1,0,2:0:0:0:
93,143,112686,70,0,B|65:109|65:109|52:108|52:108|66:96|66:96|53:94|53:94|25:60,2,133.333333333333,8|8|8,2:0|2:0|2:0,0:0:0:0:
293,236,113002,53,0,2:0:0:0:
386,201,113107,1,0,1:0:0:0:
483,170,113212,1,0,1:0:0:0:
464,268,113317,53,0,2:0:0:0:
447,365,113422,1,0,1:0:0:0:
371,301,113528,1,0,1:0:0:0:
293,236,113633,102,0,L|386:202,1,100,0|0,2:0|0:0,0:0:0:0:
483,170,113791,2,0,L|464:267,1,100,0|0,1:0|0:0,0:0:0:0:
447,365,113949,2,0,L|294:237,1,200,8|0,2:0|0:0,0:0:0:0:
5,210,114265,86,0,B|47:146|47:146|45:128|45:128|114:157|114:157|112:141|112:141|188:25|188:25|293:236|293:236|200:197|200:197|221:159,2,700.00000667572,8|4|0,2:0|1:2|0:0,0:0:0:0:
