osu file format v14

[General]
AudioFilename: audio.MP3
AudioLeadIn: 0
PreviewTime: 32057
Countdown: 0
SampleSet: Soft
StackLeniency: 0.2
Mode: 0
LetterboxInBreaks: 0
WidescreenStoryboard: 0

[Editor]
DistanceSpacing: 0.3
BeatDivisor: 8
GridSize: 4
TimelineZoom: 4.199999

[Metadata]
Title:Transport
TitleUnicode:Transport
Artist:Sota Fujimori
ArtistUnicode:Sota Fujimori
Creator:verychill
Version:9.8
Source:beatmania IIDX 23 copula
Tags:instrumental videogame techstream
BeatmapID:2176962
BeatmapSetID:1041620

[Difficulty]
HPDrainRate:5
CircleSize:4
OverallDifficulty:9.2
ApproachRate:9.8
SliderMultiplier:2.4
SliderTickRate:1

[Events]
//Background and Video events
0,0,"bg.jpg",0,0
//Break Periods
//Storyboard Layer 0 (Background)
//Storyboard Layer 1 (Fail)
//Storyboard Layer 2 (Pass)
//Storyboard Layer 3 (Foreground)
//Storyboard Layer 4 (Overlay)
//Storyboard Sound Samples

[TimingPoints]
1037,408.163265306122,4,2,0,75,1,0
1445,-100,4,2,0,5,0,0
1547,-100,4,2,0,75,0,0
1649,-71.4285714285714,4,2,0,75,0,0
2159,-83.3333333333333,4,2,0,75,0,0
2669,-100,4,2,0,75,0,0
3077,-66.6666666666667,4,2,0,75,0,0
3281,-100,4,2,0,75,0,0
4098,-125,4,2,0,75,0,0
4251,-125,4,2,0,5,0,0
4302,-100,4,2,0,75,0,0
4455,-100,4,2,0,5,0,0
4506,-100,4,2,0,75,0,0
4608,-83.3333333333333,4,2,0,75,0,0
4710,-83.3333333333333,4,2,0,5,0,0
4812,-83.3333333333333,4,2,0,75,0,0
4914,-71.4285714285714,4,2,0,75,0,0
5220,-100,4,2,0,75,0,0
5424,-66.6666666666667,4,2,0,75,0,0
5934,-100,4,2,0,75,0,0
6190,-100,4,2,0,5,0,0
6241,-100,4,2,0,75,0,0
6292,-100,4,2,0,5,0,0
6343,-100,4,2,0,75,0,0
6598,-100,4,2,0,5,0,0
6649,-100,4,2,0,75,0,0
6700,-100,4,2,0,5,0,0
6751,-100,4,2,0,75,0,0
6802,-100,4,2,0,5,0,0
6853,-100,4,2,0,75,0,0
7057,-66.6666666666667,4,2,0,75,0,0
7567,-100,4,2,0,75,0,0
7618,-100,4,2,0,5,0,0
7669,-83.3333333333333,4,2,0,75,0,0
7720,-83.3333333333333,4,2,0,5,0,0
7771,-71.4285714285714,4,2,0,75,0,0
7822,-71.4285714285714,4,2,0,5,0,0
7873,-66.6666666666667,4,2,0,75,0,0
7975,-66.6666666666667,4,2,0,5,0,0
8077,-66.6666666666667,4,2,0,75,0,0
8179,-71.4285714285714,4,2,0,75,0,0
8332,-71.4285714285714,4,2,0,5,0,0
8383,-100,4,2,0,75,0,0
8690,-57.1428571428571,4,2,0,75,0,0
9200,-100,4,2,0,75,0,0
9659,-100,4,2,0,5,0,0
9710,-100,4,2,0,75,0,0
9761,-100,4,2,0,5,0,0
9812,-100,4,2,0,75,0,0
10220,-71.4285714285714,4,2,0,75,0,0
10628,-57.1428571428571,4,2,0,75,0,0
10781,-57.1428571428571,4,2,0,5,0,0
10832,-100,4,2,0,75,0,0
10985,-100,4,2,0,5,0,0
11036,-100,4,2,0,75,0,0
11139,-71.4285714285714,4,2,0,75,0,0
11241,-71.4285714285714,4,2,0,5,0,0
11343,-71.4285714285714,4,2,0,75,0,0
11445,-71.4285714285714,4,2,0,75,0,0
11955,-66.6666666666667,4,2,0,75,0,0
12465,-83.3333333333333,4,2,0,75,0,0
13077,-100,4,2,0,75,0,0
13281,-66.6666666666667,4,2,0,75,0,0
13639,-66.6666666666667,4,2,0,5,0,0
13690,-100,4,2,0,75,0,0
14098,-125,4,2,0,75,0,0
14659,-125,4,2,0,5,0,0
14710,-125,4,2,0,75,0,0
15781,-125,4,2,0,5,0,0
15832,-125,4,2,0,75,0,0
18996,-66.6666666666667,4,2,0,75,0,0
19761,-66.6666666666667,4,2,0,5,0,0
19812,-66.6666666666667,4,2,0,75,0,0
20424,-100,4,2,0,75,0,0
20628,-66.6666666666667,4,2,0,75,0,0
20781,-66.6666666666667,4,2,0,5,0,0
20832,-66.6666666666667,4,2,0,75,0,0
21036,-100,4,2,0,75,0,0
21598,-100,4,2,0,5,0,0
21649,-100,4,2,0,75,0,0
22057,-83.3333333333333,4,2,0,75,0,0
22210,-83.3333333333333,4,2,0,5,0,0
22261,-100,4,2,0,75,0,0
22822,-100,4,2,0,5,0,0
22873,-100,4,2,0,75,0,0
22975,-66.6666666666667,4,2,0,75,0,0
23179,-100,4,2,0,75,0,0
23230,-100,4,2,0,5,0,0
23281,-100,4,2,0,75,0,0
23588,-83.3333333333333,4,2,0,75,0,0
23894,-66.6666666666667,4,2,0,75,0,0
24149,-66.6666666666667,4,2,0,5,0,0
24200,-66.6666666666667,4,2,0,75,0,0
24302,-100,4,2,0,75,0,0
24863,-100,4,2,0,5,0,0
24914,-100,4,2,0,75,0,0
25271,-100,4,2,0,5,0,0
25322,-66.6666666666667,4,2,0,75,0,0
25475,-66.6666666666667,4,2,0,5,0,0
25526,-57.1428571428571,4,2,0,75,0,0
25679,-57.1428571428571,4,2,0,5,0,0
25730,-50,4,2,0,75,0,0
25934,-66.6666666666667,4,2,0,75,0,0
26088,-66.6666666666667,4,2,0,5,0,0
26139,-100,4,2,0,75,0,0
26190,-100,4,2,0,5,0,0
26241,-66.6666666666667,4,2,0,75,0,0
26496,-66.6666666666667,4,2,0,5,0,0
26547,-66.6666666666667,4,2,0,75,0,0
26700,-66.6666666666667,4,2,0,5,0,0
26751,-125,4,2,0,75,0,0
27159,-66.6666666666667,4,2,0,75,0,0
27312,-66.6666666666667,4,2,0,5,0,0
27363,-100,4,2,0,75,0,0
28128,-100,4,2,0,5,0,0
28179,-100,4,2,0,75,0,0
28588,-66.6666666666667,4,2,0,75,0,0
28741,-66.6666666666667,4,2,0,5,0,0
28792,-100,4,2,0,75,0,0
29353,-100,4,2,0,5,0,0
29404,-100,4,2,0,75,0,0
29455,-100,4,2,0,5,0,0
29506,-66.6666666666667,4,2,0,75,0,0
29710,-125,4,2,0,75,0,0
30220,-83.3333333333333,4,2,0,75,0,0
30526,-66.6666666666667,4,2,0,75,0,0
30730,-100,4,2,0,75,0,0
30781,-100,4,2,0,5,0,0
30832,-100,4,2,0,75,0,0
30985,-100,4,2,0,5,0,0
31036,-100,4,2,0,75,0,0
31394,-100,4,2,0,5,0,0
31445,-100,4,2,0,75,0,0
31853,-83.3333333333333,4,2,0,75,0,0
32006,-83.3333333333333,4,2,0,5,0,0
32057,-66.6666666666667,4,2,0,75,0,0
32210,-66.6666666666667,4,2,0,5,0,0
32261,-66.6666666666667,4,2,0,75,0,0
33281,-83.3333333333333,4,2,0,75,0,0
33639,-83.3333333333333,4,2,0,5,0,0
33690,-66.6666666666667,4,2,0,75,0,0
33894,-100,4,2,0,75,0,0
34251,-100,4,2,0,5,0,0
34302,-100,4,2,0,75,0,0
34659,-100,4,2,0,5,0,0
34710,-125,4,2,0,75,0,0
35067,-125,4,2,0,5,0,0
35118,-83.3333333333333,4,2,0,75,0,0
35271,-83.3333333333333,4,2,0,5,0,0
35322,-100,4,2,0,75,0,0
35883,-100,4,2,0,5,0,0
35934,-100,4,2,0,75,0,0
35985,-100,4,2,0,5,0,0
36036,-66.6666666666667,4,2,0,75,0,0
36241,-100,4,2,0,75,0,0
36292,-100,4,2,0,5,0,0
36343,-100,4,2,0,75,0,0
36649,-83.3333333333333,4,2,0,75,0,0
36955,-71.4285714285714,4,2,0,75,0,0
37210,-71.4285714285714,4,2,0,5,0,0
37261,-57.1428571428571,4,2,0,75,0,0
37516,-57.1428571428571,4,2,0,5,0,0
37567,-100,4,2,0,75,0,0
37924,-100,4,2,0,5,0,0
37975,-100,4,2,0,75,0,0
38332,-100,4,2,0,5,0,0
38383,-66.6666666666667,4,2,0,75,0,0
38536,-66.6666666666667,4,2,0,5,0,0
38588,-57.1428571428571,4,2,0,75,0,0
38741,-57.1428571428571,4,2,0,5,0,0
38792,-50,4,2,0,75,0,0
38996,-66.6666666666667,4,2,0,75,0,0
39149,-66.6666666666667,4,2,0,5,0,0
39200,-100,4,2,0,75,0,0
39251,-100,4,2,0,5,0,0
39302,-66.6666666666667,4,2,0,75,0,0
39557,-66.6666666666667,4,2,0,5,0,0
39608,-66.6666666666667,4,2,0,75,0,0
39761,-66.6666666666667,4,2,0,5,0,0
39812,-50,4,2,0,75,0,0
40220,-66.6666666666667,4,2,0,75,0,0
40373,-66.6666666666667,4,2,0,5,0,0
40424,-100,4,2,0,75,0,0
41190,-100,4,2,0,5,0,0
41241,-125,4,2,0,75,0,0
41598,-125,4,2,0,5,0,0
41649,-83.3333333333333,4,2,0,75,0,0
41802,-83.3333333333333,4,2,0,5,0,0
41853,-83.3333333333333,4,2,0,75,0,0
43077,-66.6666666666667,4,2,0,75,0,0
43230,-66.6666666666667,4,2,0,5,0,0
43281,-66.6666666666667,4,2,0,75,0,0
43485,-83.3333333333333,4,2,0,75,0,0
43639,-83.3333333333333,4,2,0,5,0,0
43690,-83.3333333333333,4,2,0,75,0,0
43843,-83.3333333333333,4,2,0,5,0,0
43894,-83.3333333333333,4,2,0,75,0,0
44404,-100,4,2,0,75,0,0
44455,-100,4,2,0,5,0,0
44506,-100,4,2,0,75,0,0
44557,-100,4,2,0,5,0,0
44608,-100,4,2,0,75,0,0
44812,-100,4,2,0,5,0,0
44914,-83.3333333333333,4,2,0,75,0,0
45067,-83.3333333333333,4,2,0,5,0,0
45118,-74.0740740740741,4,2,0,75,0,0
45271,-74.0740740740741,4,2,0,5,0,0
45322,-66.6666666666667,4,2,0,75,0,0
46343,-66.6666666666667,4,2,0,75,0,0
46394,-66.6666666666667,4,2,0,5,0,0
46445,-66.6666666666667,4,2,0,75,0,0
46496,-66.6666666666667,4,2,0,5,0,0
46547,-66.6666666666667,4,2,0,75,0,0
46598,-66.6666666666667,4,2,0,5,0,0
46751,-100,4,2,0,75,0,0
47210,-100,4,2,0,5,0,0
47261,-100,4,2,0,75,0,0
47312,-100,4,2,0,5,0,0
47363,-100,4,2,0,75,0,0
47414,-100,4,2,0,5,0,0
47567,-100,4,2,0,75,0,0
47618,-100,4,2,0,5,0,0
47669,-100,4,2,0,75,0,0
47720,-100,4,2,0,5,0,0
47771,-100,4,2,0,75,0,0
47822,-100,4,2,0,5,0,0
47873,-100,4,2,0,75,0,0
47924,-100,4,2,0,5,0,0
47975,-57.1428571428571,4,2,0,75,0,1
48332,-57.1428571428571,4,2,0,5,0,1
48383,-66.6666666666667,4,2,0,75,0,0
49353,-66.6666666666667,4,2,0,5,0,0
49404,-66.6666666666667,4,2,0,75,0,0
49863,-66.6666666666667,4,2,0,5,0,0
49914,-66.6666666666667,4,2,0,75,0,0
49965,-66.6666666666667,4,2,0,5,0,0
50016,-66.6666666666667,4,2,0,75,0,0
51241,-100,4,2,0,75,0,0
51394,-100,4,2,0,5,0,0
51445,-66.6666666666667,4,2,0,75,0,0
51598,-66.6666666666667,4,2,0,5,0,0
51649,-66.6666666666667,4,2,0,75,0,0
52669,-57.1428571428571,4,2,0,75,0,0
52822,-57.1428571428571,4,2,0,5,0,0
52873,-57.1428571428571,4,2,0,75,0,0
53026,-57.1428571428571,4,2,0,5,0,0
53077,-66.6666666666667,4,2,0,75,0,0
53128,-66.6666666666667,4,2,0,5,0,0
53179,-66.6666666666667,4,2,0,75,0,0
53230,-66.6666666666667,4,2,0,5,0,0
53281,-66.6666666666667,4,2,0,75,0,0
55883,-66.6666666666667,4,2,0,5,0,0
55934,-66.6666666666667,4,2,0,75,0,0
56292,-66.6666666666667,4,2,0,5,0,0
56343,-66.6666666666667,4,2,0,75,0,0
56394,-66.6666666666667,4,2,0,5,0,0
56445,-66.6666666666667,4,2,0,75,0,0
56496,-66.6666666666667,4,2,0,5,0,0
56547,-66.6666666666667,4,2,0,75,0,0
57771,-100,4,2,0,75,0,0
57924,-100,4,2,0,5,0,0
57975,-66.6666666666667,4,2,0,75,0,0
58128,-66.6666666666667,4,2,0,5,0,0
58179,-66.6666666666667,4,2,0,75,0,0
59200,-57.1428571428571,4,2,0,75,0,0
59353,-57.1428571428571,4,2,0,5,0,0
59404,-57.1428571428571,4,2,0,75,0,0
59557,-57.1428571428571,4,2,0,5,0,0
59608,-66.6666666666667,4,2,0,75,0,0
59659,-66.6666666666667,4,2,0,5,0,0
59710,-66.6666666666667,4,2,0,75,0,0
59761,-66.6666666666667,4,2,0,5,0,0
59812,-66.6666666666667,4,2,0,75,0,0
61036,-50,4,2,0,75,0,0
61394,-50,4,2,0,5,0,0
61445,-66.6666666666667,4,2,0,75,0,1
62669,-100,4,2,0,75,0,1
62822,-100,4,2,0,5,0,1
62873,-100,4,2,0,75,0,1
62924,-100,4,2,0,5,0,1
62975,-100,4,2,0,75,0,1
63026,-100,4,2,0,5,0,1
63077,-66.6666666666667,4,2,0,75,0,1
64149,-66.6666666666667,4,2,0,5,0,1
64200,-66.6666666666667,4,2,0,75,0,1
64455,-66.6666666666667,4,2,0,5,0,1
64506,-57.1428571428571,4,2,0,75,0,1
64659,-57.1428571428571,4,2,0,5,0,1
64710,-66.6666666666667,4,2,0,75,0,1
65934,-100,4,2,0,75,0,1
66088,-100,4,2,0,5,0,1
66139,-100,4,2,0,75,0,1
66190,-100,4,2,0,5,0,1
66241,-100,4,2,0,75,0,1
66292,-100,4,2,0,5,0,1
66343,-66.6666666666667,4,2,0,75,0,1
66496,-66.6666666666667,4,2,0,5,0,1
66547,-66.6666666666667,4,2,0,75,0,1
66700,-66.6666666666667,4,2,0,5,0,1
66751,-66.6666666666667,4,2,0,75,0,1
67159,-80,4,2,0,75,0,1
67312,-80,4,2,0,5,0,1
67363,-80,4,2,0,75,0,1
67516,-80,4,2,0,5,0,1
67567,-57.1428571428571,4,2,0,75,0,1
67924,-57.1428571428571,4,2,0,5,0,1
67975,-66.6666666666667,4,2,0,75,0,1
69200,-100,4,2,0,75,0,1
69353,-100,4,2,0,5,0,1
69404,-100,4,2,0,75,0,1
69455,-100,4,2,0,5,0,1
69506,-100,4,2,0,75,0,1
69557,-100,4,2,0,5,0,1
69608,-66.6666666666667,4,2,0,75,0,1
70424,-80,4,2,0,75,0,1
70730,-66.6666666666667,4,2,0,75,0,1
71036,-100,4,2,0,75,0,1
71394,-100,4,2,0,5,0,1
71445,-100,4,2,0,75,0,1
72669,-100,4,2,0,75,0,1
72720,-100,4,2,0,5,0,1
72771,-100,4,2,0,75,0,1
72822,-100,4,2,0,5,0,1
72873,-80,4,2,0,75,0,1
73026,-80,4,2,0,5,0,1
73077,-80,4,2,0,75,0,1
73230,-80,4,2,0,5,0,1
73281,-80,4,2,0,75,0,1
73485,-57.1428571428571,4,2,0,75,0,1
73690,-66.6666666666667,4,2,0,75,0,1
74302,-57.1428571428571,4,2,0,75,0,1
74455,-57.1428571428571,4,2,0,5,0,1
74506,-66.6666666666667,4,2,0,75,0,0
77771,-66.6666666666667,4,2,0,75,0,1
78281,-66.6666666666667,4,2,0,75,0,1
78639,-66.6666666666667,4,2,0,5,0,1
78690,-66.6666666666667,4,2,0,75,0,1
80781,-66.6666666666667,4,2,0,5,0,1
80832,-66.6666666666667,4,2,0,75,0,1
80985,-66.6666666666667,4,2,0,5,0,1
81036,-50,4,2,0,75,0,0
81088,-50,4,2,0,5,0,0
81445,-66.6666666666667,4,2,0,75,0,0
84302,-66.6666666666667,4,2,0,75,0,1
85169,-66.6666666666667,4,2,0,5,0,1
85220,-66.6666666666667,4,2,0,75,0,1
85934,-66.6666666666667,4,2,0,75,0,0
86088,-66.6666666666667,4,2,0,5,0,0
86139,-66.6666666666667,4,2,0,75,0,0
87159,-83.3333333333333,4,2,0,75,0,1
87516,-83.3333333333333,4,2,0,5,0,1
87567,-100,4,2,0,75,0,0
88383,-66.6666666666667,4,2,0,75,0,0
88588,-100,4,2,0,75,0,0
91802,-100,4,2,0,5,0,0
91853,-100,4,2,0,75,0,0
92159,-100,4,2,0,5,0,0
92261,-100,4,2,0,75,0,0
92414,-100,4,2,0,5,0,0
92465,-66.6666666666667,4,2,0,75,0,0
92720,-66.6666666666667,4,2,0,5,0,0
92771,-100,4,2,0,75,0,0
93230,-100,4,2,0,5,0,0
93281,-100,4,2,0,75,0,0
94149,-100,4,2,0,5,0,0
94200,-100,4,2,0,75,0,0
94251,-100,4,2,0,5,0,0
94302,-100,4,2,0,75,0,0
94353,-100,4,2,0,5,0,0
94404,-100,4,2,0,75,0,0
94455,-100,4,2,0,5,0,0
94506,-66.6666666666667,4,2,0,75,0,0
95322,-100,4,2,0,75,0,0
95730,-80,4,2,0,75,0,0
98128,-80,4,2,0,5,0,0
98179,-80,4,2,0,75,0,0
98332,-80,4,2,0,5,0,0
98383,-80,4,2,0,75,0,0
98741,-80,4,2,0,5,0,0
98792,-80,4,2,0,75,0,0
101190,-80,4,2,0,5,0,0
101241,-80,4,2,0,75,0,0
101292,-80,4,2,0,5,0,0
101343,-80,4,2,0,75,0,0
101394,-80,4,2,0,5,0,0
101445,-80,4,2,0,75,0,0
101496,-80,4,2,0,5,0,0
101547,-80,4,2,0,75,0,0
101802,-80,4,2,0,5,0,0
101853,-57.1428571428571,4,2,0,75,0,0
102210,-57.1428571428571,4,2,0,5,0,0
102261,-125,4,2,0,75,0,0
102618,-125,4,2,0,5,0,0
102669,-80,4,2,0,75,0,0
103230,-80,4,2,0,5,0,0
103281,-80,4,2,0,75,0,0
103588,-100,4,2,0,75,0,0
104659,-100,4,2,0,5,0,0
104710,-66.6666666666667,4,2,0,75,0,0
104863,-66.6666666666667,4,2,0,5,0,0
104914,-66.6666666666667,4,2,0,75,0,0
105271,-66.6666666666667,4,2,0,5,0,0
105322,-66.6666666666667,4,2,0,75,0,0
105526,-66.6666666666667,4,2,0,75,0,0
105832,-62.5,4,2,0,75,0,0
106139,-58.8235294117647,4,2,0,75,0,0
106445,-55.5555555555556,4,2,0,75,0,0
106751,-66.6666666666667,4,2,0,75,0,0
107567,-66.6666666666667,4,2,0,75,0,0
108383,-100,4,2,0,75,0,0
108741,-100,4,2,0,5,0,0
108792,-66.6666666666667,4,2,0,75,0,1
112057,-57.1428571428571,4,2,0,75,0,1
112465,-66.6666666666667,4,2,0,75,0,1
113281,-100,4,2,0,75,0,1
113690,-66.6666666666667,4,2,0,75,0,1
114914,-57.1428571428571,4,2,0,75,0,1
115271,-57.1428571428571,4,2,0,5,0,0
115322,-66.6666666666667,4,2,0,75,0,0
115628,-62.5,4,2,0,75,0,0
115934,-58.8235294117647,4,2,0,75,0,0
116241,-55.5555555555556,4,2,0,75,0,0
116547,-50,4,2,0,75,0,0
116955,-66.6666666666667,4,2,0,75,0,1
118588,-66.6666666666667,4,2,0,75,0,0
118894,-62.5,4,2,0,75,0,0
119200,-58.8235294117647,4,2,0,75,0,0
119506,-55.5555555555556,4,2,0,75,0,0
119812,-100,4,2,0,75,0,0
120169,-100,4,2,0,5,0,0
120220,-66.6666666666667,4,3,0,75,0,1
121343,-100,4,2,0,75,0,1
121547,-66.6666666666667,4,2,0,75,0,1
121853,-66.6666666666667,4,2,0,75,0,0
122618,-66.6666666666667,4,2,0,5,0,0
122669,-66.6666666666667,4,2,0,75,0,0
123077,-50,4,2,0,75,0,1
123230,-50,4,2,0,5,0,1
123281,-100,4,2,0,75,0,0
125118,-100,4,2,0,5,0,0

[Colours]
Combo1 : 9,9,138
Combo2 : 247,9,109
Combo3 : 245,169,10

[HitObjects]
118,168,1037,6,0,P|109:196|83:227,1,60,2|0,0:0|0:0,0:0:0:0:
265,202,1241,1,2,0:0:0:0:
277,203,1343,2,0,L|350:207,1,60,2|0,0:0|0:0,0:0:0:0:
203,138,1547,1,2,0:0:0:0:
195,129,1649,2,0,B|154:85|154:85|28:90,1,167.999994873047,2|0,0:0|0:0,0:0:0:0:
259,77,1955,1,2,0:0:0:0:
410,31,2159,6,0,B|447:64|447:64|439:178,1,143.999995605469,2|0,0:0|0:0,0:0:0:0:
490,378,2669,6,0,L|416:367,1,60,0|0,3:0|0:0,0:0:0:0:
385,237,2873,1,0,0:0:0:0:
425,166,2975,2,0,L|456:205,1,30
441,159,3077,2,0,B|461:184|461:184|459:248,1,90.0000034332277
430,369,3281,1,0,3:0:0:0:
426,357,3383,1,0,3:0:0:0:
290,255,3485,2,0,L|261:264,3,30,0|0|0|0,3:0|3:0|3:0|3:0,3:0:0:0:
131,377,3792,2,0,P|100:369|72:367,1,60
26,204,4098,6,0,P|62:206|98:201,1,72
110,198,4302,6,0,P|97:149|62:101,1,90,2|0,0:0|0:0,0:0:0:0:
126,13,4506,1,2,0:0:0:0:
239,69,4608,2,0,P|208:106|198:158,1,71.9999978027344,2|0,0:0|0:0,0:0:0:0:
223,277,4812,1,2,0:0:0:0:
357,281,4914,2,0,P|371:204|426:120,1,167.999994873047,2|0,0:0|0:0,0:0:0:0:
512,28,5220,1,2,0:0:0:0:
512,28,5424,6,0,B|411:26|411:26|388:50|388:50|364:25|364:25|262:24,1,270.000010299683,2|0,0:0|0:0,0:0:0:0:
0,173,5934,1,0,3:0:0:0:
13,313,6139,6,0,L|68:318,1,30,0|0,3:0|3:0,3:0:0:0:
116,324,6241,1,0,3:0:0:0:
128,326,6343,2,0,L|132:355,2,30,0|0|0,3:0|3:0|3:0,3:0:0:0:
214,292,6547,6,0,L|241:303,1,30
296,316,6649,2,0,L|324:306,1,30
380,293,6751,2,0,L|431:305,1,30
465,356,6853,2,0,B|448:376|448:376|338:377,1,120
322,192,7159,5,0,0:0:0:0:
356,150,7261,1,0,0:0:0:0:
408,135,7363,1,0,0:0:0:0:
461,135,7465,1,0,0:0:0:0:
509,161,7567,6,0,L|508:190,1,30,2|0,0:0|0:0,0:0:0:0:
408,135,7669,2,0,L|406:99,1,35.9999989013672,2|0,0:0|0:0,0:0:0:0:
322,192,7771,2,0,L|320:233,1,41.9999987182618,2|0,0:0|0:0,0:0:0:0:
242,119,7873,2,0,L|357:113,1,90.0000034332277,2|0,0:0|0:0,0:0:0:0:
405,227,8077,1,2,0:0:0:0:
410,241,8179,2,0,B|380:269|380:269|277:285,1,125.999996154785,2|0,0:0|0:0,0:0:0:0:
217,352,8383,2,0,B|183:313|183:313|99:273,1,120,2|0,0:0|0:0,0:0:0:0:
12,352,8690,6,0,B|88:317|88:317|126:210|126:210|85:78|85:78|129:-21,1,420.000004005432,2|0,0:0|0:0,0:0:0:0:
288,25,9200,5,0,0:0:0:0:
276,28,9302,1,0,0:0:0:0:
264,31,9404,1,2,0:0:0:0:
253,34,9506,1,2,0:0:0:0:
241,38,9608,6,0,L|238:-14,1,30,0|0,3:0|3:0,3:0:0:0:
288,107,9710,2,0,L|279:156,1,30,0|0,3:0|3:0,3:0:0:0:
356,173,9812,1,0,0:0:0:0:
364,173,9863,1,0,0:0:0:0:
372,173,9914,2,0,L|451:177,1,60
173,84,10220,2,0,P|110:114|79:206,1,167.999994873047
212,214,10526,5,0,3:0:0:0:
177,215,10628,2,0,P|233:189|211:247,1,157.500001502037
108,259,10832,2,0,P|97:204|118:155,1,90,2|0,0:0|0:0,0:0:0:0:
239,114,11036,1,2,0:0:0:0:
325,213,11139,2,0,P|306:273|267:311,1,83.9999974365235,2|0,0:0|0:0,0:0:0:0:
167,305,11343,1,2,0:0:0:0:
106,172,11445,2,0,P|48:161|16:241,1,125.999996154785,2|0,0:0|0:0,0:0:0:0:
0,356,11751,1,2,0:0:0:0:
0,356,11955,6,0,B|100:357|100:357|123:333|123:333|147:358|147:358|249:359,1,270.000010299683,2|0,0:0|0:0,0:0:0:0:
408,82,12465,2,0,L|492:76,1,71.9999978027344,0|0,3:0|3:0,3:0:0:0:
303,171,12669,1,0,0:0:0:0:
326,95,12771,1,0,0:0:0:0:
353,145,12873,1,0,0:0:0:0:
277,122,12975,1,0,0:0:0:0:
235,52,13077,6,0,L|260:11,3,30,0|0|0|0,3:0|3:0|3:0|3:0,3:0:0:0:
259,15,13281,2,0,B|281:92|281:92|139:306,1,315.000012016297,2|0,0:0|0:0,0:0:0:0:
128,174,13690,2,0,B|73:72|73:72|0:73,1,180,2|0,0:0|0:0,0:0:0:0:
8,90,14098,6,0,P|13:121|28:156,1,48,2|0,0:0|0:0,0:0:0:0:
54,210,14302,2,0,P|46:232|43:256,1,48
8,330,14506,1,0,0:0:0:0:
95,359,14608,2,0,L|86:326,1,24,0|0,3:0|3:0,3:0:0:0:
143,275,14710,2,0,L|175:266,3,24,0|0|0|0,3:0|3:0|3:0|3:0,3:0:0:0:
207,284,14914,1,0,3:0:0:0:
412,339,15118,2,0,L|412:391,1,48,2|0,0:0|0:0,0:0:0:0:
318,317,15526,5,2,0:0:0:0:
365,250,15628,1,2,0:0:0:0:
445,239,15730,1,0,0:0:0:0:
352,242,15832,1,0,0:0:0:0:
296,196,15934,1,0,0:0:0:0:
224,196,16036,1,0,0:0:0:0:
181,137,16139,1,2,0:0:0:0:
238,93,16241,2,0,L|245:38,2,48,0|0|0,3:0|0:0|0:0,0:0:0:0:
165,60,16547,6,0,L|104:54,1,48,2|0,0:0|0:0,0:0:0:0:
316,82,16751,1,0,3:0:0:0:
456,20,16955,2,0,P|446:41|441:65,1,48,2|0,0:0|0:0,0:0:0:0:
138,349,17363,6,0,P|132:325|122:304,1,48,2|0,0:0|0:0,0:0:0:0:
138,175,17567,1,0,3:0:0:0:
165,219,17669,1,0,3:0:0:0:
203,254,17771,1,0,3:0:0:0:
252,271,17873,1,0,3:0:0:0:
349,201,17975,5,0,3:0:0:0:
254,182,18077,1,0,3:0:0:0:
165,219,18179,1,0,3:0:0:0:
123,305,18281,1,0,3:0:0:0:
74,205,18383,5,2,0:0:0:0:
438,179,18792,5,2,0:0:0:0:
444,189,18996,2,0,B|499:277,1,90.0000034332277,2|0,0:0|0:0,0:0:0:0:
421,80,19200,1,0,0:0:0:0:
327,46,19302,2,0,L|243:80,1,90.0000034332277,2|0,0:0|0:0,0:0:0:0:
122,151,19506,2,0,L|205:185,1,90.0000034332277,2|0,0:0|0:0,0:0:0:0:
143,57,19710,2,0,L|136:12,1,45.0000017166138,2|0,0:0|0:0,0:0:0:0:
327,46,19812,6,0,P|341:108|319:171,1,90.0000034332277,2|0,0:0|0:0,0:0:0:0:
286,211,20016,1,2,0:0:0:0:
314,306,20118,2,0,P|368:317|417:356,1,90.0000034332277,2|0,0:0|0:0,0:0:0:0:
223,334,20322,1,2,0:0:0:0:
135,293,20424,2,0,P|87:292|49:286,1,60,2|0,0:0|0:0,0:0:0:0:
2,363,20628,6,0,L|0:229,1,135.000005149841,2|0,0:0|0:0,0:0:0:0:
32,139,20832,1,2,0:0:0:0:
223,334,21036,1,0,0:0:0:0:
456,104,21241,5,2,0:0:0:0:
395,42,21343,1,2,0:0:0:0:
305,47,21445,1,0,0:0:0:0:
247,120,21547,2,0,L|298:129,1,30,2|0,0:0|0:0,0:0:0:0:
224,44,21649,2,0,L|154:58,1,60,2|0,0:0|0:0,0:0:0:0:
93,110,21853,1,0,0:0:0:0:
434,190,22057,6,0,B|465:204|465:204|477:288,1,107.999996704102,2|0,0:0|0:0,0:0:0:0:
412,360,22261,5,0,0:0:0:0:
320,373,22363,1,0,0:0:0:0:
251,311,22465,2,2,L|223:265,3,30
259,322,22669,2,0,P|324:290|365:297,1,90
275,216,22873,2,0,L|259:163,1,30,2|0,0:0|0:0,0:0:0:0:
294,141,22975,2,0,B|328:157|328:157|366:212,1,90.0000034332277,2|0,0:0|0:0,0:0:0:0:
381,98,23179,2,0,L|405:80,1,30,2|0,0:0|0:0,0:0:0:0:
309,61,23281,2,0,L|249:67,1,60,2|0,0:0|0:0,0:0:0:0:
103,55,23485,1,0,0:0:0:0:
90,56,23588,6,0,B|53:117|53:117|63:216,1,143.999995605469,2|0,0:0|0:0,0:0:0:0:
21,384,23894,6,0,B|41:391|41:391|113:354,1,90.0000034332277,2|0,0:0|0:0,0:0:0:0:
24,261,24098,2,0,L|36:319,1,45.0000017166138,2|0,0:0|0:0,0:0:0:0:
116,354,24200,1,2,0:0:0:0:
202,328,24302,1,0,0:0:0:0:
178,27,24506,1,0,0:0:0:0:
126,233,24710,5,0,0:0:0:0:
178,309,24812,2,0,L|202:328,1,30,2|0,0:0|0:0,0:0:0:0:
280,325,24914,2,0,L|339:316,1,60,2|0,0:0|0:0,0:0:0:0:
416,375,25118,2,0,L|416:277,1,90
435,205,25322,6,0,B|491:238|491:238|494:308,1,135.000005149841,2|0,0:0|0:0,0:0:0:0:
512,383,25526,6,0,L|504:181,1,157.500001502037,2|0,0:0|0:0,0:0:0:0:
468,131,25730,2,0,P|481:90|480:132,1,120,2|0,0:0|0:0,0:0:0:0:
375,142,25934,2,0,L|209:148,1,135.000005149841,2|0,0:0|0:0,0:0:0:0:
132,170,26139,2,0,L|123:113,1,30,2|0,0:0|0:0,0:0:0:0:
225,149,26241,2,0,L|210:237,1,90.0000034332277,2|0,0:0|0:0,0:0:0:0:
156,322,26445,2,0,L|145:379,1,45.0000017166138,2|0,0:0|0:0,0:0:0:0:
57,309,26547,2,0,B|28:249|28:249|21:180,1,135.000005149841,2|0,0:0|0:0,0:0:0:0:
26,93,26751,6,0,B|35:66|35:66|31:34|31:34|41:0,1,96,2|0,0:0|0:0,0:0:0:0:
327,8,27159,6,0,B|218:22|218:22|258:53,1,135.000005149841,2|0,0:0|0:0,0:0:0:0:
314,93,27363,1,2,0:0:0:0:
403,105,27465,1,0,0:0:0:0:
478,56,27567,1,0,0:0:0:0:
314,93,27771,6,0,L|294:152,1,60,2|2,0:0|0:0,0:0:0:0:
338,241,27975,1,0,0:0:0:0:
423,205,28077,2,0,L|432:154,1,30,2|0,0:0|0:0,0:0:0:0:
395,45,28179,2,0,L|404:112,1,60,2|0,0:0|0:0,0:0:0:0:
499,144,28383,1,0,0:0:0:0:
172,290,28588,6,0,B|109:257|109:257|28:281,1,135.000005149841,2|0,0:0|0:0,0:0:0:0:
99,351,28792,5,0,0:0:0:0:
190,371,28894,1,0,0:0:0:0:
261,311,28996,2,2,L|289:265,3,30
253,322,29200,2,0,P|188:290|147:297,1,90
237,216,29404,2,0,L|249:174,1,30
218,141,29506,2,0,B|184:157|184:157|146:212,1,90.0000034332277,2|0,0:0|0:0,0:0:0:0:
306,138,29710,1,2,0:0:0:0:
307,125,29812,2,0,L|314:69,1,48,2|0,0:0|0:0,0:0:0:0:
221,28,30016,1,0,0:0:0:0:
221,28,30220,6,0,B|192:24|192:24|182:30|182:30|139:24,1,71.9999978027344,2|0,0:0|0:0,0:0:0:0:
54,54,30424,5,0,0:0:0:0:
46,64,30526,2,0,P|45:116|68:157,1,90.0000034332277,2|0,0:0|0:0,0:0:0:0:
88,234,30730,2,0,L|42:260,1,30,2|0,0:0|0:0,0:0:0:0:
14,319,30832,2,0,L|107:344,1,90,2|0,0:0|0:0,0:0:0:0:
181,280,31036,2,0,L|167:222,1,60,2|2,0:0|0:0,0:0:0:0:
222,354,31241,1,0,0:0:0:0:
303,358,31343,2,0,L|332:358,1,30,2|0,0:0|0:0,0:0:0:0:
325,270,31445,2,0,L|266:279,1,60,2|0,0:0|0:0,0:0:0:0:
166,221,31649,1,0,0:0:0:0:
429,193,31853,6,0,B|484:183|484:183|512:138,1,107.999996704102,2|0,0:0|0:0,0:0:0:0:
449,64,32057,6,0,L|286:72,1,135.000005149841,2|0,0:0|0:0,0:0:0:0:
206,119,32261,1,2,0:0:0:0:
208,133,32363,1,2,0:0:0:0:
317,175,32465,1,2,0:0:0:0:
315,189,32567,1,2,0:0:0:0:
206,231,32669,1,2,0:0:0:0:
208,244,32771,2,0,L|305:276,1,90.0000034332277,2|0,0:0|0:0,0:0:0:0:
253,349,32975,5,2,0:0:0:0:
164,357,33077,1,2,0:0:0:0:
86,313,33179,1,2,0:0:0:0:
30,225,33281,6,0,B|22:155|22:155|25:145|25:145|9:44|9:44|84:80,1,251.999992309571,2|0,0:0|0:0,0:0:0:0:
122,150,33690,6,0,P|166:138|206:117,1,90.0000034332277,2|0,0:0|0:0,0:0:0:0:
348,25,33894,1,2,0:0:0:0:
432,57,33996,1,0,0:0:0:0:
475,136,34098,2,0,P|484:176|481:230,1,90,2|0,0:0|0:0,0:0:0:0:
341,191,34302,2,0,L|276:183,1,60,2|2,0:0|0:0,0:0:0:0:
331,103,34506,1,0,0:0:0:0:
415,82,34608,2,0,L|441:45,1,30,2|0,0:0|0:0,0:0:0:0:
348,25,34710,2,0,B|279:-23|252:60|171:0,1,168,2|0,0:0|0:0,0:0:0:0:
117,52,35118,6,0,B|85:39|85:39|17:90,1,107.999996704102,2|0,0:0|0:0,0:0:0:0:
21,175,35322,5,0,0:0:0:0:
70,252,35424,1,0,0:0:0:0:
160,266,35526,2,2,L|212:253,3,30
147,269,35730,2,0,P|123:200|89:176,1,90
211,182,35934,2,0,L|247:164,1,30,2|0,0:0|0:0,0:0:0:0:
250,116,36036,2,0,B|214:103|214:103|148:115,1,90.0000034332277,2|0,0:0|0:0,0:0:0:0:
232,16,36240,2,0,L|188:24,1,45.0000017166138,2|0,0:0|0:0,0:0:0:0:
306,48,36343,2,0,L|339:120,1,60,2|0,0:0|0:0,0:0:0:0:
421,171,36546,1,0,0:0:0:0:
500,94,36649,6,0,B|465:31|465:31|374:-9,1,143.999995605469,2|0,0:0|0:0,0:0:0:0:
306,48,36955,6,0,P|350:103|268:211,1,209.999993591309,2|0,0:0|0:0,0:0:0:0:
211,182,37261,2,0,P|330:189|334:309,1,262.500002503395,2|0,0:0|0:0,0:0:0:0:
232,325,37567,5,2,0:0:0:0:
269,250,37669,1,2,0:0:0:0:
334,309,37771,1,0,0:0:0:0:
331,323,37873,2,0,L|306:366,1,30,2|0,0:0|0:0,0:0:0:0:
232,325,37975,2,0,L|171:368,1,60,2|0,0:0|0:0,0:0:0:0:
96,375,38179,2,0,L|96:277,1,90
77,205,38383,6,0,B|21:238|21:238|18:308,1,135.000005149841,2|0,0:0|0:0,0:0:0:0:
0,383,38588,6,0,L|8:181,1,157.500001502037,2|0,0:0|0:0,0:0:0:0:
44,131,38792,2,0,P|31:90|32:132,1,120,2|0,0:0|0:0,0:0:0:0:
137,142,38996,2,0,L|303:148,1,135.000005149841,2|0,0:0|0:0,0:0:0:0:
380,170,39200,2,0,L|389:113,1,30,2|0,0:0|0:0,0:0:0:0:
287,149,39302,2,0,L|302:237,1,90.0000034332277,2|0,0:0|0:0,0:0:0:0:
356,322,39506,2,0,L|367:379,1,45.0000017166138,2|0,0:0|0:0,0:0:0:0:
455,309,39608,2,0,B|484:249|484:249|491:180,1,135.000005149841,2|0,0:0|0:0,0:0:0:0:
512,64,39812,6,0,B|396:0|396:0|330:87|330:87|154:5,1,360,2|0,0:0|0:0,0:0:0:0:
19,13,40220,6,0,B|81:32|81:32|91:33|91:33|148:90,1,135.000005149841,2|0,0:0|0:0,0:0:0:0:
186,214,40424,1,2,0:0:0:0:
97,229,40526,1,0,0:0:0:0:
34,165,40628,2,0,P|37:134|53:98,1,60,2|0,0:0|0:0,0:0:0:0:
170,136,40832,1,2,0:0:0:0:
237,197,40934,1,2,0:0:0:0:
218,285,41036,1,0,0:0:0:0:
140,331,41139,2,0,L|93:320,1,30,2|0,0:0|0:0,0:0:0:0:
217,370,41241,2,0,B|286:411|303:326|377:365,1,168,2|0,0:0|0:0,0:0:0:0:
467,364,41649,6,0,B|450:313|450:313|408:277,1,107.999996704102,2|0,0:0|0:0,0:0:0:0:
292,170,41853,5,2,0:0:0:0:
329,247,41955,1,2,0:0:0:0:
409,278,42057,1,2,0:0:0:0:
494,267,42159,1,2,0:0:0:0:
442,197,42261,5,2,0:0:0:0:
355,194,42363,1,2,0:0:0:0:
286,246,42465,1,2,0:0:0:0:
201,226,42567,2,0,P|188:173|211:139,1,71.9999978027344,2|0,0:0|0:0,0:0:0:0:
293,41,42771,5,0,0:0:0:0:
273,125,42873,1,2,0:0:0:0:
193,158,42975,1,0,0:0:0:0:
109,134,43077,2,0,B|67:103|67:103|44:57|44:57|106:58,1,135.000005149841,2|0,0:0|0:0,0:0:0:0:
210,65,43281,5,2,0:0:0:0:
273,125,43383,1,0,0:0:0:0:
357,103,43485,2,0,B|382:92|382:92|443:13,1,107.999996704102,2|0,0:0|0:0,0:0:0:0:
454,151,43690,2,0,B|485:180|485:180|504:260,1,107.999996704102,2|0,0:0|0:0,0:0:0:0:
439,308,43894,1,0,0:0:0:0:
87,228,44098,6,0,P|89:262|72:298,1,71.9999978027344,2|0,0:0|0:0,0:0:0:0:
18,370,44302,1,0,0:0:0:0:
120,382,44404,2,0,L|161:376,1,30,2|0,0:0|0:0,0:0:0:0:
199,286,44506,2,0,L|163:293,1,30,2|0,0:0|0:0,0:0:0:0:
257,353,44608,2,0,P|305:322|300:265,1,120,2|0,0:0|0:0,0:0:0:0:
406,346,44914,2,0,B|456:370|456:370|534:370,1,107.999996704102,2|0,0:0|0:0,0:0:0:0:
361,202,45118,6,0,P|307:180|230:210,1,121.500000463486,2|0,0:0|0:0,0:0:0:0:
394,107,45323,2,0,P|427:28|512:20,1,180.000006866455,2|0,0:0|0:0,0:0:0:0:
222,46,45730,5,2,0:0:0:0:
222,46,45934,2,0,P|177:42|132:45,1,90.0000034332277,2|0,0:0|0:0,0:0:0:0:
477,94,46241,1,2,0:0:0:0:
361,202,46343,2,0,L|329:160,1,45.0000017166138,0|0,3:0|3:0,3:0:0:0:
346,54,46445,2,0,L|422:70,1,45.0000017166138,0|0,3:0|3:0,3:0:0:0:
268,116,46547,2,0,L|192:132,1,45.0000017166138,0|0,3:0|3:0,3:0:0:0:
8,34,46751,6,0,L|18:-18,3,30,0|0|0|0,3:0|3:0|3:0|3:0,3:0:0:0:
86,59,46955,2,0,P|107:79|116:107,1,60
78,233,47159,2,0,L|106:244,1,30
86,217,47261,2,0,L|114:228,1,30
94,201,47363,2,0,L|122:212,1,30
317,355,47567,6,0,L|339:334,1,30
379,262,47669,2,0,L|386:223,1,30
326,171,47771,2,0,L|286:155,1,30
189,182,47873,2,0,L|243:198,1,30
290,278,47975,2,0,B|328:200|298:101|298:101|211:58|93:114,1,367.500003504753,2|0,0:0|0:0,0:0:0:0:
94,201,48383,5,2,0:0:0:0:
180,255,48485,2,0,P|213:204|212:140,1,90.0000034332277,2|0,0:0|0:0,0:0:0:0:
378,92,48690,1,2,0:0:0:0:
358,248,48792,5,2,0:0:0:0:
345,252,48860,1,2,0:0:0:0:
333,254,48928,1,2,0:0:0:0:
322,254,48996,1,2,0:0:0:0:
310,251,49064,1,2,0:0:0:0:
299,245,49132,2,0,L|236:198,1,60.0000022888184,2|0,0:0|0:0,0:0:0:0:
99,96,49302,6,0,L|104:30,1,45.0000017166138,2|0,0:0|0:0,0:0:0:0:
192,119,49404,2,0,P|165:154|170:199,1,90.0000034332277,2|0,0:0|0:0,0:0:0:0:
97,253,49608,2,0,P|72:192|-21:184,1,135.000005149841,2|0,0:0|0:0,0:0:0:0:
20,251,49812,2,0,L|8:294,1,45.0000017166138,2|0,0:0|0:0,0:0:0:0:
97,380,49914,2,0,L|88:336,1,45.0000017166138,2|0,0:0|0:0,0:0:0:0:
252,209,50016,5,2,0:0:0:0:
339,227,50118,1,2,0:0:0:0:
403,289,50220,1,2,0:0:0:0:
430,374,50322,1,2,0:0:0:0:
489,309,50424,2,0,L|513:189,1,90.0000034332277,2|0,0:0|0:0,0:0:0:0:
339,227,50628,1,2,0:0:0:0:
280,295,50730,2,0,L|258:387,1,90.0000034332277,2|0,0:0|0:0,0:0:0:0:
159,202,50934,1,2,0:0:0:0:
199,121,51036,2,0,P|252:100|294:115,1,90.0000034332277,2|0,0:0|0:0,0:0:0:0:
143,25,51241,6,0,B|112:16|112:16|94:20|94:20|55:9,1,90,2|0,0:0|0:0,0:0:0:0:
42,7,51445,2,0,P|13:56|29:148,1,135.000005149841,2|0,0:0|0:0,0:0:0:0:
3,251,51649,5,2,0:0:0:0:
70,191,51751,1,2,0:0:0:0:
159,202,51853,1,2,0:0:0:0:
240,163,51955,1,2,0:0:0:0:
165,214,52057,5,2,0:0:0:0:
255,173,52159,1,2,0:0:0:0:
346,210,52261,1,2,0:0:0:0:
373,304,52363,2,0,P|367:354|337:390,1,90.0000034332277,2|0,0:0|0:0,0:0:0:0:
129,327,52567,5,2,0:0:0:0:
120,315,52669,2,0,P|93:251|99:149,1,157.500001502037,2|0,0:0|0:0,0:0:0:0:
70,55,52873,2,0,P|48:12|51:71,1,157.500001502037,2|0,0:0|0:0,0:0:0:0:
178,136,53077,2,0,L|240:116,1,45.0000017166138,2|0,0:0|0:0,0:0:0:0:
237,18,53179,2,0,L|175:38,1,45.0000017166138,2|0,0:0|0:0,0:0:0:0:
307,80,53281,5,2,0:0:0:0:
383,127,53383,1,2,0:0:0:0:
468,98,53485,1,2,0:0:0:0:
495,11,53588,1,2,0:0:0:0:
410,40,53690,5,2,0:0:0:0:
383,127,53793,1,2,0:0:0:0:
420,208,53895,1,2,0:0:0:0:
405,296,53997,1,2,0:0:0:0:
339,235,54098,5,2,0:0:0:0:
361,147,54200,1,2,0:0:0:0:
445,116,54302,1,2,0:0:0:0:
506,182,54405,1,2,0:0:0:0:
468,98,54506,6,0,P|324:174|333:280,1,270.000010299683,2|0,0:0|0:0,0:0:0:0:
446,379,54914,5,2,0:0:0:0:
484,287,55016,2,0,P|474:255|428:204,1,90.0000034332277,2|0,0:0|0:0,0:0:0:0:
320,119,55220,1,2,0:0:0:0:
154,248,55322,5,2,0:0:0:0:
167,252,55390,1,2,0:0:0:0:
179,254,55458,1,2,0:0:0:0:
190,254,55526,1,2,0:0:0:0:
202,251,55594,1,2,0:0:0:0:
213,245,55662,2,0,L|275:198,1,60.0000022888184,2|0,0:0|0:0,0:0:0:0:
413,96,55832,6,0,L|407:30,1,45.0000017166138,2|0,0:0|0:0,0:0:0:0:
320,119,55934,2,0,P|346:154|341:199,1,90.0000034332277,2|0,0:0|0:0,0:0:0:0:
415,253,56138,2,0,P|439:192|533:184,1,135.000005149841,2|0,0:0|0:0,0:0:0:0:
492,251,56343,2,0,L|503:294,1,45.0000017166138,2|0,0:0|0:0,0:0:0:0:
414,380,56445,2,0,L|424:336,1,45.0000017166138,2|0,0:0|0:0,0:0:0:0:
260,209,56547,5,2,0:0:0:0:
173,227,56649,1,2,0:0:0:0:
109,289,56751,1,2,0:0:0:0:
82,374,56853,1,2,0:0:0:0:
23,309,56955,2,0,L|-1:189,1,90.0000034332277,2|0,0:0|0:0,0:0:0:0:
173,227,57159,1,2,0:0:0:0:
232,295,57261,2,0,L|254:387,1,90.0000034332277,2|0,0:0|0:0,0:0:0:0:
353,202,57465,1,2,0:0:0:0:
313,121,57567,2,0,P|260:100|218:115,1,90.0000034332277,2|0,0:0|0:0,0:0:0:0:
369,25,57771,6,0,B|400:16|400:16|418:20|418:20|457:9,1,90,2|0,0:0|0:0,0:0:0:0:
470,7,57975,2,0,P|499:56|483:148,1,135.000005149841,2|0,0:0|0:0,0:0:0:0:
509,251,58179,5,2,0:0:0:0:
442,191,58281,1,2,0:0:0:0:
353,202,58383,1,2,0:0:0:0:
272,163,58485,1,2,0:0:0:0:
347,214,58587,5,2,0:0:0:0:
257,173,58689,1,2,0:0:0:0:
166,210,58791,1,2,0:0:0:0:
139,304,58894,2,0,P|145:354|175:390,1,90.0000034332277,2|0,0:0|0:0,0:0:0:0:
383,327,59097,5,2,0:0:0:0:
392,315,59200,2,0,P|419:251|413:149,1,157.500001502037,2|0,0:0|0:0,0:0:0:0:
442,55,59404,2,0,P|464:12|461:71,1,157.500001502037,2|0,0:0|0:0,0:0:0:0:
334,136,59608,2,0,L|272:116,1,45.0000017166138,2|0,0:0|0:0,0:0:0:0:
275,18,59710,2,0,L|337:38,1,45.0000017166138,2|0,0:0|0:0,0:0:0:0:
205,80,59812,5,2,0:0:0:0:
127,126,59914,1,2,0:0:0:0:
43,93,60016,1,2,0:0:0:0:
3,11,60119,1,2,0:0:0:0:
143,29,60220,5,2,0:0:0:0:
127,126,60322,1,2,0:0:0:0:
111,223,60424,1,2,0:0:0:0:
95,320,60526,1,2,0:0:0:0:
0,226,60628,5,2,0:0:0:0:
105,205,60730,1,2,0:0:0:0:
205,244,60832,1,2,0:0:0:0:
306,206,60934,1,2,0:0:0:0:
406,248,61036,6,0,B|418:256|418:256|401:321|401:321|322:303|322:303|316:158|316:158|271:115|271:115|248:159,1,420,2|0,0:0|0:0,0:0:0:0:
205,244,61445,6,0,L|228:334,1,90.0000034332277,2|0,0:0|0:0,0:0:0:0:
21,342,61649,1,2,0:0:0:0:
34,242,61751,2,0,L|42:152,1,90.0000034332277,2|0,0:0|0:0,0:0:0:0:
247,159,61955,2,0,L|238:253,1,90.0000034332277,2|0,0:0|0:0,0:0:0:0:
331,29,62159,2,0,P|374:19|418:28,1,90.0000034332277,2|0,0:0|0:0,0:0:0:0:
235,75,62363,1,2,0:0:0:0:
144,17,62465,1,2,0:0:0:0:
43,54,62567,1,2,0:0:0:0:
20,154,62669,2,0,L|38:261,1,90,2|0,0:0|0:0,0:0:0:0:
133,158,62873,6,0,L|124:104,1,30,2|0,0:0|0:0,0:0:0:0:
221,201,62975,2,0,L|230:254,1,30,2|0,0:0|0:0,0:0:0:0:
367,139,63077,6,0,P|323:136|279:154,1,90.0000034332277,2|0,0:0|0:0,0:0:0:0:
145,362,63281,2,0,P|145:316|161:275,1,90.0000034332277,2|0,0:0|0:0,0:0:0:0:
347,216,63485,1,2,0:0:0:0:
428,274,63588,1,2,0:0:0:0:
512,221,63690,2,0,L|506:121,1,90.0000034332277,2|0,0:0|0:0,0:0:0:0:
365,332,63894,2,0,P|404:354|455:355,1,90.0000034332277,2|0,0:0|0:0,0:0:0:0:
347,216,64098,2,0,P|342:237|332:257,1,45.0000017166138
245,261,64200,2,0,B|194:161|194:161|231:28,1,225.000008583069,2|0,0:0|0:0,0:0:0:0:
130,94,64506,2,0,B|106:180|106:180|23:231,1,157.500001502037,2|0,0:0|0:0,0:0:0:0:
74,314,64710,6,0,P|97:279|156:261,1,90.0000034332277,2|0,0:0|0:0,0:0:0:0:
434,179,64914,1,2,0:0:0:0:
496,102,65016,2,0,P|485:46|454:20,1,90.0000034332277,2|0,0:0|0:0,0:0:0:0:
281,153,65220,2,0,L|297:241,1,90.0000034332277,2|0,0:0|0:0,0:0:0:0:
224,52,65424,2,0,P|179:57|135:43,1,90.0000034332277,2|0,0:0|0:0,0:0:0:0:
333,16,65628,5,2,0:0:0:0:
403,86,65730,1,2,0:0:0:0:
434,179,65832,1,2,0:0:0:0:
416,274,65934,2,0,P|397:327|350:357,1,90,2|0,0:0|0:0,0:0:0:0:
292,271,66139,6,0,L|301:217,1,30,2|0,0:0|0:0,0:0:0:0:
204,314,66241,2,0,L|195:367,1,30,2|0,0:0|0:0,0:0:0:0:
128,231,66343,6,0,P|60:206|-11:221,1,135.000005149841,2|0,0:0|0:0,0:0:0:0:
136,141,66547,2,0,P|182:86|251:63,1,135.000005149841,2|0,0:0|0:0,0:0:0:0:
395,159,66751,1,2,0:0:0:0:
314,119,66853,1,2,0:0:0:0:
228,145,66955,2,0,P|198:204|223:251,1,90.0000034332277,2|0,0:0|0:0,0:0:0:0:
292,271,67159,2,0,P|354:259|416:295,1,112.5,2|0,0:0|0:0,0:0:0:0:
106,306,67363,1,2,0:0:0:0:
91,305,67465,2,0,P|67:298|43:278,1,37.5,2|0,0:0|0:0,0:0:0:0:
19,189,67567,6,0,B|47:107|138:58|138:58|231:88|274:211,1,367.500003504753,2|0,0:0|0:0,0:0:0:0:
337,123,67975,6,0,L|354:9,1,90.0000034332277,2|0,0:0|0:0,0:0:0:0:
143,172,68179,1,2,0:0:0:0:
164,268,68281,6,0,L|181:381,1,90.0000034332277,2|0,0:0|0:0,0:0:0:0:
409,306,68485,2,0,L|508:268,1,90.0000034332277,2|0,0:0|0:0,0:0:0:0:
264,186,68690,2,0,P|219:177|175:181,1,90.0000034332277,2|0,0:0|0:0,0:0:0:0:
388,208,68894,5,2,0:0:0:0:
456,149,68996,1,2,0:0:0:0:
436,61,69098,1,2,0:0:0:0:
350,34,69200,2,0,L|225:23,1,90.0000034332277,2|0,0:0|0:0,0:0:0:0:
124,79,69404,6,0,L|178:84,1,30,2|0,0:0|0:0,0:0:0:0:
205,184,69506,2,0,L|151:178,1,30,2|0,0:0|0:0,0:0:0:0:
17,228,69608,6,0,P|60:236|101:255,1,90.0000034332277,2|0,0:0|0:0,0:0:0:0:
135,347,69812,2,0,P|196:353|251:380,1,90.0000034332277,2|0,0:0|0:0,0:0:0:0:
379,384,70016,5,2,0:0:0:0:
465,363,70118,1,2,0:0:0:0:
512,287,70220,2,0,L|456:215,1,90.0000034332277,2|0,0:0|0:0,0:0:0:0:
350,34,70424,2,0,L|367:193,1,150,2|0,0:0|0:0,0:0:0:0:
150,15,70730,2,0,L|296:159,1,180.000006866455,2|0,0:0|0:0,0:0:0:0:
74,127,71036,2,0,L|155:109,1,60,2|0,0:0|0:0,0:0:0:0:
23,261,71241,5,0,0:0:0:0:
17,273,71343,2,0,L|72:255,1,30,2|0,0:0|0:0,0:0:0:0:
73,339,71445,2,0,P|41:357|1:355,1,60,2|0,0:0|0:0,0:0:0:0:
157,306,71649,1,2,0:0:0:0:
243,330,71751,2,0,P|261:361|259:401,1,60,2|0,0:0|0:0,0:0:0:0:
333,231,71955,2,0,P|344:203|365:182,1,60,2|0,0:0|0:0,0:0:0:0:
264,86,72159,2,0,L|279:155,1,60,2|0,0:0|0:0,0:0:0:0:
412,257,72363,1,2,0:0:0:0:
484,201,72465,2,0,L|498:142,1,60,2|0,0:0|0:0,0:0:0:0:
452,0,72669,6,0,L|467:35,1,30,2|0,0:0|0:0,0:0:0:0:
390,109,72771,2,0,L|374:73,1,30,2|0,0:0|0:0,0:0:0:0:
306,13,72873,6,0,P|236:7|186:55,1,112.5,2|0,0:0|0:0,0:0:0:0:
42,71,73077,6,0,P|112:65|162:113,1,112.5,2|0,0:0|0:0,0:0:0:0:
250,226,73281,1,2,0:0:0:0:
326,269,73383,1,2,0:0:0:0:
412,256,73485,2,0,P|461:240|500:205,1,105.000001001358,2|0,0:0|0:0,0:0:0:0:
315,358,73690,2,0,P|269:332|236:292,1,90.0000034332277,2|0,0:0|0:0,0:0:0:0:
94,238,73894,5,2,0:0:0:0:
23,296,73996,2,0,L|3:406,2,90.0000034332277,2|0|0,0:0|0:0|0:0,0:0:0:0:
30,180,74302,2,0,B|85:153|85:153|140:168|140:168|178:159,1,157.500001502037,2|0,0:0|0:0,0:0:0:0:
300,122,74506,5,0,0:0:0:0:
317,116,74608,1,0,0:0:0:0:
334,110,74710,2,0,P|355:49|341:16,1,90.0000034332277,2|0,0:0|0:0,0:0:0:0:
371,196,74914,1,0,0:0:0:0:
387,204,75016,2,0,L|496:258,2,90.0000034332277,2|0|0,0:0|0:0|0:0,0:0:0:0:
250,226,75322,6,0,L|120:244,1,90.0000034332277,2|0,0:0|0:0,0:0:0:0:
35,90,75526,1,0,0:0:0:0:
52,93,75628,2,0,L|182:111,1,90.0000034332277,2|0,0:0|0:0,0:0:0:0:
241,42,75832,1,0,0:0:0:0:
258,39,75934,2,0,L|388:21,1,90.0000034332277,2|0,0:0|0:0,0:0:0:0:
474,97,76139,5,0,0:0:0:0:
480,113,76241,1,0,0:0:0:0:
485,130,76343,2,0,P|482:174|471:218,1,90.0000034332277,2|0,0:0|0:0,0:0:0:0:
399,116,76547,1,0,0:0:0:0:
498,133,76649,2,0,P|495:177|484:221,1,90.0000034332277,2|0,0:0|0:0,0:0:0:0:
242,360,76853,5,0,0:0:0:0:
236,342,76955,1,0,0:0:0:0:
232,326,77057,1,0,0:0:0:0:
230,307,77159,2,0,P|258:275|306:252,1,90.0000034332277,2|0,0:0|0:0,0:0:0:0:
324,350,77363,1,0,0:0:0:0:
221,296,77465,2,0,P|249:264|297:241,1,90.0000034332277,2|0,0:0|0:0,0:0:0:0:
82,261,77669,1,0,0:0:0:0:
7,292,77771,6,0,L|-3:408,1,90.0000034332277,2|0,0:0|0:0,0:0:0:0:
154,228,77975,1,2,0:0:0:0:
83,175,78077,2,0,B|47:160|47:160|-14:172,1,90.0000034332277,2|0,0:0|0:0,0:0:0:0:
29,54,78281,1,2,0:0:0:0:
118,39,78383,1,2,0:0:0:0:
176,108,78485,2,0,P|240:141|339:137,1,135.000005149841,2|0,0:0|0:0,0:0:0:0:
512,122,78690,5,2,0:0:0:0:
501,33,78792,1,2,0:0:0:0:
416,0,78894,2,0,L|312:14,1,90.0000034332277,2|0,0:0|0:0,0:0:0:0:
257,65,79098,1,2,0:0:0:0:
301,145,79200,2,0,P|330:174|361:231,1,90.0000034332277,2|0,0:0|0:0,0:0:0:0:
75,318,79404,5,2,0:0:0:0:
143,259,79506,1,2,0:0:0:0:
232,265,79608,1,2,0:0:0:0:
296,327,79710,1,2,0:0:0:0:
389,341,79812,2,0,P|471:323|505:292,1,90.0000034332277,2|0,0:0|0:0,0:0:0:0:
232,265,80016,2,0,P|195:328|195:364,1,90.0000034332277,2|0,0:0|0:0,0:0:0:0:
190,183,80220,5,2,0:0:0:0:
106,135,80322,1,2,0:0:0:0:
209,95,80424,1,2,0:0:0:0:
180,180,80526,1,2,0:0:0:0:
97,130,80628,2,0,P|55:82|57:12,1,135.000005149841,2|0,0:0|0:0,0:0:0:0:
147,49,80832,2,0,P|206:20|283:69,1,135.000005149841,2|0,0:0|0:0,0:0:0:0:
366,62,81036,6,0,P|386:57|366:60,1,60,2|0,0:0|0:0,0:0:0:0:
259,307,81445,5,2,0:0:0:0:
274,245,81547,1,2,0:0:0:0:
258,194,81649,1,2,0:0:0:0:
222,166,81751,1,2,0:0:0:0:
185,165,81853,2,0,P|137:184|113:223,1,90.0000034332277,2|0,0:0|0:0,0:0:0:0:
334,199,82057,1,0,0:0:0:0:
350,197,82159,2,0,P|401:190|446:178,2,90.0000034332277,2|0|0,0:0|0:0|0:0,0:0:0:0:
193,248,82465,2,0,P|219:283|258:306,1,90.0000034332277,2|0,0:0|0:0,0:0:0:0:
38,287,82669,5,0,0:0:0:0:
32,271,82771,1,0,0:0:0:0:
27,254,82873,2,0,P|29:209|40:165,1,90.0000034332277,2|0,0:0|0:0,0:0:0:0:
113,268,83077,1,0,0:0:0:0:
14,251,83179,2,0,P|16:206|27:162,1,90.0000034332277,2|0,0:0|0:0,0:0:0:0:
270,24,83383,5,0,0:0:0:0:
276,42,83485,1,0,0:0:0:0:
280,58,83587,1,0,0:0:0:0:
282,77,83689,2,0,P|253:108|205:131,1,90.0000034332277,2|0,0:0|0:0,0:0:0:0:
188,34,83893,1,0,0:0:0:0:
291,88,83995,2,0,P|262:119|214:142,1,90.0000034332277,2|0,0:0|0:0,0:0:0:0:
404,31,84199,1,0,0:0:0:0:
484,53,84301,6,0,L|476:142,1,90.0000034332277,2|0,0:0|0:0,0:0:0:0:
358,156,84505,1,2,0:0:0:0:
428,208,84608,2,0,B|464:223|464:223|526:212,1,90.0000034332277,2|0,0:0|0:0,0:0:0:0:
483,330,84812,1,2,0:0:0:0:
394,345,84914,1,2,0:0:0:0:
336,276,85015,2,0,P|272:243|173:247,1,135.000005149841,2|0,0:0|0:0,0:0:0:0:
0,262,85220,5,2,0:0:0:0:
11,351,85322,1,2,0:0:0:0:
96,384,85424,2,0,L|200:370,1,90.0000034332277,2|0,0:0|0:0,0:0:0:0:
255,319,85628,1,2,0:0:0:0:
211,239,85730,2,0,P|182:210|151:153,1,90.0000034332277,2|0,0:0|0:0,0:0:0:0:
63,64,85934,6,0,L|226:72,1,135.000005149841,2|0,0:0|0:0,0:0:0:0:
306,119,86138,1,2,0:0:0:0:
304,133,86240,1,2,0:0:0:0:
195,175,86342,1,2,0:0:0:0:
197,189,86444,1,2,0:0:0:0:
306,231,86546,1,2,0:0:0:0:
304,244,86649,2,0,L|207:276,1,90.0000034332277,2|0,0:0|0:0,0:0:0:0:
259,349,86853,5,2,0:0:0:0:
348,357,86955,1,2,0:0:0:0:
426,313,87057,1,2,0:0:0:0:
482,225,87159,6,0,B|490:155|490:155|487:145|487:145|503:44|503:44|428:80,1,251.999992309571,2|0,0:0|0:0,0:0:0:0:
399,153,87567,6,0,L|315:152,1,60,2|0,0:0|0:0,0:0:0:0:
121,153,87771,1,2,0:0:0:0:
103,154,87873,2,0,L|99:230,1,60,2|0,0:0|0:0,0:0:0:0:
177,286,88077,1,2,0:0:0:0:
195,287,88179,2,0,L|199:363,1,60,2|0,0:0|0:0,0:0:0:0:
386,272,88383,6,0,P|347:249|303:243,1,90.0000034332277,2|0,0:0|0:0,0:0:0:0:
201,136,88588,1,2,0:0:0:0:
202,118,88690,2,0,L|278:114,1,60,2|0,0:0|0:0,0:0:0:0:
123,21,88894,1,2,0:0:0:0:
121,3,88996,2,0,L|61:0,1,60,2|0,0:0|0:0,0:0:0:0:
275,3,89200,6,0,P|324:15|354:33,1,60,2|0,0:0|0:0,0:0:0:0:
491,116,89404,1,2,0:0:0:0:
509,117,89506,2,0,L|513:193,1,60,2|0,0:0|0:0,0:0:0:0:
452,325,89710,1,2,0:0:0:0:
386,272,89812,1,2,0:0:0:0:
312,312,89914,1,2,0:0:0:0:
257,247,90016,6,0,P|253:200|268:182,1,60,2|0,0:0|0:0,0:0:0:0:
171,317,90220,1,2,0:0:0:0:
170,335,90322,2,0,L|110:338,1,60,2|0,0:0|0:0,0:0:0:0:
61,213,90526,1,2,0:0:0:0:
59,195,90628,2,0,L|0:191,1,60,2|0,0:0|0:0,0:0:0:0:
126,112,90832,6,0,B|190:108|190:108|220:56,1,120,2|0,0:0|0:0,0:0:0:0:
386,272,91241,6,0,B|322:276|322:276|292:328,1,120,2|0,0:0|0:0,0:0:0:0:
494,208,91547,5,0,0:0:0:0:
496,190,91649,2,0,L|505:86,1,90,2|0,0:0|0:0,0:0:0:0:
434,30,91853,1,0,0:0:0:0:
303,124,91955,2,0,L|434:135,1,120,2|0,0:0|0:0,0:0:0:0:
117,222,92261,2,0,L|206:230,1,90,2|0,0:0|0:0,0:0:0:0:
48,172,92465,6,0,B|80:138|80:138|214:149|214:149|154:112,1,225.000008583069,2|0,0:0|0:0,0:0:0:0:
94,35,92771,2,0,L|182:42,1,60,2|0,0:0|0:0,0:0:0:0:
247,61,92975,1,2,0:0:0:0:
345,46,93077,2,0,L|449:26,1,90,2|0,0:0|0:0,0:0:0:0:
371,143,93281,2,0,L|322:121,3,40,0|0|0|0,3:0|3:0|3:0|3:0,3:0:0:0:
455,134,93588,2,0,L|461:196,1,60,2|0,0:0|0:0,0:0:0:0:
394,359,93792,1,2,0:0:0:0:
376,361,93895,2,0,L|369:298,1,60,2|0,0:0|0:0,0:0:0:0:
234,245,94098,6,0,L|242:195,1,30,0|0,3:0|3:0,3:0:0:0:
213,248,94200,2,0,L|195:200,1,30,0|0,3:0|3:0,3:0:0:0:
205,264,94302,2,0,L|166:231,1,30,0|0,3:0|3:0,3:0:0:0:
204,279,94404,2,0,L|154:270,1,30,0|0,3:0|3:0,3:0:0:0:
207,295,94506,2,0,P|276:317|322:306,1,90.0000034332277,0|0,3:0|0:0,3:0:0:0:
99,309,94710,2,0,P|71:333|64:356,2,45.0000017166138,0|0|0,3:0|3:0|3:0,3:0:0:0:
140,208,94914,2,0,P|124:136|92:102,1,90.0000034332277,0|0,3:0|3:0,3:0:0:0:
375,141,95118,5,0,3:0:0:0:
431,136,95220,1,0,3:0:0:0:
478,105,95322,2,0,B|488:32|488:32|440:-4,1,120,0|0,3:0|0:0,0:0:0:0:
97,71,95730,5,2,0:0:0:0:
177,53,95832,1,2,0:0:0:0:
253,82,95934,1,2,0:0:0:0:
334,66,96036,2,0,P|374:59|415:67,1,75,2|0,0:0|0:0,0:0:0:0:
205,151,96241,2,0,P|241:168|283:170,1,75,2|0,0:0|0:0,0:0:0:0:
363,291,96445,2,0,L|375:142,1,150,2|0,0:0|0:0,0:0:0:0:
512,232,96751,2,0,L|450:288,1,75,2|0,0:0|0:0,0:0:0:0:
246,287,96955,6,0,L|146:266,1,75,2|0,0:0|0:0,0:0:0:0:
0,296,97159,1,0,0:0:0:0:
8,316,97261,1,0,0:0:0:0:
74,263,97363,5,2,0:0:0:0:
83,226,97465,1,0,0:0:0:0:
93,190,97567,1,0,0:0:0:0:
104,154,97669,1,0,0:0:0:0:
116,118,97771,2,0,P|125:68|110:39,1,75,2|0,0:0|0:0,0:0:0:0:
204,136,97975,2,0,B|256:109|256:109|304:136,1,112.5
304,152,98179,2,0,B|257:178|257:178|205:151,1,112.5,2|0,0:0|0:0,0:0:0:0:
74,192,98383,6,0,P|65:242|80:271,1,75
172,370,98588,2,0,B|199:318|199:318|172:271,1,112.5,2|0,0:0|0:0,0:0:0:0:
270,259,98792,2,0,P|320:250|349:265,1,75
463,378,98996,5,2,0:0:0:0:
437,299,99098,1,2,0:0:0:0:
468,222,99200,1,2,0:0:0:0:
443,143,99302,2,0,P|429:108|411:75,1,75,2|0,0:0|0:0,0:0:0:0:
277,169,99506,2,0,P|314:165|347:149,1,75,2|0,0:0|0:0,0:0:0:0:
137,142,99710,2,0,L|148:291,1,150,2|0,0:0|0:0,0:0:0:0:
82,360,100016,2,0,L|26:309,1,75,2|0,0:0|0:0,0:0:0:0:
65,119,100220,5,2,0:0:0:0:
117,65,100322,1,0,0:0:0:0:
189,82,100424,1,0,0:0:0:0:
211,154,100526,1,0,0:0:0:0:
218,79,100628,1,2,0:0:0:0:
277,33,100730,1,0,0:0:0:0:
351,35,100832,6,0,P|409:72|423:103,1,75,2|0,0:0|0:0,0:0:0:0:
381,152,101036,2,0,P|365:101|410:75,1,112.5,2|0,0:0|0:0,0:0:0:0:
408,223,101241,6,0,L|370:225,1,37.5,2|0,0:0|0:0,0:0:0:0:
284,251,101343,2,0,L|288:296,1,37.5,2|0,0:0|0:0,0:0:0:0:
373,263,101445,2,0,L|369:218,1,37.5,2|0,0:0|0:0,0:0:0:0:
300,172,101547,2,0,P|250:175|215:213,1,75,2|0,0:0|0:0,0:0:0:0:
146,222,101751,6,0,L|169:272,1,37.5,2|0,0:0|0:0,0:0:0:0:
213,326,101853,6,0,B|293:384|293:384|343:357|343:357|100:382,1,367.500003504753,2|0,0:0|0:0,0:0:0:0:
54,384,102261,6,0,B|47:312|47:312|37:295|37:295|30:220,1,168,2|0,0:0|0:0,0:0:0:0:
0,136,102669,6,0,P|56:141|94:129,1,75,2|0,0:0|0:0,0:0:0:0:
208,46,102873,2,0,P|134:55|45:19,1,150,2|0,0:0|0:0,0:0:0:0:
296,4,103179,1,0,0:0:0:0:
310,3,103281,2,0,L|295:168,1,150,2|2,0:0|0:0,0:0:0:0:
471,0,103588,5,0,0:0:0:0:
488,4,103690,1,0,0:0:0:0:
504,11,103792,2,0,P|513:55|511:74,1,60,0|2,0:0|0:0,0:0:0:0:
405,153,103996,1,0,0:0:0:0:
418,165,104098,1,0,0:0:0:0:
429,180,104200,2,0,P|414:222|403:238,1,60,0|2,0:0|0:0,0:0:0:0:
272,254,104404,1,0,0:0:0:0:
277,270,104506,1,0,0:0:0:0:
279,288,104608,2,0,P|262:302|253:306,1,30
97,266,104710,6,0,P|59:319|84:379,1,135.000005149841,2|0,0:0|0:0,0:0:0:0:
155,314,104914,2,0,P|108:301|98:255,1,90.0000034332277,2|0,0:0|0:0,0:0:0:0:
162,112,105118,2,0,P|199:165|174:225,1,135.000005149841,2|0,0:0|0:0,0:0:0:0:
264,83,105322,1,2,0:0:0:0:
334,27,105424,1,2,0:0:0:0:
423,31,105526,6,0,B|490:60|490:60|485:176,1,180.000006866455,2|0,0:0|0:0,0:0:0:0:
366,355,105832,2,0,B|433:326|433:326|406:199,1,192,2|0,0:0|0:0,0:0:0:0:
292,67,106139,2,0,B|359:96|359:96|310:222,1,204.000003890991,2|0,0:0|0:0,0:0:0:0:
212,347,106445,2,0,B|279:318|279:318|194:187,1,215.999993408203,2|0,0:0|0:0,0:0:0:0:
21,81,106751,2,0,B|12:153|12:153|215:102,1,270.000010299683,2|0,0:0|0:0,0:0:0:0:
97,47,107159,5,0,3:0:0:0:
98,35,107261,1,0,3:0:0:0:
77,216,107363,5,0,3:0:0:0:
78,228,107465,2,0,L|112:290,1,45.0000017166138,0|0,3:0|3:0,3:0:0:0:
143,331,107567,2,0,B|101:345|101:345|42:325,1,90.0000034332277,0|0,3:0|0:0,3:0:0:0:
270,141,107771,5,0,0:0:0:0:
284,143,107873,1,0,0:0:0:0:
393,194,107975,5,0,0:0:0:0:
379,196,108077,1,0,0:0:0:0:
322,73,108179,5,0,0:0:0:0:
335,70,108281,1,0,0:0:0:0:
232,207,108383,6,0,B|189:226|189:226|157:115|157:115|203:104,1,210,2|0,0:0|0:0,0:0:0:0:
367,142,108792,5,2,0:0:0:0:
434,201,108894,1,0,0:0:0:0:
450,289,108996,1,0,0:0:0:0:
406,367,109098,1,0,0:0:0:0:
403,277,109200,5,2,0:0:0:0:
453,202,109302,1,0,0:0:0:0:
473,114,109404,1,0,0:0:0:0:
423,39,109506,1,0,0:0:0:0:
341,83,109608,5,2,0:0:0:0:
358,86,109710,1,0,0:0:0:0:
340,190,109812,1,2,0:0:0:0:
357,184,109914,1,0,0:0:0:0:
245,216,110016,6,0,L|151:217,1,90.0000034332277
176,32,110220,2,0,L|270:31,1,90.0000034332277
86,73,110424,5,2,0:0:0:0:
39,160,110526,1,0,0:0:0:0:
63,255,110628,1,0,0:0:0:0:
136,321,110730,1,0,0:0:0:0:
54,265,110832,5,2,0:0:0:0:
33,168,110934,1,0,0:0:0:0:
90,87,111036,1,0,0:0:0:0:
6,4,111139,2,0,L|5:103,1,90.0000034332277
191,209,111343,5,0,0:0:0:0:
173,213,111445,1,0,0:0:0:0:
155,216,111547,1,0,0:0:0:0:
275,213,111649,5,2,0:0:0:0:
334,288,111751,1,2,0:0:0:0:
410,204,111853,2,0,P|379:211|410:211,1,90.0000034332277,2|0,0:0|0:0,0:0:0:0:
495,169,112057,6,0,B|446:17|446:17|322:132,1,315.000003004074,2|0,0:0|0:0,0:0:0:0:
195,244,112465,5,2,0:0:0:0:
107,262,112567,1,0,0:0:0:0:
33,212,112669,1,0,0:0:0:0:
9,127,112771,1,0,0:0:0:0:
76,54,112873,5,2,0:0:0:0:
18,134,112975,1,0,0:0:0:0:
67,219,113077,1,0,0:0:0:0:
163,238,113179,1,0,0:0:0:0:
268,187,113281,6,2,L|341:197,3,60
128,135,113690,5,2,0:0:0:0:
130,126,113792,1,0,0:0:0:0:
264,90,113894,1,0,0:0:0:0:
263,81,113996,1,0,0:0:0:0:
194,193,114098,5,2,0:0:0:0:
183,273,114200,1,0,0:0:0:0:
237,332,114302,1,0,0:0:0:0:
317,343,114404,1,0,0:0:0:0:
369,281,114506,5,2,0:0:0:0:
367,272,114608,1,2,0:0:0:0:
183,273,114710,1,2,0:0:0:0:
181,281,114812,1,2,0:0:0:0:
80,384,114914,6,0,B|13:330|0:228|0:228|60:152|164:153,1,367.500003504753,2|0,0:0|0:0,0:0:0:0:
231,88,115322,6,0,B|274:113|274:113|394:63,1,180.000006866455,2|0,0:0|0:0,0:0:0:0:
509,228,115628,2,0,B|462:247|462:247|422:404,1,192,2|0,0:0|0:0,0:0:0:0:
220,357,115934,2,0,B|200:310|200:310|38:270,1,204.000003890991,2|0,0:0|0:0,0:0:0:0:
163,30,116241,2,0,B|137:73|137:73|207:244,1,215.999993408203,2|0,0:0|0:0,0:0:0:0:
266,166,116547,6,0,B|231:81|231:81|245:56,1,120,2|0,0:0|0:0,0:0:0:0:
260,58,116751,2,0,B|246:83|246:83|281:168,1,120,2|0,0:0|0:0,0:0:0:0:
477,137,116955,5,2,0:0:0:0:
459,139,117057,1,0,0:0:0:0:
441,142,117159,1,0,0:0:0:0:
423,144,117261,1,0,0:0:0:0:
461,216,117363,5,2,0:0:0:0:
432,291,117465,1,0,0:0:0:0:
362,332,117567,1,0,0:0:0:0:
281,326,117669,1,0,0:0:0:0:
169,275,117771,5,2,0:0:0:0:
231,223,117873,1,0,0:0:0:0:
310,206,117975,1,0,0:0:0:0:
387,230,118077,1,0,0:0:0:0:
415,126,118179,6,0,P|411:82|412:33,1,90.0000034332277
291,20,118383,1,0,0:0:0:0:
279,20,118485,1,2,0:0:0:0:
89,31,118588,6,0,B|22:60|22:60|27:176,1,180.000006866455,2|0,0:0|0:0,0:0:0:0:
146,355,118894,2,0,B|79:326|79:326|106:199,1,192,2|0,0:0|0:0,0:0:0:0:
220,67,119201,2,0,B|153:96|153:96|202:222,1,204.000003890991,2|0,0:0|0:0,0:0:0:0:
300,347,119507,2,0,B|233:318|233:318|318:187,1,215.999993408203,2|0,0:0|0:0,0:0:0:0:
464,57,119813,6,0,B|420:32|420:32|411:98|411:98|403:108|403:108|392:188,1,210,2|0,0:0|0:0,0:0:0:0:
398,278,120220,6,0,P|447:260|478:224,1,90.0000034332277
235,168,120424,2,0,L|179:155,3,45.0000017166138
291,103,120628,5,0,0:0:0:0:
320,178,120730,1,0,0:0:0:0:
328,258,120832,1,0,0:0:0:0:
298,333,120934,1,0,0:0:0:0:
177,318,121036,5,0,0:0:0:0:
253,264,121139,1,0,0:0:0:0:
163,224,121241,1,0,0:0:0:0:
297,197,121343,2,0,P|319:215|332:244,1,60,2|0,0:0|0:0,0:0:0:0:
298,333,121547,6,0,P|345:261|306:185,1,180.000006866455,2|0,0:0|0:0,0:0:0:0:
68,189,121853,6,0,B|13:277,1,90.0000034332277,2|0,0:0|0:0,0:0:0:0:
91,80,122057,1,2,0:0:0:0:
185,46,122159,2,0,L|269:80,1,90.0000034332277,2|0,0:0|0:0,0:0:0:0:
390,151,122363,2,0,L|307:185,1,90.0000034332277,2|0,0:0|0:0,0:0:0:0:
369,57,122567,2,0,L|376:12,1,45.0000017166138,2|0,0:0|0:0,0:0:0:0:
185,46,122669,6,0,P|171:108|193:171,1,90.0000034332277,2|0,0:0|0:0,0:0:0:0:
226,211,122873,1,2,0:0:0:0:
198,306,122975,1,2,0:0:0:0:
106,345,123077,2,0,B|58:297|58:297|103:174|103:174,1,180,2|0,0:0|0:0,0:0:0:0:
91,80,123281,5,2,0:0:0:0:
