osu file format v14

[General]
AudioFilename: audio.mp3
AudioLeadIn: 0
PreviewTime: 72862
Countdown: 0
SampleSet: Soft
StackLeniency: 0.7
Mode: 3
LetterboxInBreaks: 0
SpecialStyle: 0
WidescreenStoryboard: 1

[Editor]
DistanceSpacing: 0.8
BeatDivisor: 4
GridSize: 8
TimelineZoom: 2.500005

[Metadata]
Title:Transport
TitleUnicode:Transport
Artist:Sota Fujimori
ArtistUnicode:Sota Fujimori
Creator:_Stan
Version:ExNeko's Hyper
Source:beatmania IIDX 23 copula
Tags:electronic instrumental tech-trance konami bemani Madoka2574 ExNeko FAMoss
BeatmapID:1796049
BeatmapSetID:652131

[Difficulty]
HPDrainRate:7.5
CircleSize:4
OverallDifficulty:7.5
ApproachRate:5
SliderMultiplier:1.4
SliderTickRate:1

[Events]
//Background and Video events
0,0,"bg.jpg",0,0
Video,-666,"bga.MP4"
//Break Periods
//Storyboard Layer 0 (Background)
//Storyboard Layer 1 (Fail)
//Storyboard Layer 2 (Pass)
//Storyboard Layer 3 (Foreground)
//Storyboard Sound Samples
Sample,12454,0,"S4.wav",70
Sample,81332,0,"SC2.wav",40
Sample,102148,0,"SC2.wav",40
Sample,111944,0,"SC2.wav",30

[TimingPoints]
1026,408.163265306122,4,2,1,60,1,0
81025,-200,4,2,1,60,0,0
81230,-71.4285714285714,4,2,1,60,0,0
81332,-62.5,4,2,1,60,0,0
81434,-100,4,2,1,60,0,0
95719,-100,4,2,1,60,0,1
102250,-100,4,2,1,60,0,0
102658,-100,4,2,1,60,0,1
108372,-100,4,2,1,60,0,0
108781,-100,4,2,1,60,0,1
112046,-100,4,2,1,60,0,0
112454,-100,4,2,1,60,0,1
114903,-100,4,2,1,60,0,0
116944,-100,4,2,1,60,0,1
118577,-100,4,2,1,60,0,0
120209,-100,4,2,1,60,0,1
121842,-100,4,2,1,60,0,0

[HitObjects]
64,192,1026,128,2,1230:0:0:0:0:
192,192,1026,1,0,0:0:0:0:
448,192,1230,1,0,0:0:0:0:
192,192,1332,128,4,1536:0:0:0:0:
320,192,1332,1,2,0:0:0:0:
64,192,1536,1,0,0:0:0:0:
320,192,1638,128,2,1842:0:0:0:0:
448,192,1638,1,0,0:0:0:0:
64,192,1944,1,2,0:0:0:0:
192,192,1944,1,0,0:0:0:0:
320,192,2148,1,2,0:0:0:0:
448,192,2148,1,0,0:0:0:0:
320,192,2658,1,2,0:0:0:70:S2.wav
448,192,2658,1,0,0:0:0:0:
64,192,2862,1,0,0:0:0:0:
192,192,2964,1,0,0:0:0:70:S3.wav
320,192,3066,1,0,0:0:0:0:
320,192,3270,1,2,0:0:0:0:
448,192,3270,1,0,0:0:0:0:
64,192,3372,1,2,0:0:0:0:
192,192,3372,1,0,0:0:0:0:
448,192,3474,1,0,0:0:0:0:
320,192,3577,1,0,0:0:0:0:
192,192,3679,1,2,0:0:0:70:S2.wav
64,192,3781,1,0,0:0:0:0:
320,192,4087,1,2,0:0:0:0:
448,192,4087,1,0,0:0:0:0:
64,192,4291,1,2,0:0:0:0:
192,192,4291,128,0,4495:0:0:0:0:
448,192,4495,1,0,0:0:0:0:
192,192,4597,1,2,0:0:0:0:
320,192,4597,128,4,4801:0:0:0:0:
64,192,4801,1,0,0:0:0:0:
320,192,4903,1,2,0:0:0:0:
448,192,4903,128,0,5107:0:0:0:0:
64,192,5209,1,2,0:0:0:0:
192,192,5209,1,0,0:0:0:0:
320,192,5413,1,2,0:0:0:0:
448,192,5413,1,0,0:0:0:0:
192,192,5923,1,2,0:0:0:0:
320,192,6025,1,0,0:0:0:0:
448,192,6128,1,0,0:0:0:0:
192,192,6230,1,2,0:0:0:0:
320,192,6332,1,2,0:0:0:70:S2.wav
448,192,6434,1,0,0:0:0:0:
64,192,6536,1,2,0:0:0:0:
192,192,6536,1,0,0:0:0:0:
320,192,6638,1,2,0:0:0:0:
448,192,6638,1,0,0:0:0:0:
64,192,6740,1,2,0:0:0:0:
192,192,6740,1,0,0:0:0:0:
448,192,6944,1,0,0:0:0:70:S3.wav
64,192,7148,1,2,0:0:0:0:
320,192,7148,1,0,0:0:0:0:
192,192,7352,1,0,0:0:0:70:S4.wav
320,192,7556,1,2,0:0:0:0:
448,192,7556,1,0,0:0:0:0:
64,192,7658,1,2,0:0:0:0:
192,192,7658,1,0,0:0:0:0:
320,192,7760,1,0,0:0:0:0:
64,192,7862,1,2,0:0:0:0:
448,192,7862,1,4,0:0:0:0:
64,192,8066,1,0,0:0:0:0:
320,192,8168,1,2,0:0:0:0:
448,192,8168,1,0,0:0:0:0:
448,192,8372,1,0,0:0:0:0:
64,192,8474,1,2,0:0:0:0:
192,192,8474,1,0,0:0:0:0:
320,192,8679,128,2,8985:0:0:0:0:
448,192,8679,128,0,8985:0:0:0:0:
64,192,9189,1,0,0:0:0:70:S3.wav
192,192,9291,1,0,0:0:0:0:
320,192,9393,1,0,0:0:0:0:
192,192,9495,1,0,0:0:0:70:S5.wav
64,192,9597,1,0,0:0:0:0:
448,192,9699,1,0,0:0:0:0:
192,192,9801,1,2,0:0:0:0:
320,192,9852,1,2,0:0:0:0:
448,192,9903,1,2,0:0:0:0:
192,192,10005,1,0,0:0:0:0:
64,192,10209,1,2,0:0:0:0:
64,192,10515,1,0,0:0:0:70:S3.wav
320,192,10617,1,2,0:0:0:0:
448,192,10617,1,0,0:0:0:0:
64,192,10821,128,2,11025:0:0:0:0:
192,192,10821,1,0,0:0:0:0:
448,192,11025,1,0,0:0:0:0:
192,192,11128,128,2,11332:0:0:0:0:
320,192,11128,1,4,0:0:0:0:
64,192,11332,1,0,0:0:0:0:
320,192,11434,128,2,11638:0:0:0:0:
448,192,11434,1,0,0:0:0:0:
64,192,11740,1,2,0:0:0:0:
192,192,11740,1,0,0:0:0:0:
320,192,11944,1,2,0:0:0:0:
448,192,11944,1,0,0:0:0:0:
448,192,12454,1,2,0:0:0:0:
320,192,12556,1,0,0:0:0:0:
192,192,12658,1,0,0:0:0:0:
64,192,12760,1,0,0:0:0:0:
192,192,12862,1,0,0:0:0:70:S2.wav
320,192,12964,1,0,0:0:0:0:
448,192,13066,1,2,0:0:0:0:
64,192,13117,1,2,0:0:0:0:
192,192,13168,1,2,0:0:0:0:
320,192,13219,1,2,0:0:0:0:
448,192,13270,1,6,0:0:0:0:
64,192,13372,128,0,13679:0:0:0:0:
448,192,13679,128,2,14087:0:0:0:0:
64,192,14087,1,6,0:0:0:0:
320,192,14291,1,0,0:0:0:0:
64,192,14495,1,0,0:0:0:0:
192,192,14699,1,0,0:0:0:70:S4.wav
64,192,14903,1,0,0:0:0:70:S3.wav
320,192,15107,1,0,0:0:0:0:
64,192,15311,1,0,0:0:0:0:
192,192,15515,1,0,0:0:0:0:
320,192,15617,1,0,0:0:0:0:
448,192,15719,1,0,0:0:0:0:
192,192,15923,1,0,0:0:0:0:
448,192,16128,1,0,0:0:0:0:
320,192,16332,1,0,0:0:0:0:
448,192,16536,1,0,0:0:0:70:S3.wav
64,192,16740,1,0,0:0:0:70:S3.wav
448,192,16944,1,0,0:0:0:0:
192,192,17148,1,0,0:0:0:0:
64,192,17352,1,0,0:0:0:0:
320,192,17556,1,0,0:0:0:70:S4.wav
448,192,17556,1,0,0:0:0:0:
64,192,17658,1,0,0:0:0:70:S4.wav
192,192,17658,1,0,0:0:0:0:
320,192,17760,1,0,0:0:0:70:S4.wav
448,192,17760,1,0,0:0:0:0:
64,192,17862,1,0,0:0:0:70:S4.wav
192,192,17862,1,0,0:0:0:0:
320,192,17964,1,0,0:0:0:70:S4.wav
448,192,17964,1,0,0:0:0:0:
64,192,18066,1,0,0:0:0:70:S4.wav
192,192,18066,1,0,0:0:0:0:
448,192,18168,128,0,18270:0:0:0:70:S4.wav
64,192,18270,128,0,18372:0:0:0:70:S4.wav
320,192,18372,128,0,18474:0:0:0:0:
320,192,18781,128,0,18883:0:0:0:0:
320,192,18985,1,2,0:0:0:0:
448,192,18985,1,4,0:0:0:0:
64,192,19189,1,0,0:0:0:0:
320,192,19291,1,0,0:0:0:0:
320,192,19495,1,0,0:0:0:0:
64,192,19597,1,0,0:0:0:70:S4.wav
192,192,19699,1,0,0:0:0:0:
320,192,19801,1,0,0:0:0:0:
448,192,19903,1,0,0:0:0:0:
320,192,20005,1,0,0:0:0:0:
192,192,20107,1,0,0:0:0:0:
64,192,20209,1,0,0:0:0:50:S5.wav
192,192,20311,1,0,0:0:0:0:
320,192,20413,1,0,0:0:0:0:
64,192,20617,1,2,0:0:0:0:
192,192,20617,128,4,20821:0:0:0:0:
448,192,20821,128,0,20923:0:0:0:0:
192,192,20923,1,0,0:0:0:0:
64,192,21025,1,8,0:0:0:0:
448,192,21025,1,0,0:0:0:0:
192,192,21128,1,0,0:0:0:0:
320,192,21230,1,0,0:0:0:0:
192,192,21332,1,0,0:0:0:0:
64,192,21434,1,2,0:0:0:0:
320,192,21434,1,0,0:0:0:0:
448,192,21536,1,0,0:0:0:0:
192,192,21638,1,0,0:0:0:0:
64,192,21842,1,8,0:0:0:0:
448,192,21842,1,0,0:0:0:0:
320,192,22046,1,0,0:0:0:0:
448,192,22148,1,0,0:0:0:0:
64,192,22250,1,2,0:0:0:0:
192,192,22250,1,0,0:0:0:0:
320,192,22352,1,0,0:0:0:0:
448,192,22454,1,0,0:0:0:0:
192,192,22556,1,0,0:0:0:0:
64,192,22658,1,8,0:0:0:0:
448,192,22658,1,0,0:0:0:0:
192,192,22862,1,0,0:0:0:0:
320,192,22964,1,0,0:0:0:0:
64,192,23066,1,2,0:0:0:0:
448,192,23066,1,0,0:0:0:0:
192,192,23168,1,0,0:0:0:0:
320,192,23270,128,0,23474:0:0:0:0:
64,192,23474,1,8,0:0:0:0:
192,192,23474,1,0,0:0:0:0:
448,192,23577,128,0,23883:0:0:0:0:
64,192,23883,1,2,0:0:0:0:
192,192,23883,1,0,0:0:0:0:
448,192,24087,128,0,24189:0:0:0:0:
64,192,24189,1,0,0:0:0:0:
192,192,24291,1,8,0:0:0:0:
320,192,24291,1,0,0:0:0:0:
192,192,24495,1,0,0:0:0:0:
64,192,24597,1,0,0:0:0:0:
320,192,24699,1,2,0:0:0:0:
448,192,24699,1,0,0:0:0:0:
192,192,24801,1,0,0:0:0:0:
448,192,24903,1,0,0:0:0:0:
320,192,25005,1,0,0:0:0:0:
64,192,25107,1,8,0:0:0:0:
192,192,25107,1,0,0:0:0:0:
320,192,25311,1,0,0:0:0:0:
192,192,25413,1,0,0:0:0:0:
64,192,25515,1,2,0:0:0:0:
448,192,25515,1,0,0:0:0:0:
192,192,25719,128,0,25821:0:0:0:0:
448,192,25821,1,0,0:0:0:0:
64,192,25923,1,8,0:0:0:0:
192,192,25923,1,0,0:0:0:0:
448,192,26128,1,0,0:0:0:0:
192,192,26230,1,0,0:0:0:0:
64,192,26332,1,2,0:0:0:0:
320,192,26332,1,0,0:0:0:0:
448,192,26434,1,0,0:0:0:0:
192,192,26536,128,0,26740:0:0:0:0:
320,192,26740,1,0,0:0:0:50:S5.wav
448,192,26740,128,0,27046:0:0:0:0:
64,192,27148,128,2,27352:0:0:0:0:
192,192,27148,1,0,0:0:0:0:
320,192,27352,128,0,27454:0:0:0:0:
64,192,27454,1,0,0:0:0:0:
320,192,27556,1,8,0:0:0:0:
448,192,27556,1,0,0:0:0:0:
64,192,27760,1,0,0:0:0:0:
320,192,27862,1,0,0:0:0:0:
192,192,27964,1,2,0:0:0:0:
448,192,27964,1,0,0:0:0:0:
64,192,28066,1,0,0:0:0:0:
192,192,28168,128,0,28372:0:0:0:0:
320,192,28372,1,8,0:0:0:0:
448,192,28372,1,0,0:0:0:0:
448,192,28577,128,0,28781:0:0:0:0:
64,192,28679,1,0,0:0:0:0:
192,192,28781,1,2,0:0:0:0:
320,192,28781,1,0,0:0:0:0:
192,192,28985,1,0,0:0:0:0:
320,192,29087,1,0,0:0:0:0:
64,192,29189,128,8,29393:0:0:0:0:
448,192,29189,128,0,29393:0:0:0:0:
192,192,29393,128,0,29597:0:0:0:0:
320,192,29393,128,0,29597:0:0:0:0:
64,192,29597,128,2,30005:0:0:0:0:
448,192,29597,1,0,0:0:0:0:
192,192,29801,128,0,30005:0:0:0:0:
320,192,30005,1,8,0:0:0:0:
448,192,30005,1,0,0:0:0:0:
448,192,30209,1,0,0:0:0:0:
320,192,30311,1,0,0:0:0:70:S4.wav
64,192,30413,1,2,0:0:0:0:
192,192,30413,1,0,0:0:0:0:
448,192,30515,1,0,0:0:0:0:
320,192,30617,1,0,0:0:0:0:
192,192,30719,1,0,0:0:0:0:
64,192,30821,1,8,0:0:0:0:
448,192,30821,1,0,0:0:0:0:
320,192,31025,1,0,0:0:0:0:
64,192,31128,1,0,0:0:0:0:
192,192,31230,1,2,0:0:0:0:
448,192,31230,1,0,0:0:0:0:
320,192,31332,1,0,0:0:0:0:
192,192,31434,1,0,0:0:0:0:
64,192,31536,1,0,0:0:0:0:
320,192,31638,1,8,0:0:0:0:
448,192,31638,1,0,0:0:0:0:
64,192,31842,128,0,32046:0:0:0:0:
320,192,32046,1,2,0:0:0:0:
448,192,32046,1,0,0:0:0:0:
448,192,32250,1,0,0:0:0:0:
64,192,32454,1,0,0:0:0:0:
320,192,32556,1,0,0:0:0:0:
64,192,32658,1,0,0:0:0:0:
320,192,32760,1,0,0:0:0:0:
192,192,32862,1,0,0:0:0:0:
64,192,32964,1,0,0:0:0:0:
320,192,33066,1,0,0:0:0:0:
64,192,33270,1,0,0:0:0:50:S5.wav
192,192,33270,1,0,0:0:0:0:
448,192,33270,128,0,33679:0:0:0:0:
64,192,33679,128,2,33883:0:0:0:0:
320,192,33679,1,4,0:0:0:0:
320,192,33883,128,0,33985:0:0:0:0:
64,192,33985,1,0,0:0:0:0:
320,192,34087,1,8,0:0:0:0:
448,192,34087,1,0,0:0:0:0:
320,192,34291,1,0,0:0:0:0:
192,192,34393,1,0,0:0:0:0:
64,192,34495,1,2,0:0:0:0:
320,192,34495,1,0,0:0:0:0:
448,192,34597,1,0,0:0:0:0:
192,192,34699,1,0,0:0:0:0:
320,192,34801,1,0,0:0:0:0:
64,192,34903,1,8,0:0:0:0:
448,192,34903,1,0,0:0:0:0:
192,192,35107,128,0,35311:0:0:0:0:
320,192,35311,1,2,0:0:0:0:
448,192,35311,1,0,0:0:0:0:
64,192,35515,1,0,0:0:0:0:
448,192,35617,1,0,0:0:0:0:
192,192,35719,1,8,0:0:0:0:
320,192,35719,1,0,0:0:0:0:
64,192,35923,1,0,0:0:0:0:
192,192,36025,1,0,0:0:0:0:
320,192,36128,1,2,0:0:0:0:
448,192,36128,1,0,0:0:0:0:
64,192,36230,1,0,0:0:0:0:
448,192,36332,128,0,36536:0:0:0:0:
64,192,36536,1,8,0:0:0:0:
192,192,36536,1,0,0:0:0:0:
448,192,36638,128,0,36944:0:0:0:0:
320,192,36740,1,0,0:0:0:0:
192,192,36842,1,0,0:0:0:0:
64,192,36944,1,2,0:0:0:0:
320,192,36944,1,0,0:0:0:0:
192,192,37148,1,0,0:0:0:0:
320,192,37250,1,0,0:0:0:0:
64,192,37352,1,8,0:0:0:0:
448,192,37352,1,0,0:0:0:0:
192,192,37556,1,0,0:0:0:0:
448,192,37658,1,0,0:0:0:0:
64,192,37760,1,2,0:0:0:0:
320,192,37760,1,0,0:0:0:0:
192,192,37862,1,0,0:0:0:0:
320,192,37964,1,0,0:0:0:0:
64,192,38066,1,0,0:0:0:0:
320,192,38168,1,8,0:0:0:0:
448,192,38168,1,0,0:0:0:0:
64,192,38372,1,0,0:0:0:0:
192,192,38474,1,0,0:0:0:0:
320,192,38577,1,2,0:0:0:0:
448,192,38577,1,0,0:0:0:0:
64,192,38781,128,0,38883:0:0:0:0:
64,192,38985,1,8,0:0:0:0:
192,192,38985,128,0,39393:0:0:0:0:
448,192,39189,128,0,39393:0:0:0:0:
64,192,39393,1,2,0:0:0:0:
320,192,39393,1,0,0:0:0:0:
448,192,39495,1,0,0:0:0:0:
192,192,39597,128,0,39801:0:0:0:0:
64,192,39801,128,8,40209:0:0:0:50:S5.wav
320,192,39801,1,0,0:0:0:0:
448,192,39801,128,0,40107:0:0:0:0:
320,192,40209,1,2,0:0:0:0:
448,192,40209,128,0,40413:0:0:0:0:
192,192,40413,128,0,40515:0:0:0:0:
448,192,40515,1,0,0:0:0:0:
64,192,40617,1,8,0:0:0:0:
192,192,40617,1,0,0:0:0:0:
192,192,40821,1,0,0:0:0:0:
320,192,40923,1,0,0:0:0:0:
192,192,41025,1,2,0:0:0:0:
448,192,41025,1,0,0:0:0:0:
64,192,41128,1,0,0:0:0:0:
320,192,41230,128,0,41638:0:0:0:0:
64,192,41434,128,8,41842:0:0:0:0:
192,192,41434,1,0,0:0:0:0:
448,192,41638,128,0,41842:0:0:0:0:
192,192,41842,1,2,0:0:0:0:
320,192,41842,1,0,0:0:0:0:
448,192,41944,1,0,0:0:0:0:
64,192,42046,1,0,0:0:0:0:
448,192,42148,1,0,0:0:0:0:
64,192,42250,1,8,0:0:0:0:
192,192,42250,1,0,0:0:0:0:
320,192,42352,1,0,0:0:0:0:
64,192,42454,1,0,0:0:0:0:
448,192,42556,1,0,0:0:0:0:
64,192,42658,1,2,0:0:0:0:
320,192,42658,1,0,0:0:0:0:
192,192,42760,1,0,0:0:0:0:
448,192,42862,1,0,0:0:0:0:
64,192,42964,1,0,0:0:0:0:
192,192,43066,1,8,0:0:0:0:
320,192,43066,1,0,0:0:0:0:
448,192,43168,128,0,43474:0:0:0:0:
64,192,43270,1,0,0:0:0:0:
320,192,43372,1,0,0:0:0:0:
64,192,43474,128,2,43781:0:0:0:0:
192,192,43474,1,0,0:0:0:0:
320,192,43679,128,0,43883:0:0:0:0:
448,192,43679,128,0,43883:0:0:0:0:
64,192,43883,1,8,0:0:0:0:
192,192,43883,1,0,0:0:0:0:
64,192,44087,128,0,44291:0:0:0:0:
320,192,44291,1,2,0:0:0:0:
448,192,44291,128,0,44495:0:0:0:0:
192,192,44495,1,0,0:0:0:0:
448,192,44597,128,0,44801:0:0:0:0:
64,192,44699,1,8,0:0:0:0:
320,192,44699,1,0,0:0:0:0:
192,192,44801,1,0,0:0:0:0:
448,192,44903,128,0,45107:0:0:0:0:
320,192,45005,1,0,0:0:0:0:
64,192,45107,128,2,45515:0:0:0:0:
192,192,45107,1,4,0:0:0:0:
448,192,45311,128,0,45515:0:0:0:0:
320,192,45719,128,0,45923:0:0:0:50:S1.wav
192,192,45923,128,0,46128:0:0:0:0:
192,192,46230,128,0,46332:0:0:0:0:
64,192,46332,1,0,0:0:0:50:S5.wav
448,192,46332,1,0,0:0:0:0:
320,192,46434,1,0,0:0:0:0:
192,192,46536,128,0,46740:0:0:0:0:
448,192,46740,128,4,46944:0:0:0:0:
64,192,46944,1,0,0:0:0:0:
448,192,47046,1,0,0:0:0:0:
64,192,47148,1,0,0:0:0:0:
448,192,47250,1,0,0:0:0:0:
320,192,47352,1,0,0:0:0:0:
192,192,47454,1,0,0:0:0:0:
64,192,47556,1,0,0:0:0:0:
320,192,47658,1,0,0:0:0:0:
64,192,47760,1,0,0:0:0:0:
320,192,47862,1,0,0:0:0:0:
64,192,47964,1,0,0:0:0:50:S1.wav
192,192,47964,128,0,48372:0:0:0:0:
448,192,47964,1,0,0:0:0:0:
320,192,48372,1,2,0:0:0:0:
448,192,48372,128,4,48679:0:0:0:0:
64,192,48577,128,0,48781:0:0:0:0:
320,192,48781,1,8,0:0:0:0:
448,192,48781,1,0,0:0:0:0:
192,192,48849,1,0,0:0:0:0:
64,192,48917,1,0,0:0:0:0:
448,192,48985,1,0,0:0:0:0:
320,192,49053,1,0,0:0:0:0:
192,192,49121,1,0,0:0:0:0:
64,192,49189,1,2,0:0:0:0:
448,192,49189,1,0,0:0:0:0:
192,192,49291,1,0,0:0:0:0:
320,192,49393,128,0,49495:0:0:0:0:
192,192,49495,1,0,0:0:0:0:
64,192,49597,1,8,0:0:0:0:
320,192,49597,128,0,49699:0:0:0:0:
448,192,49597,1,0,0:0:0:0:
192,192,49699,1,0,0:0:0:0:
448,192,49801,128,0,50005:0:0:0:0:
320,192,49903,128,0,50005:0:0:0:0:
64,192,50005,1,2,0:0:0:0:
192,192,50005,1,0,0:0:0:0:
320,192,50107,1,0,0:0:0:0:
448,192,50209,1,0,0:0:0:0:
192,192,50311,1,0,0:0:0:0:
64,192,50413,1,8,0:0:0:0:
320,192,50413,1,0,0:0:0:0:
448,192,50413,1,0,0:0:0:0:
192,192,50515,1,0,0:0:0:0:
320,192,50617,1,0,0:0:0:0:
448,192,50719,1,0,0:0:0:0:
64,192,50821,1,2,0:0:0:0:
192,192,50821,1,0,0:0:0:0:
448,192,50923,1,0,0:0:0:0:
64,192,51025,1,0,0:0:0:0:
320,192,51025,1,0,0:0:0:0:
64,192,51230,128,8,51638:0:0:0:0:
320,192,51230,1,0,0:0:0:0:
448,192,51230,1,0,0:0:0:0:
320,192,51434,128,0,51536:0:0:0:0:
448,192,51434,128,0,51536:0:0:0:0:
192,192,51638,1,2,0:0:0:0:
320,192,51638,1,0,0:0:0:0:
448,192,51638,1,0,0:0:0:0:
64,192,51740,1,0,0:0:0:0:
320,192,51842,1,0,0:0:0:0:
192,192,51944,1,0,0:0:0:0:
64,192,52046,1,8,0:0:0:0:
320,192,52046,1,0,0:0:0:0:
448,192,52046,1,0,0:0:0:0:
192,192,52148,1,0,0:0:0:0:
448,192,52250,128,0,52352:0:0:0:0:
320,192,52352,128,0,52454:0:0:0:0:
64,192,52454,1,2,0:0:0:0:
192,192,52454,1,0,0:0:0:0:
320,192,52556,1,0,0:0:0:0:
448,192,52658,1,0,0:0:0:0:
64,192,52760,1,0,0:0:0:0:
192,192,52862,1,8,0:0:0:0:
320,192,52862,1,0,0:0:0:0:
448,192,52862,1,0,0:0:0:0:
64,192,52964,1,0,0:0:0:0:
192,192,53066,128,0,53168:0:0:0:0:
320,192,53168,128,0,53270:0:0:0:0:
64,192,53270,1,2,0:0:0:0:
448,192,53270,1,0,0:0:0:0:
192,192,53372,1,0,0:0:0:0:
320,192,53474,1,0,0:0:0:0:
64,192,53577,1,0,0:0:0:0:
192,192,53679,1,8,0:0:0:0:
320,192,53679,1,0,0:0:0:0:
448,192,53679,1,0,0:0:0:0:
64,192,53781,1,0,0:0:0:0:
448,192,53883,1,0,0:0:0:0:
64,192,53985,1,0,0:0:0:0:
320,192,54087,1,2,0:0:0:0:
448,192,54087,1,0,0:0:0:0:
192,192,54189,1,0,0:0:0:0:
64,192,54291,1,0,0:0:0:0:
320,192,54393,1,0,0:0:0:0:
64,192,54495,1,8,0:0:0:0:
192,192,54495,128,0,54903:0:0:0:0:
448,192,54495,1,0,0:0:0:0:
320,192,54903,1,2,0:0:0:0:
448,192,54903,1,0,0:0:0:0:
64,192,55005,1,0,0:0:0:0:
192,192,55107,1,0,0:0:0:0:
448,192,55107,1,0,0:0:0:0:
64,192,55311,1,8,0:0:0:0:
448,192,55311,1,0,0:0:0:0:
320,192,55379,1,0,0:0:0:0:
192,192,55447,1,0,0:0:0:0:
64,192,55515,1,0,0:0:0:0:
448,192,55583,1,0,0:0:0:0:
320,192,55651,1,0,0:0:0:0:
64,192,55719,1,2,0:0:0:0:
192,192,55719,1,0,0:0:0:0:
448,192,55821,1,0,0:0:0:0:
192,192,55923,128,0,56128:0:0:0:0:
64,192,56128,1,8,0:0:0:0:
320,192,56128,1,0,0:0:0:0:
448,192,56128,1,0,0:0:0:0:
192,192,56230,1,0,0:0:0:0:
320,192,56332,128,0,56536:0:0:0:0:
192,192,56434,128,0,56536:0:0:0:0:
64,192,56536,1,2,0:0:0:0:
448,192,56536,1,0,0:0:0:0:
320,192,56638,1,0,0:0:0:0:
192,192,56740,1,0,0:0:0:0:
320,192,56842,1,0,0:0:0:0:
64,192,56944,1,8,0:0:0:0:
192,192,56944,1,0,0:0:0:0:
448,192,56944,1,0,0:0:0:0:
320,192,57046,1,0,0:0:0:0:
64,192,57148,1,0,0:0:0:0:
320,192,57250,1,0,0:0:0:0:
64,192,57352,1,2,0:0:0:0:
192,192,57352,1,0,0:0:0:0:
320,192,57454,1,0,0:0:0:0:
448,192,57556,128,0,57760:0:0:0:0:
64,192,57760,128,8,57964:0:0:0:0:
192,192,57760,1,0,0:0:0:0:
320,192,57760,128,0,58168:0:0:0:0:
448,192,57964,128,0,58168:0:0:0:0:
64,192,58168,1,0,0:0:0:50:S5.wav
192,192,58168,1,0,0:0:0:0:
320,192,58270,1,2,0:0:0:0:
448,192,58270,1,0,0:0:0:0:
192,192,58372,1,0,0:0:0:0:
64,192,58474,1,0,0:0:0:0:
192,192,58577,1,2,0:0:0:0:
320,192,58577,1,0,0:0:0:0:
448,192,58577,1,0,0:0:0:0:
64,192,58679,1,0,0:0:0:0:
320,192,58781,128,0,58883:0:0:0:0:
192,192,58883,128,0,58985:0:0:0:0:
64,192,58985,1,2,0:0:0:0:
320,192,58985,1,0,0:0:0:0:
448,192,59087,1,0,0:0:0:0:
192,192,59189,1,0,0:0:0:0:
320,192,59291,1,0,0:0:0:0:
64,192,59393,1,2,0:0:0:0:
192,192,59393,1,0,0:0:0:0:
448,192,59393,1,0,0:0:0:0:
320,192,59495,1,0,0:0:0:0:
64,192,59597,128,0,59699:0:0:0:0:
192,192,59699,128,0,59801:0:0:0:0:
320,192,59801,1,2,0:0:0:0:
448,192,59801,1,0,0:0:0:0:
64,192,59903,1,0,0:0:0:0:
320,192,60005,1,0,0:0:0:0:
64,192,60107,1,0,0:0:0:0:
448,192,60209,1,0,0:0:0:0:
192,192,60311,1,0,0:0:0:0:
448,192,60413,1,0,0:0:0:0:
192,192,60515,1,0,0:0:0:0:
320,192,60617,1,0,0:0:0:0:
448,192,60617,1,0,0:0:0:0:
64,192,60719,1,0,0:0:0:0:
192,192,60821,1,0,0:0:0:0:
320,192,60923,1,0,0:0:0:0:
64,192,61025,128,0,61434:0:0:0:50:S5.wav
192,192,61025,1,0,0:0:0:0:
448,192,61025,1,0,0:0:0:0:
320,192,61434,1,2,0:0:0:0:
448,192,61434,1,4,0:0:0:0:
192,192,61638,1,0,0:0:0:0:
448,192,61740,1,0,0:0:0:0:
192,192,61842,1,8,0:0:0:0:
320,192,61842,1,0,0:0:0:0:
64,192,61944,1,0,0:0:0:0:
192,192,62046,1,0,0:0:0:0:
320,192,62148,1,0,0:0:0:0:
64,192,62250,1,2,0:0:0:0:
448,192,62250,1,0,0:0:0:0:
192,192,62352,1,0,0:0:0:0:
448,192,62454,1,0,0:0:0:0:
320,192,62556,1,0,0:0:0:0:
64,192,62658,1,8,0:0:0:0:
192,192,62658,1,0,0:0:0:0:
320,192,62862,128,0,63066:0:0:0:0:
192,192,62964,128,0,63066:0:0:0:0:
64,192,63066,1,2,0:0:0:0:
448,192,63066,1,0,0:0:0:0:
320,192,63168,1,0,0:0:0:0:
192,192,63270,128,0,63474:0:0:0:0:
320,192,63474,1,8,0:0:0:0:
448,192,63474,1,0,0:0:0:0:
64,192,63577,1,0,0:0:0:0:
448,192,63679,128,0,63883:0:0:0:0:
64,192,63883,1,2,0:0:0:0:
192,192,63883,128,0,63985:0:0:0:0:
320,192,64087,1,0,0:0:0:0:
64,192,64189,128,0,64291:0:0:0:0:
320,192,64291,1,8,0:0:0:0:
448,192,64291,1,0,0:0:0:0:
448,192,64495,128,0,64699:0:0:0:0:
64,192,64699,1,2,0:0:0:0:
192,192,64699,1,0,0:0:0:0:
320,192,64903,1,0,0:0:0:0:
192,192,65005,1,0,0:0:0:0:
64,192,65107,1,8,0:0:0:0:
320,192,65107,1,0,0:0:0:0:
448,192,65209,1,0,0:0:0:0:
192,192,65311,1,0,0:0:0:0:
64,192,65413,1,0,0:0:0:0:
320,192,65515,1,2,0:0:0:0:
448,192,65515,1,0,0:0:0:0:
192,192,65617,1,0,0:0:0:0:
448,192,65719,1,0,0:0:0:0:
320,192,65821,1,0,0:0:0:0:
64,192,65923,1,8,0:0:0:0:
192,192,65923,1,0,0:0:0:0:
320,192,66128,128,0,66332:0:0:0:0:
64,192,66332,1,2,0:0:0:0:
448,192,66332,1,0,0:0:0:0:
192,192,66434,1,0,0:0:0:0:
320,192,66536,1,0,0:0:0:0:
64,192,66740,1,8,0:0:0:0:
448,192,66740,1,0,0:0:0:0:
320,192,66842,1,0,0:0:0:0:
192,192,66944,128,0,67352:0:0:0:0:
64,192,67148,128,0,67352:0:0:0:0:
448,192,67148,128,0,67352:0:0:0:0:
320,192,67352,1,0,0:0:0:0:
64,192,67454,1,0,0:0:0:0:
192,192,67556,1,8,0:0:0:50:S1.wav
320,192,67556,1,0,0:0:0:0:
448,192,67556,1,0,0:0:0:0:
448,192,67760,128,0,67964:0:0:0:0:
64,192,67964,1,2,0:0:0:0:
192,192,67964,1,0,0:0:0:0:
320,192,68168,1,0,0:0:0:0:
192,192,68270,1,0,0:0:0:0:
64,192,68372,1,8,0:0:0:0:
448,192,68372,1,0,0:0:0:0:
320,192,68474,1,0,0:0:0:0:
192,192,68577,1,0,0:0:0:0:
448,192,68679,1,0,0:0:0:0:
64,192,68781,1,2,0:0:0:0:
192,192,68781,1,0,0:0:0:0:
320,192,68883,1,0,0:0:0:0:
448,192,68985,1,0,0:0:0:0:
64,192,69087,1,0,0:0:0:0:
320,192,69189,1,8,0:0:0:0:
448,192,69189,1,0,0:0:0:0:
320,192,69393,128,0,69597:0:0:0:0:
64,192,69597,1,2,0:0:0:0:
192,192,69597,1,0,0:0:0:0:
320,192,69699,1,0,0:0:0:0:
448,192,69801,1,0,0:0:0:0:
320,192,70005,1,8,0:0:0:0:
448,192,70005,1,0,0:0:0:0:
192,192,70107,1,0,0:0:0:0:
64,192,70209,1,0,0:0:0:0:
192,192,70413,1,2,0:0:0:0:
320,192,70413,1,0,0:0:0:0:
448,192,70617,1,0,0:0:0:0:
192,192,70719,1,0,0:0:0:0:
64,192,70821,1,8,0:0:0:0:
320,192,70821,1,0,0:0:0:0:
448,192,70923,1,0,0:0:0:0:
192,192,71025,128,0,71230:0:0:0:0:
320,192,71230,1,2,0:0:0:0:
448,192,71230,1,0,0:0:0:0:
192,192,71332,1,0,0:0:0:0:
64,192,71434,1,0,0:0:0:0:
320,192,71536,1,2,0:0:0:0:
448,192,71536,1,0,0:0:0:0:
192,192,71638,1,0,0:0:0:0:
64,192,71740,1,2,0:0:0:0:
448,192,71740,1,0,0:0:0:0:
320,192,71842,1,0,0:0:0:0:
64,192,71944,1,2,0:0:0:0:
192,192,71944,1,0,0:0:0:0:
448,192,72046,1,0,0:0:0:0:
320,192,72148,1,0,0:0:0:0:
64,192,72250,1,2,0:0:0:0:
192,192,72250,1,0,0:0:0:0:
64,192,72454,1,2,0:0:0:0:
320,192,72454,1,4,0:0:0:0:
448,192,72454,1,0,0:0:0:0:
320,192,72658,128,0,72862:0:0:0:0:
192,192,72760,1,0,0:0:0:0:
64,192,72862,1,2,0:0:0:0:
448,192,72862,128,0,73270:0:0:0:0:
64,192,73066,128,0,73270:0:0:0:0:
192,192,73270,128,0,73474:0:0:0:70:S3.wav
320,192,73372,128,0,73577:0:0:0:0:
448,192,73474,128,0,73679:0:0:0:0:
64,192,73679,128,0,73883:0:0:0:70:S5.wav
192,192,73679,128,0,73883:0:0:0:0:
448,192,73883,1,0,0:0:0:0:
64,192,73985,128,0,74189:0:0:0:0:
192,192,73985,128,0,74189:0:0:0:0:
320,192,74087,1,0,0:0:0:50:S1.wav
320,192,74291,128,0,74495:0:0:0:0:
448,192,74291,128,0,74495:0:0:0:0:
64,192,74495,1,2,0:0:0:0:
192,192,74495,1,4,0:0:0:0:
320,192,74699,1,0,0:0:0:0:
448,192,74699,1,0,0:0:0:0:
64,192,74903,1,8,0:0:0:0:
192,192,74903,1,0,0:0:0:0:
320,192,75005,1,0,0:0:0:0:
448,192,75005,1,0,0:0:0:0:
64,192,75209,1,0,0:0:0:0:
320,192,75311,1,2,0:0:0:0:
448,192,75311,1,0,0:0:0:0:
192,192,75515,1,0,0:0:0:0:
320,192,75617,1,0,0:0:0:0:
448,192,75617,1,0,0:0:0:0:
64,192,75719,1,8,0:0:0:0:
192,192,75719,1,0,0:0:0:0:
320,192,75923,1,0,0:0:0:0:
448,192,75923,1,0,0:0:0:0:
64,192,76128,1,2,0:0:0:0:
192,192,76128,1,0,0:0:0:0:
320,192,76230,1,0,0:0:0:0:
64,192,76332,1,0,0:0:0:0:
448,192,76332,1,0,0:0:0:0:
192,192,76536,1,8,0:0:0:0:
320,192,76536,1,0,0:0:0:0:
64,192,76638,1,0,0:0:0:0:
448,192,76638,1,0,0:0:0:0:
320,192,76740,1,0,0:0:0:0:
192,192,76842,1,0,0:0:0:0:
64,192,76944,1,2,0:0:0:0:
320,192,76944,1,0,0:0:0:0:
448,192,77046,1,0,0:0:0:0:
64,192,77148,1,0,0:0:0:0:
192,192,77148,1,0,0:0:0:0:
320,192,77352,1,8,0:0:0:0:
448,192,77352,1,0,0:0:0:0:
64,192,77454,1,0,0:0:0:0:
192,192,77454,1,0,0:0:0:0:
320,192,77556,1,0,0:0:0:0:
448,192,77658,1,0,0:0:0:0:
64,192,77760,1,2,0:0:0:0:
320,192,77760,1,4,0:0:0:0:
192,192,77964,1,0,0:0:0:0:
320,192,78066,1,0,0:0:0:0:
64,192,78168,1,8,0:0:0:0:
448,192,78168,1,0,0:0:0:0:
192,192,78270,1,0,0:0:0:0:
320,192,78372,1,0,0:0:0:0:
64,192,78474,1,0,0:0:0:0:
192,192,78577,1,2,0:0:0:0:
448,192,78577,1,0,0:0:0:0:
64,192,78679,1,0,0:0:0:0:
320,192,78781,1,0,0:0:0:0:
192,192,78883,1,0,0:0:0:0:
64,192,78985,1,8,0:0:0:0:
448,192,78985,1,0,0:0:0:0:
320,192,79087,1,0,0:0:0:0:
192,192,79189,128,0,79393:0:0:0:0:
320,192,79393,1,2,0:0:0:0:
448,192,79393,1,0,0:0:0:0:
64,192,79495,1,0,0:0:0:0:
320,192,79597,1,0,0:0:0:0:
64,192,79699,1,0,0:0:0:0:
192,192,79801,1,8,0:0:0:0:
448,192,79801,1,0,0:0:0:0:
320,192,79903,1,0,0:0:0:0:
448,192,80005,1,0,0:0:0:0:
64,192,80107,1,0,0:0:0:0:
192,192,80209,1,2,0:0:0:0:
320,192,80209,1,0,0:0:0:0:
448,192,80311,1,0,0:0:0:0:
192,192,80413,1,0,0:0:0:0:
64,192,80515,1,0,0:0:0:0:
320,192,80617,1,8,0:0:0:0:
448,192,80617,1,0,0:0:0:0:
192,192,80719,1,0,0:0:0:0:
64,192,80821,1,0,0:0:0:0:
192,192,80923,1,0,0:0:0:40:SC1.wav
320,192,81025,1,0,0:0:0:0:
64,192,81434,1,4,0:0:0:0:
320,192,81434,1,8,0:0:0:0:
448,192,81434,1,0,0:0:0:0:
192,192,81536,1,0,0:0:0:0:
320,192,81638,1,0,0:0:0:0:
192,192,81740,1,0,0:0:0:0:
64,192,81842,1,2,0:0:0:0:
448,192,81842,1,0,0:0:0:0:
320,192,81944,1,0,0:0:0:0:
192,192,82046,1,0,0:0:0:0:
448,192,82148,1,0,0:0:0:0:
64,192,82250,1,8,0:0:0:0:
192,192,82250,1,0,0:0:0:0:
320,192,82250,1,0,0:0:0:0:
448,192,82352,1,0,0:0:0:0:
320,192,82454,1,0,0:0:0:0:
192,192,82556,1,0,0:0:0:0:
64,192,82658,1,2,0:0:0:0:
448,192,82658,1,0,0:0:0:0:
320,192,82760,1,0,0:0:0:0:
192,192,82862,1,0,0:0:0:0:
320,192,82964,1,0,0:0:0:0:
64,192,83066,1,8,0:0:0:0:
192,192,83066,1,0,0:0:0:0:
448,192,83066,1,0,0:0:0:0:
320,192,83168,1,0,0:0:0:0:
64,192,83270,1,0,0:0:0:0:
192,192,83372,1,0,0:0:0:0:
320,192,83474,1,2,0:0:0:0:
448,192,83474,1,0,0:0:0:0:
64,192,83577,1,0,0:0:0:0:
192,192,83679,1,0,0:0:0:0:
320,192,83781,1,0,0:0:0:0:
64,192,83883,1,8,0:0:0:0:
192,192,83883,1,0,0:0:0:0:
448,192,83883,1,0,0:0:0:0:
320,192,83985,1,0,0:0:0:0:
64,192,84087,1,0,0:0:0:0:
192,192,84189,1,0,0:0:0:0:
320,192,84291,1,2,0:0:0:0:
448,192,84291,1,4,0:0:0:0:
192,192,84495,1,0,0:0:0:0:
64,192,84597,1,0,0:0:0:0:
320,192,84699,1,8,0:0:0:0:
448,192,84699,1,0,0:0:0:0:
192,192,84801,1,0,0:0:0:0:
64,192,84903,1,0,0:0:0:0:
448,192,85005,1,0,0:0:0:0:
64,192,85107,1,2,0:0:0:0:
192,192,85107,1,0,0:0:0:0:
320,192,85209,1,0,0:0:0:0:
448,192,85311,1,0,0:0:0:0:
64,192,85413,1,0,0:0:0:0:
320,192,85515,1,8,0:0:0:0:
448,192,85515,1,0,0:0:0:0:
64,192,85617,1,0,0:0:0:0:
192,192,85719,1,2,0:0:0:0:
320,192,85719,1,0,0:0:0:0:
448,192,85821,1,0,0:0:0:0:
64,192,85923,1,2,0:0:0:0:
192,192,85923,1,0,0:0:0:0:
64,192,86128,1,2,0:0:0:0:
192,192,86128,1,0,0:0:0:0:
448,192,86332,1,0,0:0:0:70:S3.wav
192,192,86434,1,0,0:0:0:0:
448,192,86536,1,0,0:0:0:70:S4.wav
192,192,86638,1,0,0:0:0:70:S4.wav
320,192,86740,1,0,0:0:0:70:S4.wav
448,192,86740,1,0,0:0:0:0:
64,192,86842,1,0,0:0:0:70:S4.wav
192,192,86842,1,0,0:0:0:0:
320,192,86944,1,0,0:0:0:70:S4.wav
448,192,86944,1,0,0:0:0:0:
64,192,87046,1,0,0:0:0:70:S4.wav
192,192,87046,1,0,0:0:0:0:
320,192,87148,1,0,0:0:0:50:S1.wav
448,192,87148,128,0,87556:0:0:0:0:
64,192,87556,1,2,0:0:0:0:
192,192,87556,1,4,0:0:0:0:
448,192,87760,1,0,0:0:0:0:
192,192,87862,1,0,0:0:0:0:
64,192,87964,1,2,0:0:0:0:
448,192,87964,1,0,0:0:0:0:
192,192,88066,1,0,0:0:0:0:
320,192,88168,1,0,0:0:0:0:
192,192,88372,1,2,0:0:0:0:
448,192,88372,1,0,0:0:0:0:
64,192,88577,1,0,0:0:0:0:
320,192,88679,1,0,0:0:0:0:
64,192,88781,1,2,0:0:0:0:
192,192,88781,1,0,0:0:0:0:
320,192,88883,1,0,0:0:0:0:
192,192,88985,1,0,0:0:0:0:
64,192,89189,1,2,0:0:0:0:
448,192,89189,1,0,0:0:0:0:
320,192,89393,1,0,0:0:0:0:
192,192,89495,1,0,0:0:0:0:
64,192,89597,1,2,0:0:0:0:
320,192,89597,1,0,0:0:0:0:
192,192,89699,1,0,0:0:0:0:
448,192,89801,1,0,0:0:0:0:
320,192,89903,1,0,0:0:0:0:
64,192,90005,1,2,0:0:0:0:
192,192,90005,1,0,0:0:0:0:
192,192,90209,1,0,0:0:0:0:
448,192,90311,1,0,0:0:0:0:
64,192,90413,1,2,0:0:0:0:
192,192,90413,1,0,0:0:0:0:
448,192,90515,1,0,0:0:0:0:
192,192,90617,1,2,0:0:0:0:
320,192,90617,1,0,0:0:0:0:
64,192,90821,1,2,0:0:0:0:
320,192,90821,1,4,0:0:0:0:
448,192,90821,1,0,0:0:0:0:
64,192,91230,1,2,0:0:0:0:
192,192,91230,1,4,0:0:0:0:
320,192,91230,1,0,0:0:0:0:
192,192,91638,1,2,0:0:0:0:
320,192,91638,1,4,0:0:0:0:
448,192,91638,1,0,0:0:0:0:
64,192,91944,1,4,0:0:0:0:
192,192,91944,1,2,0:0:0:0:
320,192,91944,1,0,0:0:0:0:
64,192,92250,1,2,0:0:0:0:
320,192,92250,1,0,0:0:0:0:
448,192,92250,1,0,0:0:0:0:
192,192,92454,1,2,0:0:0:0:
320,192,92454,1,4,0:0:0:0:
448,192,92454,1,0,0:0:0:0:
64,192,92556,1,0,0:0:0:0:
320,192,92658,1,0,0:0:0:0:
64,192,92760,1,0,0:0:0:0:
448,192,92862,1,0,0:0:0:0:
192,192,92964,1,0,0:0:0:0:
448,192,93066,128,0,93270:0:0:0:0:
64,192,93270,1,2,0:0:0:0:
192,192,93270,1,0,0:0:0:0:
320,192,93372,1,0,0:0:0:0:
64,192,93474,1,2,0:0:0:0:
448,192,93474,1,4,0:0:0:0:
192,192,93577,1,0,0:0:0:0:
320,192,93679,1,0,0:0:0:0:
448,192,93781,1,0,0:0:0:0:
64,192,93883,1,8,0:0:0:0:
192,192,93883,1,0,0:0:0:0:
320,192,94087,1,0,0:0:0:70:S3.wav
64,192,94189,1,0,0:0:0:70:S3.wav
320,192,94291,1,0,0:0:0:70:S3.wav
192,192,94393,1,0,0:0:0:0:
64,192,94495,1,0,0:0:0:50:S1.wav
448,192,94495,1,0,0:0:0:0:
192,192,94699,1,0,0:0:0:40:S5.wav
320,192,94801,1,0,0:0:0:40:S5.wav
64,192,94903,1,0,0:0:0:40:S5.wav
448,192,94903,1,0,0:0:0:0:
320,192,95107,1,0,0:0:0:40:S5.wav
64,192,95209,1,0,0:0:0:40:S5.wav
192,192,95311,1,0,0:0:0:50:S1.wav
320,192,95311,1,0,0:0:0:0:
448,192,95311,1,0,0:0:0:0:
64,192,95719,1,2,0:0:0:0:
192,192,95719,1,4,0:0:0:0:
320,192,95821,1,0,0:0:0:0:
448,192,95923,1,0,0:0:0:0:
192,192,96025,1,0,0:0:0:0:
64,192,96128,1,8,0:0:0:0:
320,192,96128,1,0,0:0:0:0:
448,192,96230,1,0,0:0:0:0:
320,192,96332,1,0,0:0:0:0:
192,192,96434,1,0,0:0:0:0:
64,192,96536,1,2,0:0:0:0:
320,192,96536,1,0,0:0:0:0:
448,192,96638,1,0,0:0:0:0:
192,192,96740,1,0,0:0:0:0:
64,192,96842,1,0,0:0:0:0:
320,192,96944,1,8,0:0:0:0:
448,192,96944,1,0,0:0:0:0:
192,192,97046,1,0,0:0:0:0:
64,192,97148,1,0,0:0:0:0:
320,192,97250,1,0,0:0:0:0:
192,192,97352,1,2,0:0:0:0:
448,192,97352,1,0,0:0:0:0:
320,192,97556,1,0,0:0:0:0:
64,192,97658,1,0,0:0:0:0:
320,192,97760,1,8,0:0:0:0:
448,192,97760,1,0,0:0:0:0:
320,192,97964,1,0,0:0:0:0:
64,192,98066,1,0,0:0:0:0:
320,192,98168,1,2,0:0:0:0:
448,192,98168,1,0,0:0:0:0:
320,192,98372,1,0,0:0:0:0:
64,192,98474,1,0,0:0:0:0:
320,192,98577,1,8,0:0:0:0:
448,192,98577,1,0,0:0:0:0:
448,192,98781,128,0,98985:0:0:0:0:
64,192,98985,1,2,0:0:0:0:
192,192,98985,1,4,0:0:0:0:
320,192,99087,1,0,0:0:0:0:
192,192,99189,1,0,0:0:0:0:
64,192,99291,1,0,0:0:0:0:
320,192,99393,1,8,0:0:0:0:
448,192,99393,1,0,0:0:0:0:
192,192,99495,1,0,0:0:0:0:
64,192,99597,1,0,0:0:0:0:
320,192,99699,1,0,0:0:0:0:
192,192,99801,1,2,0:0:0:0:
448,192,99801,1,0,0:0:0:0:
64,192,99903,1,0,0:0:0:0:
192,192,100005,1,0,0:0:0:0:
320,192,100107,1,0,0:0:0:0:
64,192,100209,1,8,0:0:0:0:
448,192,100209,1,0,0:0:0:0:
192,192,100311,1,0,0:0:0:0:
320,192,100413,1,0,0:0:0:0:
448,192,100515,1,0,0:0:0:0:
64,192,100617,1,2,0:0:0:0:
320,192,100617,1,0,0:0:0:0:
192,192,100821,1,0,0:0:0:0:
448,192,100923,1,0,0:0:0:0:
64,192,101025,1,8,0:0:0:0:
192,192,101025,1,0,0:0:0:0:
192,192,101230,1,0,0:0:0:0:
448,192,101332,1,0,0:0:0:0:
64,192,101434,1,2,0:0:0:0:
192,192,101434,1,0,0:0:0:0:
448,192,101536,1,0,0:0:0:0:
192,192,101638,1,0,0:0:0:0:
448,192,101740,1,0,0:0:0:0:
64,192,101842,128,8,102250:0:0:0:0:
192,192,101842,1,0,0:0:0:0:
320,192,101842,128,0,102046:0:0:0:0:
448,192,102046,128,0,102250:0:0:0:0:
192,192,102250,128,0,102658:0:0:0:0:
64,192,102658,1,8,0:0:0:0:
448,192,102658,1,4,0:0:0:0:
320,192,102862,1,0,0:0:0:0:
192,192,102964,1,0,0:0:0:0:
64,192,103066,1,2,0:0:0:0:
448,192,103066,1,0,0:0:0:0:
192,192,103168,1,0,0:0:0:0:
320,192,103270,1,0,0:0:0:0:
64,192,103474,1,8,0:0:0:0:
320,192,103474,1,0,0:0:0:0:
192,192,103577,1,0,0:0:0:0:
320,192,103679,1,0,0:0:0:0:
448,192,103781,1,0,0:0:0:0:
64,192,103883,1,2,0:0:0:0:
192,192,103883,1,0,0:0:0:0:
320,192,104087,1,0,0:0:0:0:
64,192,104189,1,0,0:0:0:0:
320,192,104291,128,8,104393:0:0:0:0:
448,192,104291,1,0,0:0:0:0:
192,192,104495,1,0,0:0:0:0:
448,192,104597,1,0,0:0:0:0:
64,192,104699,1,2,0:0:0:0:
192,192,104699,128,0,104801:0:0:0:0:
320,192,104903,1,0,0:0:0:0:
64,192,105005,1,0,0:0:0:0:
320,192,105107,128,8,105209:0:0:0:0:
448,192,105107,1,0,0:0:0:0:
192,192,105311,1,0,0:0:0:0:
448,192,105413,1,0,0:0:0:0:
64,192,105515,1,2,0:0:0:0:
192,192,105515,1,4,0:0:0:0:
320,192,105719,1,0,0:0:0:0:
64,192,105821,1,2,0:0:0:0:
192,192,105821,1,4,0:0:0:0:
192,192,106025,1,0,0:0:0:0:
320,192,106128,1,2,0:0:0:0:
448,192,106128,1,4,0:0:0:0:
320,192,106434,1,2,0:0:0:0:
448,192,106434,1,4,0:0:0:0:
448,192,106638,1,0,0:0:0:0:
64,192,106740,1,2,0:0:0:0:
192,192,106740,1,4,0:0:0:0:
320,192,106842,1,0,0:0:0:0:
448,192,106944,1,0,0:0:0:0:
320,192,107046,1,0,0:0:0:0:
64,192,107148,1,2,0:0:0:0:
192,192,107148,1,0,0:0:0:0:
448,192,107250,1,0,0:0:0:0:
192,192,107352,1,0,0:0:0:0:
320,192,107454,1,0,0:0:0:0:
64,192,107556,1,0,0:0:0:0:
448,192,107556,1,0,0:0:0:0:
320,192,107760,1,0,0:0:0:0:
192,192,107862,1,0,0:0:0:0:
64,192,107964,1,0,0:0:0:70:S5.wav
448,192,107964,1,0,0:0:0:0:
320,192,108168,1,0,0:0:0:0:
64,192,108270,1,0,0:0:0:0:
192,192,108372,1,0,0:0:0:50:S1.wav
320,192,108372,1,0,0:0:0:0:
448,192,108372,128,0,108781:0:0:0:0:
64,192,108781,1,2,0:0:0:0:
192,192,108781,1,4,0:0:0:0:
320,192,108883,1,0,0:0:0:0:
64,192,108985,1,0,0:0:0:0:
192,192,109087,1,0,0:0:0:0:
64,192,109189,1,8,0:0:0:0:
320,192,109189,1,0,0:0:0:0:
448,192,109291,1,0,0:0:0:0:
192,192,109393,1,0,0:0:0:0:
320,192,109495,1,0,0:0:0:0:
192,192,109597,1,2,0:0:0:0:
448,192,109597,1,0,0:0:0:0:
64,192,109699,1,0,0:0:0:0:
320,192,109801,1,0,0:0:0:0:
192,192,109903,1,0,0:0:0:0:
64,192,110005,1,8,0:0:0:0:
320,192,110005,1,0,0:0:0:0:
448,192,110107,1,0,0:0:0:0:
192,192,110209,1,0,0:0:0:0:
320,192,110311,1,0,0:0:0:0:
64,192,110413,1,2,0:0:0:0:
448,192,110413,1,0,0:0:0:0:
192,192,110515,1,0,0:0:0:0:
320,192,110617,1,0,0:0:0:0:
192,192,110719,1,0,0:0:0:0:
320,192,110821,1,8,0:0:0:0:
448,192,110821,1,0,0:0:0:0:
64,192,110923,1,0,0:0:0:0:
192,192,111025,1,0,0:0:0:0:
448,192,111128,1,0,0:0:0:0:
64,192,111230,1,2,0:0:0:0:
320,192,111230,1,0,0:0:0:0:
192,192,111332,1,0,0:0:0:0:
448,192,111434,1,0,0:0:0:0:
320,192,111536,1,0,0:0:0:0:
64,192,111638,1,8,0:0:0:0:
192,192,111638,1,0,0:0:0:0:
320,192,111740,1,0,0:0:0:0:
448,192,111842,128,0,112046:0:0:0:0:
64,192,112046,128,0,112454:0:0:0:0:
192,192,112046,128,0,112454:0:0:0:0:
320,192,112454,1,12,0:0:0:0:
448,192,112454,1,0,0:0:0:50:S1.wav
192,192,112556,1,0,0:0:0:0:
64,192,112658,1,0,0:0:0:0:
320,192,112760,1,0,0:0:0:0:
192,192,112862,1,2,0:0:0:0:
448,192,112862,1,0,0:0:0:0:
64,192,112964,1,0,0:0:0:0:
192,192,113066,1,0,0:0:0:0:
320,192,113168,1,0,0:0:0:0:
64,192,113270,1,8,0:0:0:0:
448,192,113270,1,0,0:0:0:0:
192,192,113372,1,0,0:0:0:0:
448,192,113474,1,0,0:0:0:0:
192,192,113577,1,0,0:0:0:0:
64,192,113679,1,2,0:0:0:0:
448,192,113679,1,0,0:0:0:0:
320,192,113781,1,0,0:0:0:0:
192,192,113883,1,0,0:0:0:0:
64,192,113985,1,0,0:0:0:0:
192,192,114087,1,8,0:0:0:0:
448,192,114087,1,0,0:0:0:0:
320,192,114189,1,0,0:0:0:0:
64,192,114291,1,0,0:0:0:0:
192,192,114393,1,0,0:0:0:0:
320,192,114495,1,0,0:0:0:0:
64,192,114597,1,0,0:0:0:0:
192,192,114699,1,0,0:0:0:0:
320,192,114801,1,0,0:0:0:0:
64,192,114903,1,8,0:0:0:50:S1.wav
192,192,114903,1,0,0:0:0:0:
448,192,114903,128,0,115311:0:0:0:0:
64,192,115311,1,2,0:0:0:0:
192,192,115311,1,4,0:0:0:0:
448,192,115515,1,0,0:0:0:0:
64,192,115617,1,2,0:0:0:0:
192,192,115617,1,4,0:0:0:0:
64,192,115923,1,2,0:0:0:0:
192,192,115923,1,4,0:0:0:0:
448,192,116025,1,0,0:0:0:0:
64,192,116230,1,2,0:0:0:0:
192,192,116230,1,4,0:0:0:0:
64,192,116434,1,0,0:0:0:0:
320,192,116536,128,2,116740:0:0:0:0:
448,192,116536,128,4,116740:0:0:0:0:
64,192,116944,1,2,0:0:0:0:
192,192,116944,1,0,0:0:0:0:
320,192,117046,1,0,0:0:0:0:
192,192,117148,1,0,0:0:0:0:
64,192,117250,1,0,0:0:0:0:
320,192,117352,1,8,0:0:0:0:
448,192,117352,1,0,0:0:0:0:
192,192,117454,1,0,0:0:0:0:
448,192,117556,1,0,0:0:0:0:
320,192,117658,1,0,0:0:0:0:
64,192,117760,1,2,0:0:0:0:
192,192,117760,1,0,0:0:0:0:
448,192,117862,1,0,0:0:0:0:
64,192,117964,1,0,0:0:0:0:
192,192,118066,1,0,0:0:0:0:
320,192,118168,1,8,0:0:0:0:
448,192,118168,1,0,0:0:0:0:
64,192,118270,1,0,0:0:0:0:
320,192,118372,1,2,0:0:0:0:
192,192,118474,1,2,0:0:0:0:
320,192,118577,1,2,0:0:0:0:
448,192,118577,1,4,0:0:0:0:
64,192,118781,1,0,0:0:0:0:
320,192,118883,1,2,0:0:0:0:
448,192,118883,1,4,0:0:0:0:
320,192,119189,1,2,0:0:0:0:
448,192,119189,1,4,0:0:0:0:
64,192,119291,1,0,0:0:0:0:
320,192,119495,1,2,0:0:0:0:
448,192,119495,1,4,0:0:0:0:
448,192,119699,1,0,0:0:0:0:
64,192,119801,128,0,120005:0:0:0:50:S1.wav
192,192,119801,128,0,120005:0:0:0:0:
320,192,120209,1,2,0:0:0:0:
448,192,120209,1,0,0:0:0:0:
192,192,120311,1,0,0:0:0:0:
64,192,120413,1,0,0:0:0:0:
320,192,120515,1,0,0:0:0:0:
192,192,120617,1,0,0:0:0:70:S3.wav
448,192,120719,1,0,0:0:0:70:S3.wav
320,192,120821,1,0,0:0:0:70:S3.wav
192,192,120923,1,0,0:0:0:0:
64,192,121025,1,2,0:0:0:0:
448,192,121025,1,0,0:0:0:0:
320,192,121128,1,0,0:0:0:0:
192,192,121230,1,0,0:0:0:0:
64,192,121332,1,0,0:0:0:0:
320,192,121434,1,0,0:0:0:70:S4.wav
448,192,121536,1,0,0:0:0:70:S4.wav
64,192,121638,1,0,0:0:0:70:S4.wav
192,192,121740,1,0,0:0:0:0:
320,192,121842,1,0,0:0:0:0:
64,192,121944,1,4,0:0:0:0:
64,192,122148,1,0,0:0:0:0:
320,192,122250,1,4,0:0:0:0:
64,192,122352,1,0,0:0:0:0:
448,192,122454,1,0,0:0:0:0:
192,192,122556,1,0,0:0:0:0:
192,192,122760,1,0,0:0:0:0:
448,192,122862,1,0,0:0:0:0:
320,192,122964,1,0,0:0:0:0:
64,192,123066,1,4,0:0:0:0:
192,192,123066,1,0,0:0:0:0:
448,192,123066,1,0,0:0:0:70:S1.wav
320,192,123168,1,0,0:0:0:0:
64,192,123270,1,0,0:0:0:0:
448,192,123372,1,0,0:0:0:0:
