osu file format v14

[General]
AudioFilename: audio.mp3
AudioLeadIn: 0
PreviewTime: -1
Countdown: 0
SampleSet: None
StackLeniency: 0.4
Mode: 0
LetterboxInBreaks: 0
WidescreenStoryboard: 0

[Editor]
DistanceSpacing: 1.2
BeatDivisor: 4
GridSize: 4
TimelineZoom: 2.3

[Metadata]
Title:Title BGM Loop
TitleUnicode:Title BGM Loop
Artist:Sota Fujimori
ArtistUnicode:Sota Fujimori
Creator:Liiraye
Version:werf
Source:SSC #2
Tags:ssc #2 scandinavian speedmapping contest -PC Arbane Nitroz Sebu Waefwerf YokesPai Keada
BeatmapID:1846960
BeatmapSetID:883548

[Difficulty]
HPDrainRate:6
CircleSize:4.4
OverallDifficulty:8.2
ApproachRate:9.2
SliderMultiplier:2.5
SliderTickRate:1

[Events]
//Background and Video events
0,0,"bg.jpg",0,0
//Break Periods
//Storyboard Layer 0 (Background)
//Storyboard Layer 1 (Fail)
//Storyboard Layer 2 (Pass)
//Storyboard Layer 3 (Foreground)
//Storyboard Sound Samples

[TimingPoints]
761,444.444444444444,4,2,0,70,1,0
761,-66.6666666666667,4,2,0,70,0,0
1205,-100,4,2,0,70,0,0
1427,-66.6666666666667,4,2,0,70,0,0
1873,444.444444444444,4,2,0,70,1,0
4317,-66.6666666666667,4,2,0,70,0,0
4761,-125,4,2,0,70,0,0
4984,-83.3333333333333,4,2,0,70,0,0
5428,-200,4,2,0,70,0,0
5650,-66.6666666666667,4,2,0,70,0,0
5872,-100,4,2,0,70,0,0
6539,-66.6666666666667,4,2,0,70,0,0
6761,-83.3333333333333,4,2,0,70,0,0
8539,-100,4,2,0,70,0,0
10095,-66.6666666666667,4,2,0,70,0,0
10428,-83.3333333333333,4,2,0,70,0,0
11428,-55.5555555555556,4,2,0,70,0,0
11872,-100,4,2,0,70,0,0
12095,-83.3333333333333,4,2,0,70,0,0
12761,-100,4,2,0,70,0,0
13984,-83.3333333333333,4,2,0,70,0,0
14317,-66.6666666666667,4,2,0,70,0,0
14984,-100,4,2,0,70,0,0
15317,-133.333333333333,4,2,0,70,0,0
15539,-50,4,2,0,70,0,0
16095,-100,4,2,0,60,0,0
17317,-66.6666666666667,4,2,0,60,0,0
17650,-100,4,2,0,60,0,0
22428,-66.6666666666667,4,2,0,60,0,0
22650,-100,4,2,0,60,0,0
24984,-66.6666666666667,4,2,0,60,0,0
25206,-71.4285714285714,4,2,0,60,0,0
25428,-76.9230769230769,4,2,0,60,0,0
25650,-125,4,2,0,60,0,0
26095,-100,4,2,0,60,0,0
28539,-66.6666666666667,4,2,0,60,0,0
29206,-200,4,2,0,60,0,0
29872,-55.5555555555556,4,2,0,60,0,0
30317,-83.3333333333333,4,2,0,70,0,0
32761,-66.6666666666667,4,2,0,70,0,0
32984,-83.3333333333333,4,2,0,70,0,0
33872,-200,4,2,0,70,0,0
34095,-66.6666666666667,4,2,0,70,0,0
34317,-100,4,2,0,70,0,0
34539,-83.3333333333333,4,2,0,70,0,0
35650,-83.3333333333333,4,2,0,60,0,0
36539,-83.3333333333333,4,2,0,50,0,0
36984,-100,4,2,0,50,0,0
37872,-100,4,2,0,45,0,0
38317,-100,4,2,0,40,0,0
38761,-100,4,2,0,35,0,0
39206,-100,4,2,0,30,0,0
39650,-100,4,2,0,25,0,0
40095,-100,4,2,0,20,0,0
40539,-100,4,2,0,15,0,0
40984,-100,4,2,0,10,0,0

[HitObjects]
163,148,761,6,8,P|159:174|157:210,2,46.8750017881394,8|8|8,0:3|0:3|0:3,0:3:0:0:
234,75,983,2,4,P|231:35|225:-3,2,62.5000023841859,4|4|4,0:3|0:3|0:3,0:3:0:0:
273,176,1205,2,8,P|308:188|344:188,1,62.5,12|8,0:3|0:3,0:3:0:0:
480,232,1427,6,0,P|349:256|414:330,1,281.250010728837,12|0,1:0|0:0,0:0:0:0:
421,327,1872,6,0,P|360:315|310:327,1,93.7500035762788,0|0,1:0|0:0,0:0:0:0:
232,369,2095,1,2,0:0:0:0:
33,256,2317,2,0,B|75:254|75:254|103:225|103:225|145:223,1,125,8|0,0:0|0:0,0:0:0:0:
226,269,2650,1,0,0:0:0:0:
299,210,2761,2,0,P|309:169|307:128,1,62.5,0|0,1:0|0:0,0:0:0:0:
199,102,2984,2,0,P|201:133|210:163,1,62.5,2|0,0:0|0:0,0:0:0:0:
271,42,3206,1,8,0:0:0:0:
186,1,3317,1,2,0:0:0:0:
113,60,3428,2,0,B|62:75|62:75|8:44,1,93.75
20,48,3650,6,0,P|35:79|37:112,1,62.5,0|0,1:0|0:0,0:0:0:0:
4,257,3872,2,0,P|7:226|22:199,1,62.5,2|0,0:0|0:0,0:0:0:0:
109,164,4095,1,8,0:0:0:0:
277,241,4317,2,2,B|228:250|221:307|221:307|220:250|166:234,1,187.500007152558,2|0,0:0|1:0,0:0:0:0:
92,313,4650,1,0,0:0:0:0:
92,313,4761,2,0,L|142:312,1,50,2|0,0:0|0:0,0:0:0:0:
439,281,4984,2,0,B|341:264|380:327|287:312,1,149.999995422363,8|0,0:0|0:0,0:0:0:0:
299,315,5428,6,0,L|301:277,1,31.25,0|0,1:0|0:0,0:0:0:0:
244,38,5650,2,0,L|239:173,1,93.7500035762788,2|0,0:0|0:0,0:0:0:0:
112,349,5872,6,0,L|116:224,1,125,8|0,0:0|0:0,0:0:0:0:
120,142,6206,1,2,0:0:0:0:
232,248,6317,2,0,L|229:310,1,62.5,0|0,1:0|0:0,0:0:0:0:
305,177,6539,6,0,B|347:170|347:170|396:182,1,93.7500035762788,2|0,0:0|0:0,0:0:0:0:
477,222,6761,1,8,0:0:0:0:
511,138,6872,1,0,0:0:0:0:
452,68,6984,2,0,L|366:65,1,74.9999977111817,2|0,0:0|0:0,0:0:0:0:
246,24,7206,6,0,P|240:60|237:109,1,74.9999977111817,2|0,1:2|0:0,0:0:0:0:
159,237,7428,2,0,P|156:199|150:162,1,74.9999977111817,2|0,0:0|0:0,0:0:0:0:
115,74,7650,1,8,0:0:0:0:
269,187,7872,2,0,B|320:184|320:184|353:148|353:148|404:145,1,149.999995422363,2|0,0:0|1:0,0:0:0:0:
479,206,8206,2,0,P|484:244|480:284,1,74.9999977111817,2|0,0:0|0:0,0:0:0:0:
331,361,8428,1,2,0:0:0:0:
245,298,8539,6,2,B|135:294|201:361|76:360,1,187.5,8|0,0:0|0:0,0:0:0:0:
10,300,8984,6,0,L|13:213,1,62.5,0|0,1:0|0:0,0:0:0:0:
17,80,9206,1,2,0:0:0:0:
189,167,9428,2,0,L|61:163,1,125,8|0,0:0|0:0,0:0:0:0:
236,86,9761,1,2,0:0:0:0:
302,158,9872,2,0,P|305:213|303:230,1,62.5,0|0,1:0|0:0,0:0:0:0:
140,350,10095,2,0,P|182:320|231:309,1,93.7500035762788,2|0,0:0|0:0,0:0:0:0:
378,362,10317,1,8,0:0:0:0:
442,270,10428,2,0,B|443:215|443:215|417:178|417:178|419:124,1,149.999995422363,2|0,0:0|0:0,0:0:0:0:
462,34,10761,6,0,P|423:33|379:47,1,74.9999977111817,2|0,1:2|0:0,0:0:0:0:
303,164,10984,2,0,P|265:165|229:155,1,74.9999977111817,2|0,0:0|0:0,0:0:0:0:
185,59,11206,1,8,0:0:0:0:
29,183,11428,6,2,P|136:120|110:271,1,337.499989700318,2|0,0:0|0:0,0:0:0:0:
33,275,11872,2,0,L|42:337,1,62.5
176,349,12095,6,0,B|318:364|258:262|384:279,1,224.999993133545,8|0,0:0|0:0,0:0:0:0:
377,278,12761,6,0,L|419:282,2,41.6666666666667,2|2|2,0:0|0:0|0:0,0:0:0:0:
410,186,12984,2,0,L|448:168,2,41.6666666666667,10|2|2,0:0|0:0|0:0,0:0:0:0:
392,89,13206,2,0,L|416:54,2,41.6666666666667,2|2|2,0:0|0:0|0:0,0:0:0:0:
327,13,13428,1,2,1:2:0:0:
302,15,13502,1,2,0:0:0:0:
277,18,13576,1,2,0:0:0:0:
252,21,13650,2,0,P|245:67|252:100,1,62.5,2|0,0:0|0:0,0:0:0:0:
319,227,13872,1,8,0:0:0:0:
239,177,13984,2,0,L|147:188,1,74.9999977111817,2|0,0:0|0:0,0:0:0:0:
164,185,14317,6,0,P|156:234|154:285,1,93.7500035762788,6|0,1:2|0:0,0:0:0:0:
329,319,14539,2,0,P|326:272|318:226,1,93.7500035762788,2|0,0:0|0:0,0:0:0:0:
248,76,14761,1,8,0:0:0:0:
461,77,14984,6,0,L|316:77,1,125,2|0,1:2|0:0,0:0:0:0:
257,30,15317,2,0,P|249:53|250:93,1,46.8750017881394,2|0,0:0|0:0,0:0:0:0:
443,294,15539,1,2,0:0:0:0:
443,294,15650,6,0,P|371:364|397:202,1,375,8|0,0:0|0:0,0:0:0:0:
431,207,16095,5,0,1:0:0:0:
436,132,16206,1,0,0:0:0:0:
441,57,16317,1,2,0:0:0:0:
273,17,16539,1,8,0:0:0:0:
286,198,16761,1,0,0:0:0:0:
248,192,16872,1,2,0:0:0:0:
189,113,16984,5,0,1:0:0:0:
151,119,17095,2,0,L|153:182,1,62.5,2|0,0:0|0:0,0:0:0:0:
87,349,17317,2,0,L|90:251,1,93.7500035762788,2|8,0:0|0:0,0:0:0:0:
7,82,17539,1,0,0:0:0:0:
31,110,17650,2,0,B|92:132|92:132|171:114,1,125,2|0,0:0|1:0,0:0:0:0:
242,37,17984,5,0,0:0:0:0:
304,93,18095,2,0,B|308:123|308:123|305:156,1,62.5,2|0,0:0|0:0,0:0:0:0:
216,252,18317,2,0,B|213:220|213:220|217:189,1,62.5,8|0,0:0|0:0,0:0:0:0:
397,245,18539,1,0,0:0:0:0:
428,247,18650,1,0,0:0:0:0:
459,249,18761,5,0,1:0:0:0:
384,196,18872,1,2,0:0:0:0:
374,287,18984,2,0,L|369:350,1,62.5
223,174,19206,5,8,0:0:0:0:
308,136,19317,1,0,0:0:0:0:
298,227,19428,1,2,0:0:0:0:
58,93,19650,5,0,1:0:0:0:
134,85,19761,1,0,0:0:0:0:
210,77,19872,1,2,0:0:0:0:
385,231,20095,2,0,L|243:217,1,125,8|0,0:0|0:0,0:0:0:0:
194,171,20428,1,2,0:0:0:0:
182,250,20539,5,0,1:0:0:0:
132,122,20650,2,0,P|132:85|136:51,1,62.5,2|0,0:0|0:0,0:0:0:0:
269,142,20872,2,0,P|271:173|271:204,1,62.5,2|8,0:0|0:0,0:0:0:0:
125,343,21095,1,0,0:0:0:0:
185,283,21206,2,0,B|252:274|239:312|307:305,1,125,2|0,0:0|1:0,0:0:0:0:
396,342,21539,5,2,0:0:0:0:
472,281,21650,2,0,P|479:247|478:207,1,62.5,2|0,0:0|0:0,0:0:0:0:
351,142,21872,2,0,P|351:173|358:203,1,62.5,8|0,0:0|0:0,0:0:0:0:
418,45,22095,1,0,0:0:0:0:
418,45,22206,2,0,L|353:41,1,62.5,2|0,0:0|1:0,0:0:0:0:
185,150,22428,2,0,L|282:144,1,93.7500035762788,2|0,0:0|0:0,0:0:0:0:
426,39,22650,2,0,L|361:35,1,62.5,2|8,0:0|0:0,0:0:0:0:
180,157,22872,1,0,0:0:0:0:
113,101,22984,2,0,L|113:53,3,41.6666666666667,2|2|2|0,0:0|0:0|0:0|1:0,0:0:0:0:
63,171,23317,5,0,0:0:0:0:
114,242,23428,2,0,P|161:253|208:253,1,62.5,2|0,0:0|0:0,0:0:0:0:
179,68,23650,2,0,P|236:52|305:50,1,125,8|0,0:0|0:0,0:0:0:0:
367,129,23984,1,0,0:0:0:0:
470,89,24095,1,0,1:0:0:0:
469,127,24206,2,0,L|466:195,1,62.5,2|0,0:0|0:0,0:0:0:0:
377,321,24428,2,0,L|374:253,1,62.5,2|8,0:0|0:0,0:0:0:0:
268,165,24650,1,0,0:0:0:0:
244,193,24761,2,0,B|211:204|211:204|175:202,1,62.5
101,18,24984,6,0,P|116:65|119:123,1,93.7500035762788,4|0,1:2|0:0,0:0:0:0:
239,24,25206,2,0,P|237:73|220:128,1,87.499997329712,2|0,0:0|0:0,0:0:0:0:
376,57,25428,2,0,P|365:105|339:156,1,81.2499962806703,10|0,0:0|0:0,0:0:0:0:
505,200,25650,6,0,P|463:227|417:247,1,100,2|0,0:0|1:0,0:0:0:0:
331,213,25984,1,2,0:0:0:0:
286,296,26095,2,0,L|288:369,1,62.5,2|0,0:0|0:0,0:0:0:0:
142,237,26317,1,8,0:0:0:0:
180,308,26428,1,0,0:0:0:0:
222,239,26539,1,2,0:0:0:0:
222,239,26872,5,0,0:0:0:0:
95,300,26984,2,0,L|53:304,2,41.6666666666667,2|2|2,0:0|0:0|0:0,0:0:0:0:
62,208,27207,2,0,L|24:190,2,41.6666666666667,10|2|2,0:0|0:0|0:0,0:0:0:0:
80,111,27429,2,0,L|56:76,2,41.6666666666667,2|2|2,0:0|0:0|0:0,0:0:0:0:
145,35,27651,1,2,1:2:0:0:
170,37,27725,1,2,0:0:0:0:
195,40,27799,1,2,0:0:0:0:
220,43,27872,2,0,P|227:89|220:122,1,62.5,2|0,0:0|0:0,0:0:0:0:
138,234,28095,2,0,P|136:202|143:172,1,62.5,8|0,0:0|0:0,0:0:0:0:
346,46,28317,1,0,0:0:0:0:
383,50,28428,1,0,0:0:0:0:
420,55,28539,6,0,P|425:114|423:169,1,93.7500035762788,6|0,1:2|0:0,0:0:0:0:
257,366,28761,2,0,P|262:307|260:252,1,93.7500035762788,2|0,0:0|0:0,0:0:0:0:
105,23,28984,2,0,P|100:82|102:137,1,93.7500035762788,8|0,0:0|0:0,0:0:0:0:
47,319,29206,5,0,1:0:0:0:
47,319,29317,2,0,L|92:324,1,31.25,2|0,0:0|0:0,0:0:0:0:
107,231,29539,2,0,L|75:227,1,31.25,2|0,0:0|0:0,0:0:0:0:
47,319,29761,1,2,0:0:0:0:
185,300,29872,2,0,P|277:370|236:220,1,337.499989700318,8|0,0:0|0:0,0:0:0:0:
197,218,30317,6,0,P|183:177|182:130,1,74.9999977111817,0|0,1:0|0:0,0:0:0:0:
186,38,30539,1,2,0:0:0:0:
296,148,30761,2,0,B|347:149|347:149|382:116|382:116|433:118,1,149.999995422363,8|0,0:0|0:0,0:0:0:0:
495,184,31095,1,2,0:0:0:0:
440,255,31206,2,0,P|387:263|355:257,1,74.9999977111817,0|0,1:0|0:0,0:0:0:0:
315,71,31428,2,0,P|262:63|230:69,1,74.9999977111817,2|0,0:0|0:0,0:0:0:0:
193,199,31650,1,8,0:0:0:0:
107,225,31761,1,2,0:0:0:0:
29,179,31872,2,0,P|21:125|32:67,1,112.499996566773
19,60,32095,6,0,P|62:74|101:75,1,74.9999977111817,2|0,1:2|0:0,0:0:0:0:
282,12,32317,2,0,P|244:15|209:27,1,74.9999977111817,2|0,0:0|0:0,0:0:0:0:
191,153,32539,1,8,0:0:0:0:
354,92,32761,2,0,B|350:157|350:157|391:203|391:203|388:268,1,187.500007152558,2|0,0:0|1:0,0:0:0:0:
338,339,33095,1,0,0:0:0:0:
428,344,33206,2,0,L|505:350,1,74.9999977111817,2|0,0:0|0:0,0:0:0:0:
245,321,33428,2,0,B|158:314|198:375|100:360,1,149.999995422363,8|0,0:0|0:0,0:0:0:0:
107,361,33872,6,0,L|138:358,1,31.25,0|0,1:0|0:0,0:0:0:0:
324,214,34095,2,0,L|230:220,1,93.7500035762788,2|0,0:0|0:0,0:0:0:0:
44,96,34317,2,0,L|168:87,1,125,8|0,0:0|0:0,0:0:0:0:
250,50,34650,1,2,0:0:0:0:
312,114,34761,2,0,P|321:165|320:190,1,74.9999977111817,0|0,1:0|0:0,0:0:0:0:
161,298,34984,2,0,P|161:260|169:223,1,74.9999977111817,2|0,0:0|0:0,0:0:0:0:
309,281,35206,1,8,0:0:0:0:
390,318,35317,1,0,0:0:0:0:
457,258,35428,2,0,L|455:181,1,74.9999977111817,2|0,0:0|0:0,0:0:0:0:
466,24,35650,6,0,P|425:28|376:44,1,74.9999977111817,2|0,1:2|0:0,0:0:0:0:
221,85,35872,2,0,P|262:89|311:105,1,74.9999977111817,2|0,0:0|0:0,0:0:0:0:
400,163,36095,1,8,0:0:0:0:
210,281,36317,2,0,B|262:285|262:285|294:323|294:323|346:328,1,149.999995422363,2|0,0:0|1:0,0:0:0:0:
427,247,36650,2,0,L|333:238,1,74.9999977111817,2|0,0:0|0:0,0:0:0:0:
144,345,36872,1,2,0:0:0:0:
68,263,36984,2,0,B|42:155|129:185|106:67,1,187.499994277954,8|0,0:0|0:0,0:0:0:0:
80,4,37428,5,0,1:0:0:0:
256,192,37539,12,0,40984,0:0:0:0:
