osu file format v14

[General]
AudioFilename: audio.mp3
AudioLeadIn: 0
PreviewTime: -1
Countdown: 0
SampleSet: None
StackLeniency: 0.2
Mode: 0
LetterboxInBreaks: 0
WidescreenStoryboard: 0

[Editor]
DistanceSpacing: 1.8
BeatDivisor: 4
GridSize: 32
TimelineZoom: 2.1

[Metadata]
Title:Title BGM Loop
TitleUnicode:Title BGM Loop
Artist:Sota Fujimori
ArtistUnicode:Sota Fujimori
Creator:Liiraye
Version:arbane
Source:SSC #2
Tags:ssc #2 scandinavian speedmapping contest -PC Arbane Nitroz Sebu Waefwerf YokesPai Keada
BeatmapID:1846955
BeatmapSetID:883548

[Difficulty]
HPDrainRate:8
CircleSize:5
OverallDifficulty:8
ApproachRate:9
SliderMultiplier:2.1
SliderTickRate:1

[Events]
//Background and Video events
0,0,"ki22qxacxmmz.png",0,0
//Break Periods
//Storyboard Layer 0 (Background)
//Storyboard Layer 1 (Fail)
//Storyboard Layer 2 (Pass)
//Storyboard Layer 3 (Foreground)
//Storyboard Sound Samples

[TimingPoints]
761,444.444444444444,4,2,0,50,1,0
1873,444.444444444444,4,2,0,50,1,0
1984,-66.6666666666667,4,2,0,50,0,0
2317,-100,4,2,0,50,0,0
3428,-66.6666666666667,4,2,0,50,0,0
3872,-80,4,2,0,50,0,0
4095,-100,4,2,0,50,0,0
4984,-66.6666666666667,4,2,0,50,0,0
5539,-57.1428571428571,4,2,0,50,0,0
6317,-100,4,2,0,50,0,0
6984,-66.6666666666667,4,2,0,50,0,0
7428,-80,4,2,0,50,0,0
7650,-100,4,2,0,50,0,0
8539,-200,4,2,0,50,0,0
8984,-66.6666666666667,4,2,0,50,0,0
9428,-57.1428571428571,4,2,0,50,0,0
10317,-100,4,2,0,50,0,0
10539,-66.6666666666667,4,2,0,50,0,0
10984,-80,4,2,0,50,0,0
11206,-100,4,2,0,50,0,0
12095,-66.6666666666667,4,2,0,50,0,0
12761,-100,4,2,0,50,0,0
14317,-66.6666666666667,4,2,0,50,0,0
16095,-133.333333333333,4,2,0,50,0,0
26872,-100,4,2,0,50,0,0
28539,-66.6666666666667,4,2,0,50,0,0
30761,-100,4,2,0,50,0,0
31872,-66.6666666666667,4,2,0,50,0,0
32317,-80,4,2,0,50,0,0
32539,-100,4,2,0,50,0,0
33428,-66.6666666666667,4,2,0,50,0,0
33984,-57.1428571428571,4,2,0,50,0,0
34872,-100,4,2,0,50,0,0
35428,-66.6666666666667,4,2,0,50,0,0
35872,-80,4,2,0,50,0,0
36095,-100,4,2,0,50,0,0
36984,-200,4,2,0,50,0,0
44539,-200,4,2,0,5,0,0

[HitObjects]
20,296,761,6,0,P|16:275|5:263,3,26.25,4|4|4|4,0:3|0:3|0:3|0:3,0:0:0:0:
104,298,983,6,0,L|94:343,2,35,0|0|0,1:0|1:0|1:0,1:0:0:0:
177,261,1205,5,4,0:3:0:0:
216,331,1316,1,8,0:3:0:0:
256,192,1427,5,12,1:0:0:0:
89,56,1873,5,4,1:0:0:0:
11,80,1984,2,2,B|40:121|78:55|96:58|110:133|151:104,1,157.500006008148,2|0,0:0|0:0,0:1:0:0:
148,210,2317,6,0,P|160:187|183:176,1,52.5,8|0,1:0|0:0,0:0:0:0:
213,52,2539,2,0,L|237:112,1,52.5,2|0,0:1|0:0,0:0:0:0:
273,179,2761,5,0,1:0:0:0:
290,190,2872,1,2,0:0:0:0:
344,148,2984,5,2,0:1:0:0:
321,251,3095,1,2,0:0:0:0:
373,208,3206,6,0,P|403:197|427:204,1,52.5,8|0,1:0|0:0,0:0:0:0:
501,121,3428,2,2,L|405:110,1,78.7500030040742,0|0,0:0|0:0,0:1:0:0:
268,90,3650,6,2,P|271:50|284:14,1,78.7500030040742,0|0,1:0|0:0,0:1:0:0:
171,66,3872,6,2,P|176:98|188:129,1,65.625,0|0,0:0|0:0,0:1:0:0:
133,198,4095,6,2,P|113:180|97:159,1,52.5,8|0,1:0|0:0,0:1:0:0:
28,190,4317,6,2,L|153:199,1,105,0|0,0:0|1:0,0:1:0:0:
190,233,4650,1,2,0:0:0:0:
130,266,4761,2,0,P|115:292|119:325,1,52.5
4,210,4984,6,2,L|160:173,1,157.500006008148,8|0,1:0|0:0,0:1:0:0:
157,174,5428,5,0,1:0:0:0:
95,115,5539,2,2,B|118:110|134:92|134:92|182:82|218:114|218:114|223:138|241:154,1,183.750001752377,0|0,0:0|0:0,0:1:0:0:
351,166,5872,5,8,1:0:0:0:
289,225,5983,2,2,B|312:229|328:247|328:247|376:257|412:225|412:225|417:201|435:185,1,183.750001752377,0|0,0:0|0:0,0:1:0:0:
487,239,6317,5,0,1:0:0:0:
483,132,6428,2,0,P|490:105|512:82,2,52.5
418,159,6761,6,0,P|393:144|362:144,1,52.5,8|0,1:0|0:0,0:0:0:0:
290,86,6984,2,0,L|198:100,1,78.7500030040742
65,168,7206,6,2,P|103:170|129:198,1,78.7500030040742,0|0,1:0|0:0,0:1:0:0:
212,97,7428,6,2,P|195:124|166:137,1,65.625,0|0,1:0|0:0,0:1:0:0:
218,249,7650,6,2,P|203:227|201:201,1,52.5,0|0,1:0|0:0,0:1:0:0:
305,218,7872,6,2,L|201:201,1,105,0|0,0:0|1:0,0:1:0:0:
142,245,8206,1,2,0:0:0:0:
170,313,8317,2,0,P|195:327|241:311,1,52.5
293,204,8539,6,2,L|193:219,1,78.7500030040742,8|0,1:0|0:0,0:1:0:0:
375,226,8984,5,0,1:0:0:0:
453,250,9095,2,2,B|424:291|386:225|368:228|354:303|313:274,1,157.500006008148,2|0,0:0|0:0,0:1:0:0:
255,346,9428,2,2,B|236:329|232:306|232:306|195:274|148:283|148:283|132:301|108:306,1,183.750001752377,8|0,1:0|0:0,0:1:0:0:
88,232,9761,1,0,0:0:0:0:
152,191,9872,5,0,1:0:0:0:
169,202,9983,1,2,0:0:0:0:
223,160,10095,5,2,0:1:0:0:
200,263,10206,1,2,0:0:0:0:
257,223,10317,6,0,P|287:212|311:219,1,52.5,8|0,1:0|0:0,0:0:0:0:
389,111,10539,2,2,L|378:207,1,78.7500030040742,0|0,0:0|0:0,0:1:0:0:
407,357,10761,6,2,P|430:324|443:288,1,78.7500030040742,0|0,1:0|0:0,0:1:0:0:
347,277,10984,6,2,P|348:244|342:212,1,65.625,2|0,0:0|0:0,0:1:0:0:
252,244,11206,6,2,P|238:221|220:202,1,52.5,8|0,1:0|0:0,0:1:0:0:
147,251,11428,6,2,L|280:241,1,105,0|0,0:0|1:0,0:1:0:0:
311,280,11761,1,2,0:0:0:0:
251,313,11872,2,0,P|236:339|240:372,1,52.5
96,214,12095,6,2,L|276:247,1,157.500006008148,8|0,1:0|0:0,0:1:0:0:
250,242,12650,5,0,0:0:0:0:
250,242,12761,2,2,P|264:237|263:252,2,35
245,339,12984,6,2,P|241:354|228:344,2,35,8|2|2,1:0|0:0|0:0,0:0:0:0:
162,287,13206,6,2,P|150:276|164:270,2,35
84,265,13428,6,0,L|36:257,4,26.25,0|0|0|0|0,1:0|0:0|0:0|0:0|0:0,0:0:0:0:
129,209,13761,1,0,0:0:0:0:
71,137,13872,5,8,1:0:0:0:
146,194,13984,2,0,L|216:184,1,52.5
197,186,14317,6,2,P|274:90|285:212,1,315.000012016297,4|8,1:0|1:0,0:0:0:0:
0,323,14984,2,2,P|153:253|304:314,1,315.000012016297,4|0,1:0|0:0,0:0:0:0:
301,366,15539,1,0,0:0:0:0:
344,256,15650,6,2,B|323:204|323:204|416:287|416:287|395:235,1,236.250009012223,2|0,0:1|0:0,0:1:0:0:
476,153,16095,5,4,1:0:0:0:
452,184,16206,1,0,0:0:0:0:
471,218,16317,2,0,P|484:228|511:226,1,39.3750015020371
344,256,16539,5,8,1:0:0:0:
412,298,16761,1,0,0:0:0:0:
408,287,16872,1,0,0:0:0:0:
344,256,16984,5,0,1:0:0:0:
296,307,17095,2,0,L|344:331,1,39.3750015020371,2|0,0:3|0:0,0:0:0:0:
218,268,17317,2,0,L|215:228,1,39.3750015020371,2|8,0:3|1:0,0:0:0:0:
145,316,17539,2,0,L|100:345,1,39.3750015020371,2|0,0:3|0:0,0:0:0:0:
36,153,17872,5,0,1:0:0:0:
60,184,17983,1,0,0:0:0:0:
41,218,18094,2,0,P|28:228|1:226,1,39.3750015020371
145,316,18317,5,8,1:0:0:0:
111,245,18539,1,0,0:0:0:0:
107,256,18650,1,0,0:0:0:0:
145,316,18761,5,0,1:0:0:0:
211,292,18872,1,2,0:0:0:0:
249,351,18984,2,0,L|299:344,1,39.3750015020371
432,267,19206,5,8,1:0:0:0:
453,203,19317,1,2,0:0:0:0:
416,258,19428,1,0,0:0:0:0:
304,123,19650,5,0,1:0:0:0:
342,114,19761,1,0,0:0:0:0:
365,145,19872,2,0,P|368:161|355:184,1,39.3750015020371
463,63,20095,5,8,1:0:0:0:
501,130,20317,1,0,0:0:0:0:
505,119,20428,1,0,0:0:0:0:
463,63,20539,5,0,1:0:0:0:
401,98,20650,2,0,L|413:168,1,39.3750015020371,2|0,0:0|0:0,0:0:0:0:
301,111,20872,2,0,P|328:120|338:147,1,39.3750015020371,2|8,0:0|1:0,0:0:0:0:
241,184,21095,2,0,P|235:156|253:133,1,39.3750015020371,2|0,0:0|0:0,0:0:0:0:
36,153,21428,5,0,1:0:0:0:
60,184,21539,1,0,0:0:0:0:
41,218,21650,2,0,P|28:228|1:226,1,39.3750015020371
136,301,21872,5,8,1:0:0:0:
252,260,22095,1,0,0:0:0:0:
207,319,22206,2,0,L|254:337,1,39.3750015020371,2|0,0:3|1:0,0:0:0:0:
360,261,22428,2,0,L|313:279,1,39.3750015020371,2|0,0:3|0:0,0:0:0:0:
207,203,22650,2,0,L|254:221,1,39.3750015020371,2|0,0:3|1:0,0:0:0:0:
323,159,22872,6,0,L|360:145,2,39.3750015020371,0|0|0,0:3|0:0|0:0,0:0:0:0:
243,129,23206,5,0,1:0:0:0:
219,98,23317,1,0,0:0:0:0:
238,64,23428,2,0,P|251:54|278:56,1,39.3750015020371
258,213,23650,5,8,1:0:0:0:
186,185,23872,1,0,0:0:0:0:
197,181,23983,1,0,0:0:0:0:
258,213,24095,5,0,1:0:0:0:
209,263,24206,2,0,L|155:252,1,39.3750015020371,2|0,0:3|0:0,0:0:0:0:
255,346,24428,2,0,L|262:307,1,39.3750015020371,2|8,0:3|1:0,0:0:0:0:
367,292,24650,2,0,L|329:285,1,39.3750015020371,2|0,0:3|0:0,0:0:0:0:
257,105,24984,5,0,1:0:0:0:
288,81,25095,1,0,0:0:0:0:
322,100,25206,2,0,P|332:113|330:140,1,39.3750015020371
188,113,25428,5,8,1:0:0:0:
210,39,25650,1,0,0:0:0:0:
214,50,25761,1,0,0:0:0:0:
188,113,25872,5,0,1:0:0:0:
122,89,25983,1,2,0:0:0:0:
84,148,26095,2,0,L|137:165,1,39.3750015020371
268,147,26317,5,8,1:0:0:0:
289,83,26428,1,2,0:0:0:0:
252,138,26539,1,0,0:0:0:0:
351,327,26872,5,0,0:0:0:0:
351,327,26983,2,2,P|365:332|364:317,2,35
346,230,27206,6,2,P|342:215|329:225,2,35,8|2|2,1:0|0:0|0:0,0:0:0:0:
263,282,27428,6,2,P|251:293|265:299,2,35
184,296,27650,6,0,L|135:299,4,26.25,0|0|0|0|0,1:0|0:0|0:0|0:0|0:0,0:0:0:0:
214,231,27983,1,0,0:0:0:0:
141,174,28094,5,8,1:0:0:0:
227,212,28206,2,0,L|292:186,1,52.5
275,193,28539,6,2,P|271:97|144:181,1,315.000012016297,4|8,1:0|1:0,0:0:0:0:
406,306,29206,2,0,B|224:377|307:193|91:274,1,315.000012016297,4|0,1:0|0:0,0:0:0:0:
87,327,29761,1,0,0:0:0:0:
83,206,29872,6,2,B|110:148|110:148|3:134|3:134|15:198,1,236.250009012223,2|0,0:1|0:0,0:1:0:0:
87,327,30317,5,4,1:0:0:0:
9,303,30428,2,2,B|38:262|76:328|94:325|108:250|149:279,1,157.500006008148,2|0,0:0|0:0,0:1:0:0:
146,173,30761,6,0,P|158:196|181:207,1,52.5,8|0,1:0|0:0,0:0:0:0:
211,331,30983,2,0,L|235:271,1,52.5,2|0,0:1|0:0,0:0:0:0:
271,204,31205,5,0,1:0:0:0:
288,193,31316,1,2,0:0:0:0:
342,235,31428,5,2,0:1:0:0:
319,132,31539,1,2,0:0:0:0:
371,175,31650,6,0,P|401:186|425:179,1,52.5,8|0,1:0|0:0,0:0:0:0:
499,262,31872,2,2,L|403:273,1,78.7500030040742,0|0,0:0|0:0,0:1:0:0:
266,293,32094,6,2,P|269:333|282:369,1,78.7500030040742,0|0,1:0|0:0,0:1:0:0:
169,317,32317,6,2,P|174:285|186:254,1,65.625,0|0,0:0|0:0,0:1:0:0:
131,185,32539,6,2,P|111:203|95:224,1,52.5,8|0,1:0|0:0,0:1:0:0:
26,193,32761,6,2,L|151:184,1,105,0|0,0:0|1:0,0:1:0:0:
188,150,33094,1,2,0:0:0:0:
128,117,33205,2,0,P|113:91|117:58,1,52.5
1,172,33428,6,2,L|157:209,1,157.500006008148,8|0,1:0|0:0,0:1:0:0:
154,208,33872,5,0,1:0:0:0:
93,268,33984,2,2,B|116:273|132:291|132:291|180:301|216:269|216:269|221:245|239:229,1,183.750001752377,0|0,0:0|0:0,0:1:0:0:
349,217,34316,5,8,1:0:0:0:
287,158,34427,2,2,B|310:154|326:136|326:136|374:126|410:158|410:158|415:182|433:198,1,183.750001752377,0|0,0:0|0:0,0:1:0:0:
485,144,34761,5,0,1:0:0:0:
481,251,34872,2,0,P|488:278|510:301,2,52.5
416,224,35205,6,0,P|391:239|360:239,1,52.5,8|0,1:0|0:0,0:0:0:0:
288,297,35428,2,0,L|196:283,1,78.7500030040742
63,215,35650,6,2,P|101:213|127:185,1,78.7500030040742,0|0,1:0|0:0,0:1:0:0:
210,286,35872,6,2,P|193:259|164:246,1,65.625,0|0,1:0|0:0,0:1:0:0:
216,134,36095,6,2,P|201:156|199:182,1,52.5,0|0,1:0|0:0,0:1:0:0:
303,165,36316,6,2,L|199:182,1,105,0|0,0:0|1:0,0:1:0:0:
140,138,36650,1,2,0:0:0:0:
168,70,36761,2,0,P|193:56|239:72,1,52.5
303,197,36984,6,2,L|197:181,1,105,8|0,1:0|1:0,0:1:0:0:
256,192,37539,12,0,44539,0:0:0:0:
