osu file format v14

[General]
AudioFilename: audio.mp3
AudioLeadIn: 0
PreviewTime: -1
Countdown: 0
SampleSet: None
StackLeniency: 0.7
Mode: 0
LetterboxInBreaks: 0
WidescreenStoryboard: 0

[Editor]
DistanceSpacing: 1.7
BeatDivisor: 4
GridSize: 32
TimelineZoom: 2.7

[Metadata]
Title:Title BGM Loop
TitleUnicode:Title BGM Loop
Artist:Sota Fujimori
ArtistUnicode:Sota Fujimori
Creator:Liiraye
Version:Sebu's Arbane
Source:SSC #2
Tags:ssc #2 scandinavian speedmapping contest -PC Arbane Nitroz Sebu Waefwerf YokesPai Keada
BeatmapID:1846959
BeatmapSetID:883548

[Difficulty]
HPDrainRate:5
CircleSize:4.1
OverallDifficulty:5
ApproachRate:9.4
SliderMultiplier:1.4
SliderTickRate:1

[Events]
//Background and Video events
//Break Periods
//Storyboard Layer 0 (Background)
//Storyboard Layer 1 (Fail)
//Storyboard Layer 2 (Pass)
//Storyboard Layer 3 (Foreground)
//Storyboard Sound Samples

[TimingPoints]
761,444.444444444444,4,2,0,100,1,0
761,-40,4,2,0,100,0,0
1205,-50,4,2,0,100,0,0
1427,-33.3333333333333,4,2,0,100,0,0
1873,444.444444444444,4,2,0,100,1,0
2317,-200,4,2,0,100,0,0
2539,-100,4,2,0,100,0,0
2984,-40,4,2,0,100,0,0
3206,-100,4,2,0,100,0,0
3650,-40,4,2,0,100,0,0
4095,-25,4,2,0,100,0,0
4539,-100,4,2,0,100,0,0
4984,-33.3333333333333,4,2,0,100,0,0
5428,-100,4,2,0,100,0,0
5650,-40,4,2,0,100,0,0
5872,-100,4,2,0,100,0,0
5984,-40,4,2,0,100,0,0
6317,-100,4,2,0,100,0,0
6539,-33.3333333333333,4,2,0,100,0,0
6761,-100,4,2,0,100,0,0
6984,-25,4,2,0,100,0,0
7206,-50,4,2,0,100,0,0
7650,-50,4,2,0,100,0,0
8095,-100,4,2,0,100,0,0
8539,-50,4,2,0,100,0,0
9428,-25,4,2,0,100,0,0
10095,-33.3333333333333,4,2,0,100,0,0
10317,-100,4,2,0,100,0,0
10761,-25,4,2,0,100,0,0
11206,-50,4,2,0,100,0,0
11428,-50,4,2,0,100,0,0
12095,-28.5714285714286,4,2,0,100,0,0
13428,-100,4,2,0,100,0,0
14317,-40,4,2,0,100,0,0
14761,-100,4,2,0,100,0,0
14984,-33.3333333333333,4,2,0,100,0,0
15650,-25,4,2,0,100,0,0
16095,-100,4,2,0,100,0,0
22206,-50,4,2,0,100,0,0
22650,-100,4,2,0,100,0,0
24984,-200,4,2,0,100,0,0
25206,-100,4,2,0,100,0,0
25428,-50,4,2,0,100,0,0
26539,-100,4,2,0,100,0,0
27650,-200,4,2,0,100,0,0
28095,-100,4,2,0,100,0,0
28539,-200,4,2,0,100,0,0
28761,-100,4,2,0,100,0,0
28872,-50,4,2,0,100,0,0
29872,-25,4,2,0,100,0,0
30317,-100,4,2,0,100,0,0
30761,-33.3333333333333,4,2,0,100,0,0
31650,-100,4,2,0,100,0,0
32095,-25,4,2,0,100,0,0
32761,-50,4,2,0,100,0,0
33428,-28.5714285714286,4,2,0,100,0,0
33872,-100,4,2,0,100,0,0
33984,-40,4,2,0,100,0,0
34206,-100,4,2,0,100,0,0
34539,-40,4,2,0,100,0,0
34761,-100,4,2,0,100,0,0
34872,-33.3333333333333,4,2,0,100,0,0
35095,-100,4,2,0,100,0,0
35317,-33.3333333333333,4,2,0,100,0,0
35650,-50,4,2,0,100,0,0
36317,-500,4,2,0,100,0,0
36984,-285.714285714286,4,2,0,100,0,0

[HitObjects]
384,86,761,6,0,B|363:85|363:85|342:51,3,43.75
432,34,983,5,0,0:0:0:0:
463,37,1057,5,0,0:0:0:0:
490,85,1131,5,0,0:0:0:0:
463,160,1205,6,0,L|382:173,1,70
294,348,1427,6,0,L|318:131,2,210
210,257,1984,1,0,0:0:0:0:
228,182,2095,2,0,L|275:198,1,35
461,356,2317,6,0,L|508:340,1,35
437,163,2650,1,0,0:0:0:0:
480,100,2761,2,0,L|464:53,1,35
381,74,2984,6,0,L|278:52,1,87.5
34,12,3206,6,0,L|27:59,1,35
83,99,3428,2,0,L|90:146,1,35
42,198,3650,6,0,L|22:327,1,131.25
30,324,3872,2,0,L|50:195,1,131.25
125,233,4095,6,0,B|263:195|213:386|386:336,1,280
469,263,4428,5,0,0:0:0:0:
512,326,4539,2,0,L|496:373,1,35
327,254,4761,2,0,L|343:207,1,35
470,42,4984,6,0,P|435:171|284:126,1,315.000012016297
305,42,5428,6,0,L|368:51,1,35
367,63,5650,2,0,L|218:49,1,87.5
139,54,5872,6,0,L|202:63,1,35
201,75,6095,2,0,L|82:64,1,87.5
0,121,6317,6,0,L|63:130,1,35
67,132,6539,6,0,B|82:235,1,105.000004005432
94,337,6761,6,0,L|157:328,1,35
158,330,6984,2,0,B|228:314|219:394|281:383,1,140
305,257,7206,6,0,L|327:113,1,105.000004005432
316,145,7428,2,0,L|301:249,1,105.000004005432
420,364,7650,6,0,P|358:317|420:307,1,140
512,358,7984,5,0,0:0:0:0:
469,295,8095,2,0,L|485:248,1,35
407,230,8317,2,0,L|395:196,1,35
467,52,8539,6,0,L|480:267,1,210
400,335,8984,5,0,0:0:0:0:
269,144,9095,2,0,L|339:136,1,70
394,75,9317,1,0,0:0:0:0:
394,75,9428,6,0,B|196:-26|253:328|24:198,1,420
65,69,9872,1,0,0:0:0:0:
65,69,9984,1,0,0:0:0:0:
186,73,10095,6,0,L|173:189,1,105.000004005432
271,251,10317,6,0,L|334:242,1,35
361,191,10539,2,0,L|424:200,1,35
475,266,10761,6,0,L|503:42,1,210
511,55,10984,2,0,L|484:263,1,210
512,333,11206,5,0,0:0:0:0:
361,191,11428,6,0,L|273:201,1,70
165,281,11650,5,0,0:0:0:0:
135,245,11761,1,0,0:0:0:0:
163,196,11872,1,0,0:0:0:0:
234,215,11984,1,0,0:0:0:0:
225,334,12095,6,0,B|218:397|341:439|414:393|328:218|464:203|495:280,1,367.500003504753
472,279,12650,1,0,0:0:0:0:
484,263,12761,5,0,0:0:0:0:
460,229,12835,1,0,0:0:0:0:
459,187,12910,1,0,0:0:0:0:
490,160,12984,1,0,0:0:0:0:
499,120,13058,1,0,0:0:0:0:
478,84,13132,1,0,0:0:0:0:
438,73,13206,1,0,0:0:0:0:
403,94,13280,1,0,0:0:0:0:
374,165,13354,5,0,0:0:0:0:
353,172,13428,6,0,L|346:198,6,17.5
319,63,13872,6,0,L|276:58,1,35
48,33,14095,1,0,0:0:0:0:
200,251,14317,6,0,L|225:95,1,131.25
229,119,14539,2,0,L|209:249,1,131.25
98,148,14761,6,0,L|55:143,1,35
37,256,14984,6,0,B|157:208|97:399|272:303,1,210.000008010865
302,228,15317,1,0,0:0:0:0:
293,303,15428,1,0,0:0:0:0:
369,362,15539,1,0,0:0:0:0:
467,313,15650,6,0,B|520:237|484:110|369:110|369:174|369:174|369:239|500:242|465:73,1,420
509,44,16095,6,0,L|446:53,1,35
283,77,16317,2,0,L|249:73,1,35
199,11,16539,6,0,L|165:16,1,35
325,5,16761,5,0,0:0:0:0:
325,5,16872,1,0,0:0:0:0:
284,78,16984,5,0,0:0:0:0:
318,144,17095,1,0,0:0:0:0:
233,181,17206,5,0,0:0:0:0:
237,147,17317,1,0,0:0:0:0:
181,235,17428,2,0,L|190:298,2,35
7,41,17872,6,0,L|70:50,1,35
237,147,18095,2,0,L|271:142,1,35
326,198,18317,2,0,L|360:202,1,35
484,178,18539,5,0,0:0:0:0:
455,155,18650,1,0,0:0:0:0:
437,231,18761,5,0,0:0:0:0:
484,288,18872,1,0,0:0:0:0:
440,358,18984,5,0,0:0:0:0:
388,353,19095,1,0,0:0:0:0:
360,273,19206,5,0,0:0:0:0:
367,273,19317,1,0,0:0:0:0:
258,329,19428,6,0,L|195:338,1,35
45,370,19650,6,0,L|49:335,1,35
158,137,19872,2,0,L|153:102,1,35
98,47,20095,2,0,L|102:12,1,35
19,94,20317,5,0,0:0:0:0:
7,105,20428,1,0,0:0:0:0:
37,177,20539,5,0,0:0:0:0:
30,215,20650,1,0,0:0:0:0:
130,243,20761,5,0,0:0:0:0:
108,177,20872,1,0,0:0:0:0:
171,131,20984,5,0,0:0:0:0:
217,144,21095,1,0,0:0:0:0:
231,102,21206,1,0,0:0:0:0:
440,358,21428,6,0,L|444:323,1,35
345,131,21650,2,0,L|340:96,1,35
392,42,21872,2,0,L|396:7,1,35
470,146,22095,5,0,0:0:0:0:
440,212,22206,2,0,B|457:245|457:245|496:204,1,70
502,81,22428,2,0,B|485:48|485:48|446:89,1,70
342,210,22650,1,0,0:0:0:0:
277,261,22761,6,0,L|214:252,1,35
177,214,22984,2,0,L|114:223,1,35
45,370,23206,6,0,L|49:335,1,35
158,137,23428,2,0,L|153:102,1,35
98,47,23651,2,0,L|102:12,1,35
25,142,23872,5,0,0:0:0:0:
40,146,23984,1,0,0:0:0:0:
91,209,24095,5,0,0:0:0:0:
153,202,24207,1,0,0:0:0:0:
158,137,24317,5,0,0:0:0:0:
231,153,24429,1,0,0:0:0:0:
235,190,24540,5,0,0:0:0:0:
269,197,24652,1,0,0:0:0:0:
338,159,24761,6,0,L|401:168,1,35
0,227,24984,6,0,L|23:224,1,17.5
144,297,25206,6,0,L|207:306,1,35
269,197,25428,6,0,L|362:183,1,70
498,227,25650,5,0,0:0:0:0:
453,321,25761,5,0,0:0:0:0:
441,329,25872,5,0,0:0:0:0:
441,329,25984,5,0,0:0:0:0:
422,302,26096,1,0,0:0:0:0:
337,274,26206,5,0,0:0:0:0:
276,335,26318,1,0,0:0:0:0:
215,297,26428,1,0,0:0:0:0:
156,338,26539,6,0,L|93:329,1,35
46,348,26872,1,0,0:0:0:0:
40,324,26984,5,0,0:0:0:0:
76,309,27058,1,0,0:0:0:0:
98,276,27132,1,0,0:0:0:0:
101,236,27206,1,0,0:0:0:0:
75,205,27280,1,0,0:0:0:0:
36,194,27354,1,0,0:0:0:0:
28,155,27428,1,0,0:0:0:0:
52,123,27502,1,0,0:0:0:0:
126,148,27576,5,0,0:0:0:0:
143,126,27650,2,0,L|156:121,6,8.75
69,45,28095,6,0,L|132:54,1,35
411,84,28317,1,0,0:0:0:0:
470,18,28539,6,0,L|473:41,1,17.5
400,162,28761,6,0,L|391:225,1,35
500,287,28983,6,0,L|514:380,1,70
370,332,29206,5,0,0:0:0:0:
357,305,29317,1,0,0:0:0:0:
236,310,29428,5,0,0:0:0:0:
283,364,29539,1,0,0:0:0:0:
283,241,29650,5,0,0:0:0:0:
269,239,29761,1,0,0:0:0:0:
223,321,29872,6,0,P|76:337|195:187,1,420
412,258,30317,5,0,0:0:0:0:
478,222,30428,2,0,L|541:231,1,35
212,242,30650,1,0,0:0:0:0:
212,242,30761,2,0,B|372:201|317:412|513:349,1,315.000012016297
478,222,31206,5,0,0:0:0:0:
478,222,31317,1,0,0:0:0:0:
327,317,31428,2,0,L|198:321,1,105.000004005432
104,361,31650,6,0,L|113:298,1,35
166,278,31872,2,0,L|157:215,1,35
57,88,32095,6,0,L|29:312,1,210
21,299,32318,2,0,L|48:91,1,210
20,21,32540,5,0,0:0:0:0:
145,153,32761,6,0,L|266:148,1,70
464,171,32984,5,0,0:0:0:0:
494,135,33095,1,0,0:0:0:0:
466,86,33206,1,0,0:0:0:0:
395,105,33318,1,0,0:0:0:0:
403,223,33428,6,0,B|340:342|198:337|127:191|251:133|290:205,1,367.500003504753
179,335,33872,6,0,L|145:331,1,35
119,343,34094,2,0,L|207:352,1,87.5
92,221,34316,6,0,L|58:217,1,35
32,229,34539,2,0,L|120:238,1,87.5
280,298,34761,6,0,L|343:307,1,35
400,316,34983,6,0,B|385:213,1,105.000004005432
448,65,35205,6,0,L|385:74,1,35
369,134,35428,2,0,B|318:123|316:187|251:151,1,105.000004005432
120,238,35650,6,0,L|142:94,1,105.000004005432
131,126,35872,2,0,L|116:230,1,105.000004005432
49,276,36095,5,0,0:0:0:0:
319,255,36317,6,0,L|353:251,1,35
441,299,36984,6,0,L|475:303,1,24.4999992523194
256,192,37428,12,0,44539,0:0:0:0:
