osu file format v14

[General]
AudioFilename: audio.mp3
AudioLeadIn: 0
PreviewTime: 1873
Countdown: 0
SampleSet: None
StackLeniency: 0.7
Mode: 0
LetterboxInBreaks: 0
WidescreenStoryboard: 0

[Editor]
DistanceSpacing: 0.8
BeatDivisor: 4
GridSize: 16
TimelineZoom: 1

[Metadata]
Title:Title BGM Loop
TitleUnicode:Title BGM Loop
Artist:Sota Fujimori
ArtistUnicode:Sota Fujimori
Creator:Liiraye
Version:Nitro's Insane
Source:SSC #2
Tags:ssc #2 scandinavian speedmapping contest -PC Arbane Nitroz Sebu Waefwerf YokesPai Keada
BeatmapID:1846957
BeatmapSetID:883548

[Difficulty]
HPDrainRate:7
CircleSize:4
OverallDifficulty:7
ApproachRate:8
SliderMultiplier:2.2
SliderTickRate:1

[Events]
//Background and Video events
0,0,"Jubeat.jpg",0,0
//Break Periods
//Storyboard Layer 0 (Background)
//Storyboard Layer 1 (Fail)
//Storyboard Layer 2 (Pass)
//Storyboard Layer 3 (Foreground)
//Storyboard Sound Samples

[TimingPoints]
761,444.444444444444,4,3,0,45,1,0
1873,444.444444444444,4,2,0,70,1,0
1873,-80,4,2,0,70,0,0
15650,-66.6666666666667,4,1,0,70,0,0
16095,-80,4,2,0,70,0,0
29872,-66.6666666666667,4,1,0,70,0,0
30299,-66.6666666666667,4,2,0,70,0,0
30761,-80,4,2,0,70,0,0
33428,-66.6666666666667,4,2,0,70,0,0
34317,-80,4,2,0,60,0,0

[HitObjects]
80,64,761,5,0,0:0:0:0:
80,80,872,1,0,0:0:0:0:
80,96,983,2,0,L|80:160,1,55,0|0,0:0|0:0,0:0:0:0:
176,192,1205,2,0,L|176:128,1,55,0|0,0:0|0:0,0:0:0:0:
176,64,1427,1,0,0:0:0:0:
448,224,1873,5,0,0:0:0:0:
464,208,1984,1,0,0:0:0:0:
448,192,2095,1,0,0:0:0:0:
256,96,2317,2,0,P|320:74|384:96,1,137.5,0|0,0:0|0:0,0:0:0:0:
256,192,2761,1,0,0:0:0:0:
272,208,2872,1,0,0:0:0:0:
256,224,2984,2,0,B|160:322|160:322|64:224,1,275,0|0,0:0|0:0,0:0:0:0:
64,48,3650,6,0,L|144:64,1,68.75,0|0,0:0|0:0,0:0:0:0:
96,128,3872,1,0,0:0:0:0:
256,32,4095,1,0,0:0:0:0:
416,192,4317,2,0,P|336:283|256:192,1,275,0|0,0:0|0:0,0:0:0:0:
64,240,4984,2,0,B|80:288|112:288|112:288|192:288,1,137.5,0|0,0:0|0:0,0:0:0:0:
384,192,5428,5,0,0:0:0:0:
368,176,5539,1,0,0:0:0:0:
352,192,5650,1,0,0:0:0:0:
464,96,5872,2,0,P|368:64|272:96,1,206.25,0|0,0:0|0:0,0:0:0:0:
48,192,6428,1,0,0:0:0:0:
48,192,6539,2,0,B|160:272|160:272|272:192,1,275,0|0,0:0|0:0,0:0:0:0:
464,320,7206,6,0,B|448:272|416:272|416:272|336:272,1,137.5,0|0,0:0|0:0,0:0:0:0:
192,320,7650,1,0,0:0:0:0:
64,224,7872,2,0,B|176:224|176:224|144:176|176:128|176:128|320:128,1,343.75,0|0,0:0|0:0,0:0:0:0:
320,208,8539,2,0,P|384:128|320:48,1,206.25,0|0,0:0|0:0,0:0:0:0:
240,80,8984,5,0,0:0:0:0:
224,96,9095,1,0,0:0:0:0:
208,112,9206,1,0,0:0:0:0:
64,192,9428,2,0,P|160:274|256:192,1,275,0|0,0:0|0:0,0:0:0:0:
464,64,10095,2,0,B|352:48|352:48|304:96|304:96|208:80,1,275,0|0,0:0|0:0,0:0:0:0:
64,160,10761,6,0,L|64:240,1,68.75,0|0,0:0|0:0,0:0:0:0:
64,288,10984,1,0,0:0:0:0:
208,352,11206,1,0,0:0:0:0:
448,256,11428,2,0,P|320:160|192:256,1,343.75,0|0,0:0|0:0,0:0:0:0:
288,256,12095,2,0,L|400:80,1,206.25
128,32,12650,1,0,0:0:0:0:
112,48,12761,6,0,L|64:96,3,68.75,0|0|0|0,0:0|0:0|0:0|0:0,0:0:0:0:
176,112,13206,2,0,L|224:160,2,68.75,0|0|0,0:0|0:0|0:0,0:0:0:0:
352,32,13650,2,0,B|432:112|432:112|432:288,1,275,0|0,0:0|0:0,0:0:0:0:
96,336,14317,6,0,L|96:256,1,68.75,0|0,0:0|0:0,0:0:0:0:
96,208,14539,1,0,0:0:0:0:
160,64,14761,1,0,0:0:0:0:
352,64,14984,2,0,B|448:160|448:160|352:272,1,275,0|0,0:0|0:0,0:0:0:0:
64,256,15650,2,0,B|160:288|160:288|208:144,1,247.500009441376,0|0,0:0|0:0,0:0:0:0:
128,96,16095,6,0,L|192:64,1,68.75,0|0,0:0|0:0,0:0:0:0:
224,48,16317,1,0,0:0:0:0:
416,48,16539,1,0,0:0:0:0:
96,272,16984,5,0,0:0:0:0:
96,272,17095,2,0,B|160:304|160:304|224:272,1,137.5,0|0,0:0|0:0,0:0:0:0:
160,208,17428,2,0,L|160:128,1,68.75,0|0,0:0|0:0,0:0:0:0:
384,64,17872,6,0,L|320:32,1,68.75,0|0,0:0|0:0,0:0:0:0:
288,16,18094,1,0,0:0:0:0:
96,16,18316,1,0,0:0:0:0:
416,240,18761,5,0,0:0:0:0:
416,240,18872,2,0,B|352:272|352:272|288:240,1,137.5,0|0,0:0|0:0,0:0:0:0:
352,176,19205,2,0,L|352:96,1,68.75,0|0,0:0|0:0,0:0:0:0:
352,48,19428,1,0,0:0:0:0:
64,176,19650,5,0,0:0:0:0:
80,160,19761,1,0,0:0:0:0:
96,176,19872,1,0,0:0:0:0:
176,304,20095,2,0,L|256:304,1,68.75,0|0,0:0|0:0,0:0:0:0:
432,48,20539,1,0,0:0:0:0:
432,48,20650,5,0,0:0:0:0:
304,64,20872,1,0,0:0:0:0:
288,80,20984,1,0,0:0:0:0:
304,96,21095,1,0,0:0:0:0:
64,208,21428,5,0,0:0:0:0:
80,224,21539,1,0,0:0:0:0:
96,208,21650,1,0,0:0:0:0:
176,80,21873,2,0,L|256:80,1,68.75,0|0,0:0|0:0,0:0:0:0:
480,192,22206,1,0,0:0:0:0:
432,336,22428,5,0,0:0:0:0:
304,320,22650,1,0,0:0:0:0:
288,304,22762,1,0,0:0:0:0:
304,288,22873,1,0,0:0:0:0:
80,96,23206,6,0,L|160:96,1,68.75,0|0,0:0|0:0,0:0:0:0:
208,96,23428,1,0,0:0:0:0:
384,96,23650,1,0,0:0:0:0:
112,288,24095,5,0,0:0:0:0:
112,288,24206,1,0,0:0:0:0:
288,288,24428,1,0,0:0:0:0:
347,288,24539,2,0,L|416:288,1,68.75,0|0,0:0|0:0,0:0:0:0:
432,96,24984,6,0,L|352:96,1,68.75,0|0,0:0|0:0,0:0:0:0:
304,96,25206,1,0,0:0:0:0:
128,96,25428,1,0,0:0:0:0:
400,288,25873,5,0,0:0:0:0:
400,288,25984,1,0,0:0:0:0:
224,288,26206,1,0,0:0:0:0:
164,288,26317,2,0,L|96:288,1,68.75,0|0,0:0|0:0,0:0:0:0:
48,288,26539,1,0,0:0:0:0:
352,64,26872,6,0,L|288:32,6,68.75,0|0|0|0|0|0|0,0:0|0:0|0:0|0:0|0:0|0:0|0:0,0:0:0:0:
400,96,27650,2,0,L|400:192,1,68.75,0|0,0:0|0:0,0:0:0:0:
144,320,27984,1,0,0:0:0:0:
160,320,28095,2,0,L|240:320,1,68.75,0|0,0:0|0:0,0:0:0:0:
64,80,28539,5,0,0:0:0:0:
96,80,28650,1,0,0:0:0:0:
128,80,28761,2,0,P|192:101|256:80,1,137.5,0|0,0:0|0:0,0:0:0:0:
416,32,29206,2,0,L|416:112,1,68.75,0|0,0:0|0:0,0:0:0:0:
416,256,29539,1,0,0:0:0:0:
80,240,29872,6,0,P|192:176|128:112,1,247.500009441376,0|0,0:0|0:0,0:0:0:0:
96,144,30317,5,0,0:0:0:0:
48,128,30428,1,0,0:0:0:0:
64,80,30539,1,0,0:0:0:0:
336,80,30761,2,0,B|240:32|240:32|208:48,1,137.5,0|0,0:0|0:0,0:0:0:0:
96,256,31206,1,0,0:0:0:0:
112,272,31317,1,0,0:0:0:0:
128,256,31428,2,0,B|224:219|224:219|320:256,1,206.25,0|0,0:0|0:0,0:0:0:0:
336,336,31872,2,0,L|400:304,1,68.75,0|0,0:0|0:0,0:0:0:0:
448,176,32095,6,0,L|448:96,1,68.75,0|0,0:0|0:0,0:0:0:0:
448,48,32317,1,0,0:0:0:0:
256,96,32539,1,0,0:0:0:0:
64,144,32761,2,0,P|160:260|256:144,1,343.75,0|0,0:0|0:0,0:0:0:0:
160,160,33428,2,0,P|224:64|352:112,1,247.500009441376,0|0,0:0|0:0,0:0:0:0:
416,160,33872,5,0,0:0:0:0:
432,176,33984,1,0,0:0:0:0:
416,192,34095,1,0,0:0:0:0:
256,304,34317,2,0,L|336:304,1,68.75,0|0,0:0|0:0,0:0:0:0:
368,304,34539,1,0,0:0:0:0:
416,304,34650,1,0,0:0:0:0:
176,96,34872,1,0,0:0:0:0:
176,96,34984,2,0,P|142:192|176:288,1,206.25,0|0,0:0|0:0,0:0:0:0:
224,224,35428,2,0,L|304:224,1,68.75,0|0,0:0|0:0,0:0:0:0:
368,256,35650,6,0,L|368:176,1,68.75,0|0,0:0|0:0,0:0:0:0:
368,128,35872,1,0,0:0:0:0:
272,48,36095,2,0,L|192:48,1,68.75,0|0,0:0|0:0,0:0:0:0:
176,96,36317,2,0,B|112:112|80:192|80:192|48:112|-16:96,1,275,0|0,0:0|0:0,0:0:0:0:
176,192,36984,2,0,B|240:192|240:192|288:224|288:224|384:224,1,206.25,0|0,0:0|0:0,0:0:0:0:
432,224,37428,1,0,0:0:0:0:
256,192,37539,12,0,40539,0:0:0:0:
