osu file format v14

[General]
AudioFilename: audio.mp3
AudioLeadIn: 0
PreviewTime: -1
Countdown: 0
SampleSet: None
StackLeniency: 0.7
Mode: 0
LetterboxInBreaks: 0
WidescreenStoryboard: 0

[Editor]
DistanceSpacing: 1.9
BeatDivisor: 16
GridSize: 16
TimelineZoom: 3.099999

[Metadata]
Title:Title BGM Loop
TitleUnicode:Title BGM Loop
Artist:Sota Fujimori
ArtistUnicode:Sota Fujimori
Creator:Liiraye
Version:Liiraye's Retroh
Source:SSC #2
Tags:ssc #2 scandinavian speedmapping contest -PC Arbane Nitroz Sebu Waefwerf YokesPai Keada
BeatmapID:1846956
BeatmapSetID:883548

[Difficulty]
HPDrainRate:6
CircleSize:6
OverallDifficulty:8
ApproachRate:8
SliderMultiplier:2
SliderTickRate:1

[Events]
//Background and Video events
0,0,"tunnel-clocks-abstract-time-travel-concept-background-loop-4k_v7lilrbhfe__F0006.jpg",0,0
//Break Periods
//Storyboard Layer 0 (Background)
//Storyboard Layer 1 (Fail)
//Storyboard Layer 2 (Pass)
//Storyboard Layer 3 (Foreground)
//Storyboard Sound Samples

[TimingPoints]
761,444.444444444444,4,1,0,100,1,0
1873,444.444444444444,4,1,0,100,1,1
3650,-66.6666666666667,4,1,0,100,0,1
4095,-100,4,1,0,100,0,1
4984,-500,4,1,0,100,0,1
5428,-50,4,1,0,100,0,1
5872,-100,4,1,0,100,0,1
6761,-50,4,1,0,100,0,1
6984,-500,4,1,0,100,0,1
7206,-100,4,1,0,100,0,1
7428,-133.333333333333,4,1,0,100,0,1
8539,-500,4,1,0,100,0,1
8984,-100,4,1,0,100,0,1
9084,-100,4,1,0,100,0,1
9428,-50,4,1,0,100,0,1
9872,-100,4,1,0,100,0,1
11428,-50,4,1,0,100,0,1
12761,-100,4,1,0,100,0,1
13428,-33.3333333333333,4,1,0,100,0,1
14317,-50,4,1,0,100,0,1
15650,-33.3333333333333,4,1,0,100,0,1
16095,-33.3333333333333,4,1,0,100,0,0
16539,-100,4,1,0,100,0,0
17095,-50,4,1,0,100,0,0
18539,-100,4,1,0,100,0,0
20650,-33.3333333333333,4,1,0,100,0,0
20984,-100,4,1,0,100,0,0
21872,-50,4,1,0,100,0,0
22206,-100,4,1,0,100,0,0
24206,-50,4,1,0,100,0,0
24984,-500,4,2,0,15,0,0
26984,-100,4,1,0,100,0,0
27650,-33.3333333333333,4,1,0,100,0,0
28095,-100,4,1,0,100,0,0
28984,-50,4,1,0,100,0,0
29317,-100,4,1,0,100,0,0
30317,-33.3333333333333,4,1,0,100,0,1
33428,-200,4,1,0,100,0,1
33872,-33.3333333333333,4,1,0,100,0,1
37428,-100,4,1,0,100,0,1

[HitObjects]
147,158,761,5,0,0:0:0:0:
147,158,816,1,0,0:0:0:0:
147,158,872,1,0,0:0:0:0:
147,158,927,1,0,0:0:0:0:
147,158,983,2,0,P|167:139|200:128,2,50
271,244,1316,1,0,0:0:0:0:
271,244,1427,2,0,P|185:286|125:237,1,150
171,189,1873,6,0,L|220:182,1,50
296,70,2095,2,0,P|276:115|279:143,1,50
375,189,2317,2,0,B|344:159|344:159|314:151|314:151|293:135,1,100
92,50,2761,1,0,0:0:0:0:
92,50,2872,2,0,P|107:105|180:100,1,100
220,128,3206,1,0,0:0:0:0:
268,184,3317,1,0,0:0:0:0:
221,243,3428,1,0,0:0:0:0:
173,185,3539,1,0,0:0:0:0:
277,190,3650,5,0,0:0:0:0:
287,197,3761,1,0,0:0:0:0:
295,203,3872,2,0,B|369:155|369:155|361:189|361:189|368:157|368:157,1,150.000005722046,0|0,0:0|0:0,0:0:0:0:
204,337,4317,1,0,0:0:0:0:
199,324,4428,1,0,0:0:0:0:
194,312,4539,1,0,0:0:0:0:
159,245,4650,1,0,0:0:0:0:
78,250,4761,1,0,0:0:0:0:
121,309,4872,1,0,0:0:0:0:
117,184,4984,6,0,L|124:155,1,30
81,82,5428,6,0,B|155:130|115:37|170:111|227:115|238:89|238:89|239:113|210:133|210:133|239:113|248:63,1,300
173,216,5872,2,0,P|150:205|134:187,1,50
248,240,6095,1,0,0:0:0:0:
273,255,6206,2,0,P|269:304|261:328,1,50
102,321,6428,2,0,P|167:312|200:337,1,100
430,231,6761,6,0,L|331:212,1,100
343,135,6984,6,0,L|341:125,1,10
273,255,7206,1,0,0:0:0:0:
332,213,7317,1,0,0:0:0:0:
268,180,7428,2,0,L|272:254,1,75.0000028610231
129,296,7872,1,0,0:0:0:0:
215,324,7984,1,0,0:0:0:0:
272,254,8095,1,0,0:0:0:0:
230,174,8206,1,0,0:0:0:0:
163,113,8317,1,0,0:0:0:0:
201,31,8428,1,0,0:0:0:0:
289,46,8539,6,0,L|297:79,1,30
384,96,8984,2,0,B|380:111|380:111|384:96|384:96|371:162,1,100
112,240,9428,6,0,B|160:240|160:240|128:240|128:240|160:240|160:240|128:240|128:240|160:240|160:240|128:240|128:240|220:240,1,300
275,98,9872,2,0,P|258:115|249:138,1,50
406,319,10095,2,0,L|400:254,1,50
290,221,10317,1,0,0:0:0:0:
234,291,10428,1,0,0:0:0:0:
161,237,10539,1,0,0:0:0:0:
220,159,10650,1,0,0:0:0:0:
135,102,10761,1,0,0:0:0:0:
116,108,10873,1,0,0:0:0:0:
97,114,10984,6,0,L|150:97,1,50
81,33,11206,2,0,L|33:48,1,50
157,184,11428,2,0,B|194:175|208:154|208:154|208:183|208:183|243:151|252:97|252:97|265:140|265:140|286:57|253:9|253:9|294:68|334:127|334:127|333:63|388:50|388:50,1,600
428,220,12761,5,0,0:0:0:0:
423,232,12835,1,0,0:0:0:0:
415,242,12910,1,0,0:0:0:0:
337,191,12984,1,0,0:0:0:0:
323,188,13058,1,0,0:0:0:0:
309,188,13132,1,0,0:0:0:0:
297,194,13206,1,0,0:0:0:0:
287,203,13280,1,0,0:0:0:0:
282,215,13354,1,0,0:0:0:0:
282,228,13428,2,0,L|283:277,8,37.5000014305115
226,172,13761,5,0,0:0:0:0:
226,172,13872,2,0,L|225:113,1,50
379,285,14095,1,0,0:0:0:0:
379,284,14317,6,0,P|346:321|298:332,2,100
341,90,14761,2,0,L|346:190,1,100
127,184,14984,1,0,0:0:0:0:
127,184,15095,2,0,L|257:162,1,100
299,333,15317,2,0,L|200:315,1,100
246,60,15539,1,0,0:0:0:0:
110,258,15650,2,0,P|65:139|192:142,1,300
381,262,16095,5,0,0:0:0:0:
380,247,16206,1,0,0:0:0:0:
379,232,16317,1,0,0:0:0:0:
254,269,16539,2,0,L|256:319,1,50
316,201,16761,2,0,L|317:250,1,50
318,313,16984,1,0,0:0:0:0:
318,327,17095,6,0,B|447:326|447:326|447:235,2,200
185,200,17872,1,0,0:0:0:0:
213,189,17984,1,0,0:0:0:0:
226,164,18095,1,0,0:0:0:0:
124,109,18317,1,0,0:0:0:0:
108,243,18539,5,0,0:0:0:0:
192,296,18650,1,0,0:0:0:0:
287,266,18761,2,0,L|314:224,2,50
205,206,19095,1,0,0:0:0:0:
202,305,19206,1,0,0:0:0:0:
288,355,19317,1,0,0:0:0:0:
376,308,19428,1,0,0:0:0:0:
430,123,19650,5,0,0:0:0:0:
417,120,19761,1,0,0:0:0:0:
406,117,19872,1,0,0:0:0:0:
306,232,20095,2,0,L|357:249,1,50
445,205,20317,2,0,L|398:190,1,50
310,154,20539,1,0,0:0:0:0:
310,154,20650,6,0,B|278:154|278:154|278:138|278:138|246:138|246:138|246:154|246:154|214:154|214:154|214:138|214:138|182:138|182:138|182:154|182:154|150:154|150:154|149:139|149:139|118:138|118:138|118:170,1,300
187,238,20984,2,0,P|216:257|243:264,1,50
162,333,21206,2,0,P|141:347|118:356,1,50
71,268,21428,1,0,0:0:0:0:
118,180,21539,1,0,0:0:0:0:
59,99,21650,2,0,L|54:48,1,50
187,111,21872,6,0,P|309:102|394:36,1,200
377,136,22206,2,0,P|357:149|334:159,1,50
215,175,22428,2,0,P|240:177|265:174,1,50
325,235,22650,1,0,0:0:0:0:
332,252,22761,2,0,P|330:284|325:307,2,50
217,188,23095,1,0,0:0:0:0:
177,260,23206,5,0,0:0:0:0:
181,273,23317,1,0,0:0:0:0:
185,286,23428,1,0,0:0:0:0:
67,158,23650,2,0,L|56:206,1,50
164,96,23872,2,0,L|153:144,1,50
236,224,24095,1,0,0:0:0:0:
236,224,24206,2,0,B|246:180|246:180|209:154|209:154|169:177|169:177|177:219|177:219|223:224,2,200
317,297,24761,1,0,0:0:0:0:
320,283,24872,1,0,0:0:0:0:
323,270,24984,6,0,L|328:237,1,30
265,214,25428,6,0,L|265:201,1,10
181,196,25650,2,0,L|168:116,1,80
74,152,26984,1,0,0:0:0:0:
80,151,27058,1,0,0:0:0:0:
86,150,27132,1,0,0:0:0:0:
92,149,27206,1,0,0:0:0:0:
98,148,27280,1,0,0:0:0:0:
104,147,27354,1,0,0:0:0:0:
166,184,27428,1,0,0:0:0:0:
172,186,27502,1,0,0:0:0:0:
178,188,27576,1,0,0:0:0:0:
185,191,27650,6,0,L|245:174,8,37.5000014305115
165,266,27984,1,0,0:0:0:0:
158,281,28095,2,0,L|217:270,1,50
238,168,28539,1,0,0:0:0:0:
335,176,28650,1,0,0:0:0:0:
416,235,28761,1,0,0:0:0:0:
416,235,28984,6,0,P|306:168|236:169,1,200
157,133,29317,2,0,L|165:84,1,50
244,86,29539,2,0,L|251:36,1,50
223,234,29761,1,0,0:0:0:0:
244,86,29872,2,0,L|223:241,1,150
3,216,30317,6,0,P|61:145|229:244,1,300.000011444092
328,347,30761,2,0,P|229:239|243:94,1,300.000011444092
461,169,31095,1,0,0:0:0:0:
461,169,31206,1,0,0:0:0:0:
460,169,31317,2,0,P|340:225|242:106,2,300.000011444092
167,41,31872,2,0,P|149:114|164:187,1,150.000005722046
223,313,32095,6,0,B|103:325|103:325|22:277,1,150.000005722046
173,204,32317,2,0,B|293:192|293:192|318:206,1,150.000005722046
56,196,32539,2,0,B|34:155|34:155|53:15,1,150.000005722046
297,59,32761,1,0,0:0:0:0:
297,59,32872,1,0,0:0:0:0:
297,59,32984,2,0,L|316:276,1,150.000005722046
444,335,33206,2,0,L|431:186,1,150.000005722046
166,85,33428,6,0,L|160:144,1,50
60,305,33872,6,0,B|80:280|80:280|68:295|68:295|81:279|81:279|68:295|68:295|81:279|81:279|68:294|68:294|109:244|109:244|213:250,1,300.000011444092
357,43,34317,1,0,0:0:0:0:
357,43,34428,1,0,0:0:0:0:
357,43,34539,1,0,0:0:0:0:
357,43,34650,2,0,P|280:131|137:120,1,150.000005722046
123,214,34872,1,0,0:0:0:0:
123,214,34984,2,0,P|58:177|25:111,1,150.000005722046
322,218,35206,1,0,0:0:0:0:
322,218,35317,2,0,P|334:346|289:381,1,150.000005722046
327,353,35650,5,0,0:0:0:0:
349,288,35761,1,0,0:0:0:0:
322,218,35872,1,0,0:0:0:0:
48,238,36095,2,0,L|347:215,1,300.000011444092
232,128,36539,2,0,P|193:198|215:313,1,150.000005722046
125,356,36761,2,0,P|99:285|97:211,1,150.000005722046
47,58,36984,2,0,B|132:152|132:152|234:68|234:68|278:127|278:127|373:41,1,450.000017166138
254,191,37428,2,0,B|293:195|286:245|215:263|179:204|190:159|228:135|282:131|322:131|365:153|395:212|400:255|388:291|358:326|305:345|246:344|203:332|156:321|105:280|94:228|92:197|95:168|106:126|144:89|189:62|239:48|294:47|342:52|397:68|439:91|495:164|503:195|506:227|505:273|492:330|470:360|425:389|374:397|324:392|261:380|187:369|145:367|121:363|93:355|41:331|14:291|9:233|16:174|28:118|55:77|92:44|138:20|183:15|220:14|283:14|344:15|392:21|448:38|495:53|521:76|536:115|544:169|545:204|543:243|535:310|524:350|503:371|454:384|354:391|226:392|115:394|56:389|-2:357|-35:328|-67:268|-75:215|-72:155|-44:109|24:59|81:16|131:0|188:-6|212:-6,1,2725
