osu file format v14

[General]
AudioFilename: audio.mp3
AudioLeadIn: 0
PreviewTime: -1
Countdown: 0
SampleSet: None
StackLeniency: 0.7
Mode: 0
LetterboxInBreaks: 0
WidescreenStoryboard: 0

[Editor]
Bookmarks: 22539
DistanceSpacing: 0.4
BeatDivisor: 4
GridSize: 4
TimelineZoom: 2.3

[Metadata]
Title:Title BGM Loop
TitleUnicode:Title BGM Loop
Artist:Sota Fujimori
ArtistUnicode:Sota Fujimori
Creator:Liiraye
Version:Arbane is shit! (Keada)
Source:SSC #2
Tags:ssc #2 scandinavian speedmapping contest -PC Arbane Nitroz Sebu Waefwerf YokesPai Keada
BeatmapID:1846954
BeatmapSetID:883548

[Difficulty]
HPDrainRate:5
CircleSize:4.5
OverallDifficulty:8
ApproachRate:9.4
SliderMultiplier:1.8
SliderTickRate:1

[Events]
//Background and Video events
0,0,"1118.jpg",0,0
//Break Periods
//Storyboard Layer 0 (Background)
//Storyboard Layer 1 (Fail)
//Storyboard Layer 2 (Pass)
//Storyboard Layer 3 (Foreground)
//Storyboard Sound Samples

[TimingPoints]
761,444.444444444444,4,2,1,100,1,0
1427,-1000,4,2,1,100,0,0
1761,-1000,4,2,1,5,0,0
1873,444.444444444444,4,2,1,100,1,0
1873,-76.9230769230769,4,2,1,100,0,0
2317,-133.333333333333,4,2,1,100,0,0
2761,-76.9230769230769,4,2,1,100,0,0
3872,-55.5555555555556,4,2,1,100,0,0
4095,-43.4782608695652,4,2,1,100,0,0
4317,-50,4,2,1,100,0,0
4761,-76.9230769230769,4,2,1,100,0,0
4984,-181.818181818181,4,2,1,100,0,0
5650,-76.9230769230769,4,2,1,100,0,0
6539,-181.818181818181,4,2,1,100,0,0
6761,-76.9230769230769,4,2,1,100,0,0
6984,-181.818181818181,4,2,1,100,0,0
7206,-76.9230769230769,4,2,1,100,0,0
7428,-55.5555555555556,4,2,1,100,0,0
7650,-43.4782608695652,4,2,1,100,0,0
7872,-133.333333333333,4,2,1,100,0,0
8984,-76.9230769230769,4,2,1,100,0,0
10984,-55.5555555555556,4,2,1,100,0,0
11206,-43.4782608695652,4,2,1,100,0,0
11428,-50,4,2,1,100,0,0
12095,-76.9230769230769,4,2,1,100,0,0
14317,-66.6666666666667,4,2,1,100,0,0
14539,-133.333333333333,4,2,1,100,0,0
15650,-42.5531914893617,4,2,1,100,0,0
16095,-100,4,2,1,100,0,0
16539,-1000,4,2,1,100,0,0
16984,-100,4,2,1,100,0,0
19206,-66.6666666666667,4,2,1,100,0,0
19872,-76.9230769230769,4,2,1,100,0,0
20095,-1000,4,2,1,100,0,0
20539,-76.9230769230769,4,2,1,100,0,0
22206,-1000,4,2,1,100,0,0
22428,-42.5531914893617,4,2,1,100,0,0
22650,-1000,4,2,1,100,0,0
22984,-42.5531914893617,4,2,1,100,0,0
23206,-76.9230769230769,4,2,1,100,0,0
23650,-133.333333333333,4,2,1,100,0,0
24206,-76.9230769230769,4,2,1,100,0,0
24984,-100,4,2,1,100,0,0
26317,-76.9230769230769,4,2,1,100,0,0
28539,-133.333333333333,4,2,1,100,0,0
29317,-100,4,2,1,100,0,0
29872,-40,4,2,1,100,0,0
30317,-66.6666666666667,4,2,1,100,0,0
31428,-666.666666666658,4,2,1,100,0,0
31650,-66.6666666666667,4,2,1,100,0,0
31872,-666.666666666658,4,2,1,100,0,0
32095,-66.6666666666667,4,2,1,100,0,0
32317,-50,4,2,1,100,0,0
32539,-40,4,2,1,100,0,0
33206,-66.6666666666667,4,2,1,100,0,0
34872,-100,4,2,1,100,0,0
35650,-83.3333333333333,4,2,1,100,0,0
35872,-100,4,2,1,100,0,0
36317,-133.333333333333,4,2,1,100,0,0

[HitObjects]
124,223,761,6,0,L|136:193,1,22.5,2|2,2:0|2:0,2:0:0:0:
136,216,872,2,0,L|144:194,1,22.5,2|2,0:0|0:0,0:0:0:0:
66,151,983,2,0,L|68:189,2,30,2|2|2,0:0|0:0|0:0,0:0:0:0:
142,122,1205,1,2,0:0:0:0:
166,114,1316,1,2,0:0:0:0:
100,63,1427,6,0,L|85:59,1,13.5,12|0,0:0|0:0,0:0:0:0:
217,59,1873,5,6,0:0:0:0:
281,95,1984,1,0,0:0:0:0:
218,132,2095,2,0,P|183:128|159:101,1,58.4999973220826
283,20,2317,2,0,B|325:15|325:15|338:20|338:20|396:13,1,101.250003862381,8|0,0:0|0:0,0:0:0:0:
492,125,2761,5,2,0:0:0:0:
425,99,2872,2,0,B|418:129|418:129|429:163,1,58.4999973220826
484,282,3095,1,0,0:0:0:0:
425,240,3206,2,0,B|397:235|397:235|352:244,1,58.4999973220826,8|0,0:0|0:0,0:0:0:0:
223,241,3428,2,0,B|252:246|252:246|280:241,1,58.4999973220826
93,190,3650,6,0,P|88:219|101:247,1,58.4999973220826,2|0,0:0|0:0,0:0:0:0:
131,111,3872,2,0,P|101:100|49:109,1,80.9999975280763
179,180,4095,2,0,P|203:162|213:79,1,103.500001974106,8|0,0:0|0:0,0:0:0:0:
12,331,4317,2,0,B|64:318|109:338|109:338|138:312|174:313|174:313|225:337|293:316,1,270
454,273,4761,1,0,0:0:0:0:
382,249,4872,1,0,0:0:0:0:
440,196,4984,6,0,P|449:160|441:124,1,74.2500022659302,8|0,0:0|0:0,0:0:0:0:
461,128,5428,5,2,0:0:0:0:
469,164,5539,1,0,0:0:0:0:
459,200,5650,2,0,P|423:209|390:199,1,58.4999973220826
297,127,5872,2,0,B|296:161|270:182|270:182|312:235|271:304,1,175.499991966248,8|0,0:0|0:0,0:0:0:0:
157,242,6317,6,0,L|229:240,1,58.4999973220826,2|0,0:0|0:0,0:0:0:0:
127,317,6539,6,0,L|84:314,1,24.7500007553101
153,227,6761,6,0,L|225:225,1,58.4999973220826,8|0,0:0|0:0,0:0:0:0:
123,302,6984,6,0,L|80:299,1,24.7500007553101
16,150,7206,6,0,P|45:144|74:151,1,58.4999973220826,2|0,0:0|0:0,0:0:0:0:
40,220,7428,2,0,P|43:183|83:144,1,80.9999975280763
128,226,7650,2,0,P|88:203|72:142,1,103.500001974106,8|0,0:0|0:0,0:0:0:0:
252,150,7872,6,0,B|203:167|203:131|135:156,1,101.250003862381
98,300,8317,1,0,0:0:0:0:
128,226,8428,1,0,0:0:0:0:
182,294,8539,2,0,B|231:313|231:277|281:294,1,101.250003862381,8|0,0:0|0:0,0:0:0:0:
447,324,8984,6,0,P|453:295|442:258,1,58.4999973220826,2|0,0:0|0:0,0:0:0:0:
492,140,9206,2,0,P|486:169|497:205,1,58.4999973220826
368,294,9428,1,8,0:0:0:0:
368,294,9650,2,0,L|363:225,1,58.4999973220826
289,81,9872,1,2,0:0:0:0:
318,155,9984,2,0,B|288:160|288:160|252:153,2,58.4999973220826
426,71,10317,2,0,L|439:3,1,58.4999973220826,8|0,0:0|0:0,0:0:0:0:
278,23,10539,2,0,L|288:80,1,58.4999973220826
368,294,10761,6,0,P|397:299|426:292,1,58.4999973220826,2|0,0:0|0:0,0:0:0:0:
290,287,10984,2,0,P|293:323|333:362,1,80.9999975280763
267,211,11206,2,0,P|227:233|211:294,1,103.500001974106,8|0,0:0|0:0,0:0:0:0:
424,293,11428,2,0,B|437:241|417:196|417:196|443:167|442:131|442:131|418:80|439:12,1,270
339,139,11872,1,0,0:0:0:0:
288,80,11984,1,0,0:0:0:0:
267,211,12095,2,0,L|263:152,2,58.4999973220826,8|0|0,0:0|0:0|0:0,0:0:0:0:
267,211,12761,5,0,0:0:0:0:
259,213,12835,1,0,0:0:0:0:
251,215,12910,1,0,0:0:0:0:
243,216,12984,2,0,P|218:215|198:205,2,38.9999982147218,8|0|0,0:0|0:0|0:0,0:0:0:0:
167,145,13206,2,0,P|142:146|122:156,2,38.9999982147218
79,210,13428,6,0,L|74:243,3,29.2499986610413,2|0|0|0,0:0|0:0|0:0|0:0,0:0:0:0:
31,165,13650,2,0,L|36:198,3,29.2499986610413
70,93,13872,2,0,L|72:27,1,58.4999973220826,8|0,0:0|0:0,0:0:0:0:
145,251,14095,1,0,0:0:0:0:
145,251,14317,6,0,B|179:261|179:261|227:249,1,67.5000025749208,2|0,0:0|0:0,0:0:0:0:
264,148,14539,2,0,P|258:166|256:184,1,33.7500012874604
286,311,14761,1,8,0:0:0:0:
286,311,14984,2,0,B|304:343|304:343|321:237,1,135.000005149842
329,160,15539,1,0,0:0:0:0:
340,361,15650,6,0,P|266:379|347:270,1,317.249995159149,8|0,0:0|0:0,0:0:0:0:
415,345,16095,5,6,0:0:0:0:
410,264,16206,1,0,0:0:0:0:
431,354,16317,1,0,0:0:0:0:
446,364,16539,2,0,L|445:353,1,9,8|0,0:0|0:0,0:0:0:0:
424,252,16872,1,0,0:0:0:0:
438,241,16984,6,0,B|462:236|462:236|490:239,1,45,2|0,0:0|0:0,0:0:0:0:
421,168,17206,1,0,0:0:0:0:
409,156,17317,2,0,B|388:158|388:158|364:153,2,45,0|8|0,0:0|0:0|0:0,0:0:0:0:
479,64,17650,1,0,0:0:0:0:
491,84,17872,5,2,0:0:0:0:
402,31,17984,1,0,0:0:0:0:
502,102,18095,2,0,L|473:55,1,45
324,37,18317,1,8,0:0:0:0:
310,25,18539,5,0,0:0:0:0:
295,104,18650,1,0,0:0:0:0:
239,54,18761,1,2,0:0:0:0:
225,56,18872,1,0,0:0:0:0:
294,103,18984,2,0,P|316:111|338:110,1,45
228,181,19206,1,8,0:0:0:0:
214,183,19317,1,0,0:0:0:0:
287,229,19428,1,0,0:0:0:0:
299,236,19650,5,2,0:0:0:0:
306,316,19761,1,0,0:0:0:0:
328,224,19872,2,0,P|356:213|385:215,1,58.4999973220826
389,298,20095,2,0,L|374:295,1,13.5,8|0,0:0|0:0,0:0:0:0:
236,284,20539,5,2,0:0:0:0:
223,214,20650,2,0,P|218:242|225:270,2,58.4999973220826
121,152,20984,5,8,0:0:0:0:
134,222,21095,2,0,P|138:193|131:165,2,58.4999973220826
73,303,21428,5,2,0:0:0:0:
36,228,21539,1,0,0:0:0:0:
91,308,21650,2,0,L|149:312,1,58.4999973220826
223,214,21872,1,8,0:0:0:0:
237,223,22095,1,0,0:0:0:0:
273,281,22206,6,0,L|276:288,1,4.5,0|2,0:0|0:0,0:0:0:0:
343,333,22428,6,0,B|361:302|361:302|351:213,1,105.749998386383
340,77,22650,1,0,0:0:0:0:
306,159,22761,6,0,L|302:157,1,4.5,8|0,0:0|0:0,0:0:0:0:
353,232,22984,6,0,B|384:250|384:250|473:240,1,105.749998386383
340,77,23206,2,0,P|284:68|257:77,1,58.4999973220826,2|0,0:0|0:0,0:0:0:0:
396,152,23428,1,0,0:0:0:0:
218,17,23650,2,0,P|202:59|215:114,1,101.250003862381,8|0,0:0|0:0,0:0:0:0:
353,232,24095,5,2,0:0:0:0:
292,185,24206,2,0,L|225:182,2,58.4999973220826
114,232,24539,1,8,0:0:0:0:
175,185,24650,2,0,L|241:182,2,58.4999973220826
241,346,24984,6,0,B|239:311|239:311|246:294|246:294|244:257,1,90,2|0,0:0|0:0,0:0:0:0:
230,94,25317,2,0,B|228:129|228:129|235:146|235:146|233:183,1,90
136,299,25650,2,0,P|74:292|118:161,1,225
172,230,26317,2,0,L|99:232,1,58.4999973220826,8|0,0:0|0:0,0:0:0:0:
303,208,26539,1,0,0:0:0:0:
309,212,26984,5,0,0:0:0:0:
315,216,27058,1,0,0:0:0:0:
322,218,27132,1,0,0:0:0:0:
329,220,27206,2,0,P|356:224|378:221,2,38.9999982147218,8|0|0,0:0|0:0|0:0,0:0:0:0:
310,299,27428,2,0,P|283:303|261:300,2,38.9999982147218
401,289,27650,6,0,L|432:286,3,29.2499986610413,2|0|0|0,0:0|0:0|0:0|0:0,0:0:0:0:
480,326,27872,2,0,L|449:323,3,29.2499986610413
441,217,28095,2,0,P|434:184|445:150,1,58.4999973220826,8|0,0:0|0:0,0:0:0:0:
356,80,28317,2,0,P|361:108|354:136,1,58.4999973220826
246,225,28539,6,0,B|221:228|221:228|162:202,2,67.5000025749208,6|0|0,0:0|0:0|0:0,0:0:0:0:
166,74,29206,1,8,0:0:0:0:
152,86,29317,2,0,P|144:111|148:136,1,45
279,127,29539,2,0,B|296:116|296:116|227:115,1,90
237,312,29872,6,0,P|297:342|228:253,1,337.5,6|0,0:0|0:0,0:0:0:0:
294,273,30317,6,0,L|371:271,1,67.5000025749208,6|0,0:0|0:0,0:0:0:0:
472,139,30539,2,0,L|395:137,1,67.5000025749208
185,261,30761,1,8,0:0:0:0:
170,270,30984,5,0,0:0:0:0:
154,279,31096,1,0,0:0:0:0:
137,289,31206,2,0,P|125:258|135:205,1,67.5000025749208,2|0,0:0|0:0,0:0:0:0:
171,137,31428,6,0,L|173:149,1,6.74999979400635
43,199,31650,6,0,P|57:168|82:146,1,67.5000025749208,8|0,0:0|0:0,0:0:0:0:
215,209,31872,6,0,L|203:211,1,6.74999979400635
351,199,32095,6,0,P|355:234|341:264,1,67.5000025749208,2|0,0:0|0:0,0:0:0:0:
395,126,32317,6,0,P|426:156|436:200,1,90
374,41,32539,6,0,P|418:40|474:86,1,112.5,8|0,0:0|0:0,0:0:0:0:
397,348,32761,6,0,B|313:377|249:315|249:315|157:288|77:339,1,337.5
16,363,33206,5,0,0:0:0:0:
2,278,33317,1,0,0:0:0:0:
50,202,33428,2,0,B|70:171|70:171|79:349,1,202.500007724762,8|0,0:0|0:0,0:0:0:0:
78,337,33872,5,2,0:0:0:0:
103,326,33984,1,0,0:0:0:0:
128,334,34095,1,0,0:0:0:0:
103,354,34317,6,0,L|96:198,1,135.000005149842,8|0,0:0|0:0,0:0:0:0:
93,91,34761,1,2,0:0:0:0:
106,79,34872,2,0,L|162:73,2,45
209,163,35206,1,8,0:0:0:0:
196,151,35317,2,0,L|140:145,2,45
276,205,35650,2,0,P|285:179|284:152,1,53.9999983520508,2|0,0:0|0:0,0:0:0:0:
200,241,35872,2,0,P|199:267|207:285,1,45
360,235,36095,1,8,0:0:0:0:
374,231,36317,6,0,B|381:176|381:176|372:155|372:155|380:83,1,135.000005149842
414,307,36984,1,12,0:0:0:0:
