osu file format v14

[General]
AudioFilename: audio.mp3
AudioLeadIn: 0
PreviewTime: -1
Countdown: 0
SampleSet: None
StackLeniency: 0.7
Mode: 0
LetterboxInBreaks: 0
WidescreenStoryboard: 0

[Editor]
DistanceSpacing: 0.5
BeatDivisor: 4
GridSize: 16
TimelineZoom: 4.499998

[Metadata]
Title:Title BGM Loop
TitleUnicode:Title BGM Loop
Artist:Sota Fujimori
ArtistUnicode:Sota Fujimori
Creator:Liiraye
Version:-PC's Arbane
Source:SSC #2
Tags:fuck you nitroz ssc #2 scandinavian speedmapping contest -PC Arbane Nitroz Sebu Waefwerf YokesPai Keada
BeatmapID:1846958
BeatmapSetID:883548

[Difficulty]
HPDrainRate:7
CircleSize:4
OverallDifficulty:6
ApproachRate:9
SliderMultiplier:2.2
SliderTickRate:1

[Events]
//Background and Video events
0,0,"eGsN93O.png",0,0
//Break Periods
//Storyboard Layer 0 (Background)
//Storyboard Layer 1 (Fail)
//Storyboard Layer 2 (Pass)
//Storyboard Layer 3 (Foreground)
//Storyboard Sound Samples

[TimingPoints]
761,444.444444444444,4,2,0,40,1,0
1205,-200,4,2,0,40,0,0
1873,444.444444444444,4,2,0,60,1,0
2539,-166.666666666667,4,2,0,60,0,0
2984,-285.714285714286,4,2,0,60,0,0
3428,-90.9090909090909,4,2,0,60,0,0
4984,-125,4,2,0,60,0,0
5428,-100,4,2,0,60,0,0
6095,-83.3333333333333,4,2,0,60,0,0
6539,-71.4285714285714,4,2,0,60,0,0
7872,-166.666666666667,4,2,0,60,0,0
8539,-100,4,2,0,60,0,0
9650,-76.9230769230769,4,2,0,60,0,0
10095,-285.714285714286,4,2,0,60,0,0
10428,-90.9090909090909,4,2,0,60,0,0
11428,-90.9090909090909,4,2,0,60,0,0
12095,-166.666666666667,4,2,0,60,0,0
12761,-125,4,2,0,60,0,0
14095,-142.857142857143,4,2,0,60,0,0
14317,-45.4545454545455,4,2,0,60,0,0
16095,-100,4,2,0,60,0,0
18095,-71.4285714285714,4,2,0,60,0,0
18650,-100,4,2,0,60,0,0
20650,-125,4,2,0,60,0,0
20984,-100,4,2,0,60,0,0
21650,-71.4285714285714,4,2,0,60,0,0
22206,-100,4,2,0,60,0,0
24984,-62.5,4,2,0,60,0,0
25206,-76.9230769230769,4,2,0,60,0,0
25428,-100,4,2,0,60,0,0
25650,-400,4,2,0,60,0,0
26095,-100,4,2,0,60,0,0
26984,-125,4,2,0,60,0,0
28317,-166.666666666667,4,2,0,60,0,0
28539,-45.4545454545455,4,2,0,60,0,0
30317,-100,4,2,0,60,0,0
30984,-166.666666666667,4,2,0,60,0,0
31428,-285.714285714286,4,2,0,60,0,0
31872,-90.9090909090909,4,2,0,60,0,0
33428,-125,4,2,0,60,0,0
33872,-100,4,2,0,60,0,0
34539,-83.3333333333333,4,2,0,60,0,0
34984,-71.4285714285714,4,2,0,60,0,0
36317,-166.666666666667,4,2,0,60,0,0
36984,-100,4,2,0,60,0,0

[HitObjects]
214,148,761,6,0,L|208:117,4,27.5,0|0|0|0|8,1:0|1:0|1:0|1:0|1:3,1:0:0:0:
303,121,1094,5,0,1:0:0:0:
303,121,1205,2,0,L|298:148,1,27.5,4|0,1:3|1:0,0:0:0:0:
257,346,1427,5,12,0:0:0:0:
481,283,1873,5,4,1:0:0:0:
481,283,1984,1,0,0:0:0:0:
481,283,2095,2,0,P|411:236|331:243,1,165,2|0,0:0|0:0,0:0:0:0:
256,299,2539,2,0,P|200:312|141:308,1,98.9999969787599,2|0,0:0|0:0,0:0:0:0:
22,349,2984,6,0,L|74:341,1,38.4999988250733,2|8,0:0|1:2,0:0:0:0:
48,223,3428,2,0,L|113:235,1,60.5000018463135,2|0,0:0|0:0,0:0:0:0:
298,150,3650,5,0,1:2:0:0:
375,105,3872,1,2,0:0:0:0:
330,28,4095,1,8,1:2:0:0:
36,95,4317,6,2,P|116:136|220:131,1,181.500005538941,0|0,0:1|0:0,0:1:0:0:
292,92,4761,1,0,0:0:0:0:
292,92,4872,1,2,0:0:0:0:
292,92,4984,2,2,P|359:91|418:138,1,132,8|0,1:2|0:0,0:1:0:0:
438,232,5428,5,0,1:0:0:0:
448,308,5650,2,0,P|415:324|366:325,1,55,2|0,0:0|0:0,0:0:0:0:
433,235,5872,1,8,1:2:0:0:
319,343,6095,2,0,P|288:323|263:281,1,65.9999979858399,2|0,0:0|0:0,0:0:0:0:
145,384,6317,5,0,1:0:0:0:
145,384,6428,1,0,0:0:0:0:
145,384,6539,2,0,L|160:228,2,153.999995300293,2|8|2,0:1|1:2|0:1,0:0:0:0:
65,148,7206,5,0,1:0:0:0:
16,10,7428,1,2,0:1:0:0:
161,128,7650,1,8,1:2:0:0:
319,52,7872,6,2,P|361:36|447:44,1,131.99999597168,2|0,0:0|0:0,0:1:0:0:
238,111,8428,1,2,0:0:0:0:
238,111,8539,2,2,P|292:108|397:155,1,165,8|0,1:2|0:0,0:1:0:0:
425,244,8984,5,0,1:0:0:0:
425,244,9095,1,0,0:0:0:0:
425,244,9206,2,0,B|321:235|378:294|268:284,1,165,2|0,0:0|0:0,0:0:0:0:
202,232,9650,2,0,P|245:303|215:359,1,142.99999345398,2|0,0:0|1:0,0:0:0:0:
50,264,9984,5,0,0:0:0:0:
50,264,10095,2,0,P|72:247|93:242,1,38.4999988250733,2|8,0:0|1:2,0:0:0:0:
146,287,10428,2,0,P|115:345|63:345,1,121.000003692627,2|0,0:0|0:0,0:0:0:0:
91,152,10761,5,0,1:0:0:0:
5,122,10984,1,2,0:0:0:0:
35,36,11206,1,8,1:2:0:0:
165,116,11428,6,2,P|252:137|343:137,1,181.500005538941,2|0,0:0|0:0,0:1:0:0:
396,67,11872,1,0,0:0:0:0:
396,67,11984,1,2,0:0:0:0:
396,67,12095,2,0,P|369:27|287:40,1,131.99999597168,8|0,1:2|0:0,0:0:0:0:
210,234,12761,6,0,L|176:252,2,29.3333333333333,2|0|0,0:0|0:0|0:0,0:0:0:0:
310,231,12984,2,0,L|342:251,2,29.3333333333333,10|0|0,1:2|0:0|0:0,0:0:0:0:
258,147,13206,2,0,L|258:108,2,29.3333333333333,2|0|0,0:0|0:0|0:0,0:0:0:0:
260,204,13428,5,0,1:2:0:0:
254,205,13502,1,0,0:0:0:0:
249,201,13576,1,0,0:0:0:0:
249,195,13650,1,2,0:0:0:0:
254,192,13724,1,0,0:0:0:0:
260,193,13798,1,0,0:0:0:0:
262,198,13873,1,8,1:2:0:0:
256,366,14095,6,0,L|256:322,1,38.4999988250733,2|0,0:0|0:0,0:0:0:0:
337,202,14317,6,0,L|354:81,1,121.000003692627,4|0,1:2|0:0,0:0:0:0:
165,202,14539,2,0,L|147:81,1,121.000003692627,4|0,0:2|0:0,0:0:0:0:
253,8,14761,5,8,0:2:0:0:
275,379,14984,6,0,B|286:294|248:265|248:265|252:266|252:266|236:242|239:222|239:222|283:210|283:210|279:185|269:170|269:170|267:173|267:173|239:143|245:83,1,363.000011077881,4|0,1:1|0:0,0:0:0:0:
253,8,15428,5,2,0:0:0:0:
316,3,15539,1,2,0:0:0:0:
363,41,15650,2,2,B|430:139|439:271|267:209|344:119|452:58,1,363.000011077881,2|0,0:0|0:0,1:0:0:0:
508,104,16095,6,0,P|502:135|474:162,1,55,4|0,1:0|0:0,0:0:0:0:
379,154,16317,2,0,P|326:128|304:75,1,110,2|8,0:0|1:2,0:0:0:0:
210,12,16761,2,0,L|218:70,1,55,2|0,0:0|0:0,0:0:0:0:
185,155,16984,5,0,1:0:0:0:
168,157,17095,1,2,0:0:0:0:
142,146,17206,1,0,0:0:0:0:
119,108,17317,1,2,0:0:0:0:
135,55,17428,1,8,1:2:0:0:
112,105,17539,1,0,0:0:0:0:
60,124,17650,2,0,P|35:129|7:125,1,55,2|0,0:0|0:0,0:0:0:0:
3,288,17872,5,0,1:0:0:0:
3,288,17984,1,0,0:0:0:0:
3,288,18095,2,0,L|163:271,2,153.999995300293,2|8|2,0:0|1:2|0:0,0:0:0:0:
239,235,18650,6,0,L|223:362,1,110,2|0,0:0|0:0,0:0:0:0:
318,371,18984,2,0,L|310:316,1,55,2|0,0:0|0:0,0:0:0:0:
156,290,19206,5,8,1:2:0:0:
79,281,19317,1,0,0:0:0:0:
2,273,19428,1,2,0:0:0:0:
96,147,19650,6,0,P|85:121|85:94,1,55,0|0,1:0|0:0,0:0:0:0:
181,133,19872,2,0,P|189:102|261:65,1,110,2|8,0:0|1:2,0:0:0:0:
359,156,20317,2,0,L|413:150,1,55,2|0,0:0|0:0,0:0:0:0:
492,88,20539,5,0,1:0:0:0:
480,71,20650,2,0,P|445:54|394:62,1,88,2|2,0:0|0:0,0:0:0:0:
346,82,20984,1,8,1:2:0:0:
292,70,21095,1,0,0:0:0:0:
259,25,21206,2,0,P|228:16|199:18,1,55,2|0,0:0|0:0,0:0:0:0:
128,231,21428,5,0,1:0:0:0:
128,231,21539,1,0,0:0:0:0:
128,231,21650,2,0,L|139:395,2,153.999995300293,2|8|2,0:0|1:2|0:0,0:0:0:0:
38,348,22206,6,0,L|51:268,1,55,2|0,0:0|1:0,0:0:0:0:
210,329,22428,2,0,L|223:249,1,55,2|0,0:0|0:0,0:0:0:0:
368,344,22650,5,2,0:0:0:0:
358,289,22761,1,8,1:2:0:0:
396,248,22873,1,0,0:0:0:0:
450,246,22984,1,2,0:0:0:0:
397,229,23095,1,2,0:0:0:0:
388,156,23206,6,0,P|390:123|414:95,1,55,0|0,1:0|0:0,0:0:0:0:
289,1,23428,2,0,P|307:46|309:125,1,110,2|8,0:0|1:2,0:0:0:0:
47,143,23872,2,0,L|55:79,1,55,2|0,0:0|0:0,0:0:0:0:
100,3,24095,5,0,1:0:0:0:
105,18,24206,1,2,0:0:0:0:
126,36,24317,1,0,0:0:0:0:
165,41,24428,1,2,0:0:0:0:
211,9,24539,1,8,1:2:0:0:
176,50,24650,1,0,0:0:0:0:
175,104,24761,2,0,P|193:135|221:154,1,55,2|0,0:0|0:0,0:0:0:0:
423,228,24984,6,0,L|336:234,1,88,2|0,1:0|0:0,0:0:0:0:
308,353,25206,2,0,L|234:348,1,71.4999967269899,2|0,0:1|0:0,0:0:0:0:
212,247,25428,2,0,L|152:251,1,55,8|0,1:2|0:0,0:0:0:0:
98,325,25650,6,2,L|49:322,1,41.25,2|0,0:1|0:0,0:1:0:0:
28,251,26095,5,2,0:0:0:0:
22,235,26206,1,2,0:0:0:0:
35,229,26317,1,8,1:2:0:0:
46,239,26428,1,0,0:0:0:0:
40,252,26539,1,2,0:0:0:0:
210,150,26984,6,0,L|176:132,2,29.3333333333333,2|0|0,0:0|0:0|0:0,0:0:0:0:
310,153,27207,2,0,L|342:133,2,29.3333333333333,10|0|0,1:2|0:0|0:0,0:0:0:0:
258,237,27429,2,0,L|258:276,2,29.3333333333333,2|0|0,0:0|0:0|0:0,0:0:0:0:
260,180,27651,5,4,1:2:0:0:
254,179,27725,1,0,0:0:0:0:
249,183,27799,1,0,0:0:0:0:
249,189,27873,1,0,0:0:0:0:
254,192,27947,1,0,0:0:0:0:
260,191,28021,1,0,0:0:0:0:
262,186,28096,1,8,1:2:0:0:
256,18,28318,6,0,L|256:62,1,38.4999988250733,2|0,0:0|0:0,0:0:0:0:
357,181,28540,6,0,P|372:236|374:302,1,121.000003692627,4|0,1:2|0:0,0:0:0:0:
155,181,28761,2,0,P|140:236|138:302,1,121.000003692627,4|0,0:2|0:0,0:0:0:0:
254,376,28984,5,10,0:2:0:0:
256,18,29207,6,0,B|282:52|253:84|253:84|226:116|253:142|253:142|297:189|258:214|258:214|184:264|256:326,1,363.000011077881,4|0,1:0|0:0,0:0:0:0:
311,347,29650,5,2,0:0:0:0:
370,343,29761,1,2,0:0:0:0:
415,302,29872,2,2,B|459:231|493:53|256:96|318:253|425:211,1,363.000011077881,0|0,0:0|0:0,1:0:0:0:
488,109,30317,5,4,1:0:0:0:
488,109,30428,1,0,0:0:0:0:
488,109,30539,2,0,P|440:68|338:67,1,165,2|0,0:0|0:0,0:0:0:0:
176,49,30984,2,0,P|161:93|102:125,1,98.9999969787599,2|0,0:0|0:0,0:0:0:0:
46,104,31428,6,0,L|48:147,1,38.4999988250733,2|8,0:0|1:2,0:0:0:0:
249,87,31872,2,0,L|237:159,1,60.5000018463135,2|0,0:0|0:0,0:0:0:0:
276,362,32095,5,0,1:0:0:0:
238,280,32317,1,2,0:0:0:0:
359,354,32539,1,8,1:2:0:0:
500,247,32761,6,2,P|415:273|319:277,1,181.500005538941,2|0,0:0|0:0,0:1:0:0:
266,334,33206,1,0,0:0:0:0:
266,334,33317,1,2,0:0:0:0:
266,334,33428,2,2,P|220:306|137:336,1,132,8|0,1:2|0:0,0:1:0:0:
23,150,33872,5,0,1:0:0:0:
79,87,34095,2,0,P|107:101|152:105,1,55,2|0,0:0|0:0,0:0:0:0:
23,150,34317,1,8,1:2:0:0:
200,146,34540,2,0,P|228:132|273:128,1,65.9999979858399,2|0,0:0|0:0,0:0:0:0:
419,152,34761,5,0,1:0:0:0:
419,152,34872,1,0,0:0:0:0:
419,152,34984,2,0,L|392:-6,2,153.999995300293,2|8|2,0:1|1:2|0:1,0:0:0:0:
360,376,35650,5,0,1:0:0:0:
512,302,35872,1,2,0:1:0:0:
312,227,36095,1,8,1:2:0:0:
136,279,36317,6,2,P|62:308|29:359,1,131.99999597168,2|0,0:0|0:0,0:1:0:0:
335,325,36872,1,0,0:0:0:0:
335,325,36984,2,2,P|283:261|205:237,1,165,8|0,1:2|0:0,0:1:0:0:
25,238,37428,5,0,1:0:0:0:
256,192,37539,12,0,42761,0:0:0:0:
