osu file format v14

[General]
AudioFilename: mothership.mp3
AudioLeadIn: 0
PreviewTime: 175636
Countdown: 0
SampleSet: Soft
StackLeniency: 0.7
Mode: 3
LetterboxInBreaks: 0
SpecialStyle: 0
WidescreenStoryboard: 0

[Editor]
DistanceSpacing: 1.5
BeatDivisor: 8
GridSize: 32
TimelineZoom: 3.1

[Metadata]
Title:Mother Ship (Camellia's "KABOOOOOOOM!!" Remix)
TitleUnicode:Mother Ship (かめりあ's "KABOOOOOOOM!!" Remix)
Artist:Sota Fujimori
ArtistUnicode:Sota Fujimori
Creator:FAMoss
Version:Affect-ion IN // 4K
Source:jubeat saucer
Tags:hoto cocoa interlude- lude kamelcamellia cametek masaya oya LC-2216 LC2216 beatnation rhyze vs hardcore tano*c plus jukebeat clan fulfill dnb drum and bass instrumental electronic video game mama jack stream sv core
BeatmapID:2245375
BeatmapSetID:1072867

[Difficulty]
HPDrainRate:9.1
CircleSize:4
OverallDifficulty:8.2
ApproachRate:5
SliderMultiplier:1.4
SliderTickRate:1

[Events]
//Background and Video events
0,0,"Novelance - Garage.jpg",0,0
//Break Periods
//Storyboard Layer 0 (Background)
//Storyboard Layer 1 (Fail)
//Storyboard Layer 2 (Pass)
//Storyboard Layer 3 (Foreground)
//Storyboard Layer 4 (Overlay)
//Storyboard Sound Samples
Sample,2269,0,"tick.wav",10
Sample,3902,0,"tick.wav",10
Sample,5534,0,"tick.wav",10
Sample,7167,0,"tick.wav",10
Sample,89616,0,"electronic32.wav",20
Sample,90024,0,"electronic32.wav",20
Sample,90432,0,"electronic32.wav",20
Sample,90840,0,"electronic32.wav",20
Sample,91249,0,"electronic32.wav",20
Sample,91657,0,"electronic32.wav",20
Sample,92065,0,"electronic32.wav",20
Sample,98136,0,"VOC Lets Go.wav",50
Sample,202575,0,"VOC Music.wav",50
Sample,292065,0,"electronic32.wav",20
Sample,292473,0,"electronic32.wav",20
Sample,292881,0,"electronic32.wav",20
Sample,293289,0,"electronic32.wav",10
Sample,349565,0,"VOC Spin Again.wav",60

[TimingPoints]
1045,408.163265306122,4,2,1,20,1,0
27167,-166.666666666667,4,2,1,20,0,0
27575,-100,4,2,1,20,0,0
30432,-166.666666666667,4,2,1,20,0,0
30840,-100,4,2,1,20,0,0
30942,-166.666666666667,4,2,1,20,0,0
31044,-100,4,2,1,20,0,0
31147,-166.666666666667,4,2,1,20,0,0
31249,-100,4,2,1,20,0,0
31453,-166.666666666667,4,2,1,20,0,0
31657,-100,4,2,1,20,0,0
33187,-166.666666666667,4,2,1,20,0,0
33289,-100,4,2,1,20,0,0
33391,-166.666666666667,4,2,1,20,0,0
33596,-100,4,2,1,20,0,0
33698,-166.666666666667,4,2,1,20,0,0
34106,-100,4,2,1,20,0,0
36963,-166.666666666667,4,2,1,20,0,0
37371,-100,4,2,1,20,0,0
37473,-166.666666666667,4,2,1,20,0,0
37575,-100,4,2,1,20,0,0
37677,-166.666666666667,4,2,1,20,0,0
37779,-100,4,2,1,20,0,0
37983,-166.666666666667,4,2,1,20,0,0
38187,-100,4,2,1,20,0,0
38391,-166.666666666667,4,2,1,20,0,0
38596,-100,4,2,1,20,0,0
38800,-166.666666666667,4,2,1,20,0,0
39004,-100,4,2,1,20,0,0
39208,-166.666666666667,4,2,1,20,0,0
39412,-100,4,2,1,20,0,0
39616,-166.666666666667,4,2,1,20,0,0
39820,-125,4,2,1,20,0,0
40024,-90.9090909090908,4,2,1,20,0,0
40228,-100,4,2,1,20,0,0
66351,-100,4,2,1,30,0,0
99004,-166.666666666667,4,2,1,30,0,0
99106,-142.857142857143,4,2,1,30,0,0
99208,-125,4,2,1,30,0,0
99259,-117.647058823529,4,2,1,30,0,0
99310,-90.9090909090908,4,2,1,30,0,0
99412,-100,4,2,1,30,0,0
100636,-166.667,4,2,1,30,0,0
100738,-142.857,4,2,1,30,0,0
100840,-125,4,2,1,30,0,0
100891,-117.647,4,2,1,30,0,0
100942,-90.9091,4,2,1,30,0,0
101044,-100,4,2,1,30,0,0
102269,-166.667,4,2,1,30,0,0
102371,-142.857,4,2,1,30,0,0
102473,-125,4,2,1,30,0,0
102524,-117.647,4,2,1,30,0,0
102575,-90.9091,4,2,1,30,0,0
102677,-100,4,2,1,30,0,0
103902,-166.667,4,2,1,30,0,0
104004,-142.857,4,2,1,30,0,0
104106,-125,4,2,1,30,0,0
104157,-117.647,4,2,1,30,0,0
104208,-90.9091,4,2,1,30,0,0
104310,-100,4,2,1,30,0,0
105534,-166.667,4,2,1,30,0,0
105636,-142.857,4,2,1,30,0,0
105738,-125,4,2,1,30,0,0
105789,-117.647,4,2,1,30,0,0
105840,-90.9091,4,2,1,30,0,0
105942,-100,4,2,1,30,0,0
107167,-166.667,4,2,1,30,0,0
107269,-142.857,4,2,1,30,0,0
107371,-125,4,2,1,30,0,0
107422,-117.647,4,2,1,30,0,0
107473,-90.9091,4,2,1,30,0,0
107575,-100,4,2,1,30,0,0
108800,-166.667,4,2,1,30,0,0
108902,-142.857,4,2,1,30,0,0
109004,-125,4,2,1,30,0,0
109055,-117.647,4,2,1,30,0,0
109106,-90.9091,4,2,1,30,0,0
109208,-100,4,2,1,30,0,0
112065,-166.667,4,2,1,30,0,0
112167,-142.857,4,2,1,30,0,0
112269,-125,4,2,1,30,0,0
112320,-117.647,4,2,1,30,0,0
112371,-90.9091,4,2,1,30,0,0
112473,-100,4,2,1,30,0,0
113698,-166.667,4,2,1,30,0,0
113800,-142.857,4,2,1,30,0,0
113902,-125,4,2,1,30,0,0
113953,-117.647,4,2,1,30,0,0
114004,-90.9091,4,2,1,30,0,0
114106,-100,4,2,1,30,0,0
115330,-166.667,4,2,1,30,0,0
115432,-142.857,4,2,1,30,0,0
115534,-125,4,2,1,30,0,0
115585,-117.647,4,2,1,30,0,0
115636,-90.9091,4,2,1,30,0,0
115738,-100,4,2,1,30,0,0
118596,-166.667,4,2,1,30,0,0
118698,-142.857,4,2,1,30,0,0
118800,-125,4,2,1,30,0,0
118851,-117.647,4,2,1,30,0,0
118902,-90.9091,4,2,1,30,0,0
119004,-100,4,2,1,30,0,0
120228,-166.667,4,2,1,30,0,0
120330,-142.857,4,2,1,30,0,0
120432,-125,4,2,1,30,0,0
120483,-117.647,4,2,1,30,0,0
120534,-90.9091,4,2,1,30,0,0
120636,-100,4,2,1,30,0,0
144310,-125,4,2,1,30,0,0
144412,-117.647,4,2,1,30,0,0
144515,-111.111124691358,4,2,1,30,0,0
144616,-90.9090909090909,4,2,1,30,0,0
144719,-100,4,2,1,30,0,0
145942,-125,4,2,1,30,0,0
146147,-83.3333333333333,4,2,1,30,0,0
146351,-100,4,2,1,30,0,0
147575,-125,4,2,1,30,0,0
147780,-83.3333333333333,4,2,1,30,0,0
147984,-100,4,2,1,30,0,0
149208,-125,4,2,1,30,0,0
149413,-83.3333333333333,4,2,1,30,0,0
149617,-100,4,2,1,30,0,0
176963,-66.6666666666667,4,2,1,30,0,0
177014,-200,4,2,1,30,0,0
177065,-66.6666666666667,4,2,1,30,0,0
177116,-200,4,2,1,30,0,0
177167,-66.6666666666667,4,2,1,30,0,0
177218,-200,4,2,1,30,0,0
177269,-83.3333333333333,4,2,1,30,0,0
177371,-100,4,2,1,40,0,1
201044,-71.4285714285714,4,2,1,40,0,0
201096,-166.666666666667,4,2,1,40,0,0
201147,-71.4285714285714,4,2,1,40,0,0
201198,-166.666666666667,4,2,1,40,0,0
201249,-71.4285714285714,4,2,1,40,0,0
201300,-166.666666666667,4,2,1,40,0,0
201351,-71.4285714285714,4,2,1,40,0,0
201402,-166.666666666667,4,2,1,40,0,0
201453,-71.4285714285714,4,2,1,40,0,0
201504,-166.666666666667,4,2,1,40,0,0
201555,-71.4285714285714,4,2,1,40,0,0
201606,-166.666666666667,4,2,1,40,0,0
201657,-90.9090909090909,4,2,1,40,0,0
201708,-166.666666666667,4,2,1,40,0,0
201759,-90.9090909090909,4,2,1,40,0,0
201810,-166.666666666667,4,2,1,40,0,0
201861,-100,4,2,1,40,0,0
202677,-83.3333,4,2,1,40,0,0
202779,-125,4,2,1,40,0,0
202881,-83.3333,4,2,1,40,0,0
202983,-125,4,2,1,40,0,0
203085,-83.3333333333333,4,2,1,40,0,0
203187,-125,4,2,1,40,0,0
203289,-83.3333,4,2,1,40,0,0
203391,-125,4,2,1,40,0,0
203493,-100,4,2,1,40,0,1
223085,-166.667,4,2,1,40,0,1
223187,-142.857,4,2,1,40,0,1
223289,-125,4,2,1,40,0,1
223340,-117.647,4,2,1,40,0,1
223391,-90.9091,4,2,1,40,0,1
223493,-100,4,2,1,40,0,1
226351,-83.3333333333333,4,2,1,40,0,1
226504,-125,4,2,1,40,0,1
226657,-83.3333,4,2,1,40,0,1
226810,-125,4,2,1,40,0,1
226963,-83.3333,4,2,1,40,0,1
227116,-125,4,2,1,40,0,1
227269,-83.3333,4,2,1,40,0,1
227422,-125,4,2,1,40,0,1
227575,-83.3333,4,2,1,40,0,1
227677,-125,4,2,1,40,0,1
227779,-83.3333,4,2,1,40,0,1
227881,-125,4,2,1,40,0,1
227983,-90.9090909090909,4,2,1,40,0,1
228800,-83.3333333333333,4,2,1,40,0,1
229004,-142.857142857143,4,2,1,40,0,1
229208,-124.999859375018,4,2,1,40,0,1
229412,-111.111124691358,4,2,1,40,0,1
229514,-83.3333409722222,4,2,1,40,0,1
229616,-100,4,2,1,40,0,0
232881,-100,4,2,1,30,0,0
239412,-100,4,2,1,20,0,0
255738,-166.667,4,2,1,20,0,0
256146,-100,4,2,1,20,0,0
259003,-166.667,4,2,1,20,0,0
259411,-100,4,2,1,20,0,0
259513,-166.667,4,2,1,20,0,0
259615,-100,4,2,1,20,0,0
259718,-166.667,4,2,1,20,0,0
259820,-100,4,2,1,20,0,0
260024,-166.667,4,2,1,20,0,0
260228,-100,4,2,1,20,0,0
261758,-166.667,4,2,1,20,0,0
261860,-100,4,2,1,20,0,0
261962,-166.667,4,2,1,20,0,0
262167,-100,4,2,1,20,0,0
262269,-166.667,4,2,1,20,0,0
262677,-100,4,2,1,20,0,0
265534,-166.667,4,2,1,20,0,0
265942,-100,4,2,1,20,0,0
266044,-166.667,4,2,1,20,0,0
266146,-100,4,2,1,20,0,0
266248,-166.667,4,2,1,20,0,0
266350,-100,4,2,1,20,0,0
266554,-166.667,4,2,1,20,0,0
266758,-100,4,2,1,20,0,0
266962,-166.667,4,2,1,20,0,0
267167,-100,4,2,1,20,0,0
267371,-166.667,4,2,1,20,0,0
267575,-100,4,2,1,20,0,0
267779,-166.667,4,2,1,20,0,0
267983,-100,4,2,1,20,0,0
298187,-100,4,2,1,40,0,1
317779,-100,4,2,1,40,0,0
324310,-100,4,2,1,40,0,1
336453,-83.3333333333333,4,2,1,40,0,1
336504,-125,4,2,1,40,0,1
336657,-100,4,2,1,40,0,1
336759,-83.3333,4,2,1,40,0,1
336810,-125,4,2,1,40,0,1
336963,-100,4,2,1,40,0,1
343902,-100,4,2,1,40,0,0
345126,-125,4,2,1,40,0,0
345331,-83.3333333333333,4,2,1,40,0,0
345535,-100,4,2,1,40,0,0
346759,-125,4,2,1,40,0,0
346964,-83.3333333333333,4,2,1,40,0,0
347168,-100,4,2,1,40,0,0
348391,-125,4,2,1,40,0,0
348596,-83.3333333333333,4,2,1,40,0,0
348800,-100,4,2,1,40,0,0
350432,-166.667,4,2,1,40,0,1
350534,-142.857,4,2,1,40,0,1
350636,-125,4,2,1,40,0,1
350687,-117.647,4,2,1,40,0,1
350738,-90.9091,4,2,1,40,0,1
350840,-100,4,2,1,40,0,1
352064,-166.667,4,2,1,40,0,1
352166,-142.857,4,2,1,40,0,1
352268,-125,4,2,1,40,0,1
352319,-117.647,4,2,1,40,0,1
352370,-90.9091,4,2,1,40,0,1
352472,-100,4,2,1,40,0,1
353697,-166.667,4,2,1,40,0,1
353799,-142.857,4,2,1,40,0,1
353901,-125,4,2,1,40,0,1
353952,-117.647,4,2,1,40,0,1
354003,-90.9091,4,2,1,40,0,1
354105,-100,4,2,1,40,0,1
355330,-166.667,4,2,1,40,0,1
355432,-142.857,4,2,1,40,0,1
355534,-125,4,2,1,40,0,1
355585,-117.647,4,2,1,40,0,1
355636,-90.9091,4,2,1,40,0,1
355738,-100,4,2,1,40,0,1
356962,-166.667,4,2,1,40,0,1
357064,-142.857,4,2,1,40,0,1
357166,-125,4,2,1,40,0,1
357217,-117.647,4,2,1,40,0,1
357268,-90.9091,4,2,1,40,0,1
357370,-100,4,2,1,40,0,1
358595,-166.667,4,2,1,40,0,1
358697,-142.857,4,2,1,40,0,1
358799,-125,4,2,1,40,0,1
358850,-117.647,4,2,1,40,0,1
358901,-90.9091,4,2,1,40,0,1
359003,-100,4,2,1,40,0,1
360228,-166.667,4,2,1,40,0,1
360330,-142.857,4,2,1,40,0,1
360432,-125,4,2,1,40,0,1
360483,-117.647,4,2,1,40,0,1
360534,-90.9091,4,2,1,40,0,1
360636,-100,4,2,1,40,0,1
361861,-166.667,4,2,1,40,0,1
361963,-142.857,4,2,1,40,0,1
362065,-125,4,2,1,40,0,1
362116,-117.647,4,2,1,40,0,1
362167,-90.9091,4,2,1,40,0,1
362269,-100,4,2,1,40,0,1
363493,-166.667,4,2,1,40,0,1
363595,-142.857,4,2,1,40,0,1
363697,-125,4,2,1,40,0,1
363748,-117.647,4,2,1,40,0,1
363799,-90.9091,4,2,1,40,0,1
363901,-100,4,2,1,40,0,1
365126,-166.667,4,2,1,40,0,1
365228,-142.857,4,2,1,40,0,1
365330,-125,4,2,1,40,0,1
365381,-117.647,4,2,1,40,0,1
365432,-90.9091,4,2,1,40,0,1
365534,-100,4,2,1,40,0,1
366759,-166.667,4,2,1,40,0,1
366861,-142.857,4,2,1,40,0,1
366963,-125,4,2,1,40,0,1
367014,-117.647,4,2,1,40,0,1
367065,-90.9091,4,2,1,40,0,1
367167,-100,4,2,1,40,0,1
368391,-166.667,4,2,1,40,0,1
368493,-142.857,4,2,1,40,0,1
368595,-125,4,2,1,40,0,1
368646,-117.647,4,2,1,40,0,1
368697,-90.9091,4,2,1,40,0,1
368799,-100,4,2,1,40,0,1
370024,-166.667,4,2,1,40,0,1
370126,-142.857,4,2,1,40,0,1
370228,-125,4,2,1,40,0,1
370279,-117.647,4,2,1,40,0,1
370330,-90.9091,4,2,1,40,0,1
370432,-100,4,2,1,40,0,1
371657,-166.667,4,2,1,40,0,1
371759,-142.857,4,2,1,40,0,1
371861,-125,4,2,1,40,0,1
371912,-117.647,4,2,1,40,0,1
371963,-90.9091,4,2,1,40,0,1
372065,-100,4,2,1,40,0,1
373289,-166.667,4,2,1,40,0,0
373391,-142.857,4,2,1,40,0,0
373493,-125,4,2,1,40,0,0
373544,-117.647,4,2,1,40,0,0
373595,-90.9091,4,2,1,40,0,0
373697,-100,4,2,1,40,0,0
374922,-166.667,4,2,1,40,0,0
375024,-142.857,4,2,1,40,0,0
375126,-125,4,2,1,40,0,0
375177,-117.647,4,2,1,40,0,0
375228,-90.9091,4,2,1,40,0,0
375330,-100,4,2,1,40,0,0
376555,-100,4,2,1,30,0,0
383085,-100,4,2,1,20,0,0

[HitObjects]
448,192,1045,5,0,0:0:0:0:
320,192,1249,1,0,0:0:0:0:
64,192,1453,1,0,0:0:0:10:tick.wav
192,192,1657,1,0,0:0:0:0:
448,192,1861,1,0,0:0:0:0:
448,192,2167,1,0,0:0:0:0:
192,192,2473,1,0,0:0:0:0:
192,192,2677,1,0,0:0:0:0:
320,192,2881,1,0,0:0:0:0:
320,192,3085,1,0,0:0:0:10:tick.wav
448,192,3289,1,0,0:0:0:0:
64,192,3493,1,0,0:0:0:0:
320,192,3596,1,0,0:0:0:0:
64,192,3800,1,0,0:0:0:0:
192,192,4004,1,0,0:0:0:0:
320,192,4106,1,0,0:0:0:0:
448,192,4208,1,0,0:0:0:0:
64,192,4310,1,0,0:0:0:0:
192,192,4514,1,0,0:0:0:0:
448,192,4718,1,0,0:0:0:10:tick.wav
320,192,4922,1,0,0:0:0:0:
64,192,5126,1,0,0:0:0:0:
64,192,5432,1,0,0:0:0:0:
320,192,5738,1,0,0:0:0:0:
320,192,5942,1,0,0:0:0:0:
192,192,6147,1,0,0:0:0:0:
192,192,6351,1,0,0:0:0:10:tick.wav
64,192,6555,1,0,0:0:0:0:
320,192,6657,1,0,0:0:0:0:
448,192,6759,1,0,0:0:0:0:
192,192,6861,1,0,0:0:0:0:
448,192,7065,1,0,0:0:0:0:
320,192,7269,1,0,0:0:0:0:
192,192,7371,1,0,0:0:0:0:
64,192,7473,1,0,0:0:0:0:
448,192,7575,1,0,0:0:0:0:
320,192,7779,1,0,0:0:0:0:
64,192,7983,1,0,0:0:0:20:tick.wav
192,192,8187,1,0,0:0:0:0:
448,192,8391,1,0,0:0:0:0:
448,192,8698,1,0,0:0:0:0:
64,192,8800,1,0,0:0:0:20:tick.wav
192,192,9004,1,0,0:0:0:0:
192,192,9208,1,0,0:0:0:0:
320,192,9412,1,0,0:0:0:0:
320,192,9616,1,0,0:0:0:20:tick.wav
448,192,9820,1,0,0:0:0:0:
64,192,10024,1,0,0:0:0:0:
320,192,10126,1,0,0:0:0:0:
64,192,10330,1,0,0:0:0:0:
448,192,10432,1,0,0:0:0:20:tick.wav
192,192,10534,1,0,0:0:0:0:
320,192,10636,1,0,0:0:0:0:
448,192,10738,1,0,0:0:0:0:
64,192,10840,1,0,0:0:0:0:
192,192,11044,1,0,0:0:0:0:
448,192,11249,1,0,0:0:0:20:tick.wav
320,192,11453,1,0,0:0:0:0:
64,192,11657,1,0,0:0:0:0:
64,192,11963,1,0,0:0:0:0:
448,192,12065,1,0,0:0:0:20:tick.wav
320,192,12269,1,0,0:0:0:0:
320,192,12473,1,0,0:0:0:0:
192,192,12677,1,0,0:0:0:0:
192,192,12881,1,0,0:0:0:20:tick.wav
64,192,13085,1,0,0:0:0:0:
320,192,13187,1,0,0:0:0:0:
448,192,13289,1,0,0:0:0:0:
192,192,13391,1,0,0:0:0:0:
448,192,13596,1,0,0:0:0:0:
64,192,13698,1,0,0:0:0:20:tick.wav
320,192,13800,1,0,0:0:0:0:
192,192,13902,1,0,0:0:0:0:
64,192,14004,1,0,0:0:0:0:
448,192,14106,1,0,0:0:0:0:
320,192,14310,1,0,0:0:0:0:
64,192,14514,1,0,0:0:0:30:tick.wav
192,192,14718,1,0,0:0:0:0:
448,192,14922,1,0,0:0:0:0:
448,192,15228,1,0,0:0:0:0:
64,192,15330,1,0,0:0:0:30:tick.wav
192,192,15534,1,0,0:0:0:0:
192,192,15738,1,0,0:0:0:0:
320,192,15942,1,0,0:0:0:0:
320,192,16147,1,0,0:0:0:30:tick.wav
448,192,16351,1,0,0:0:0:0:
64,192,16555,1,0,0:0:0:0:
320,192,16657,1,0,0:0:0:0:
64,192,16861,1,0,0:0:0:0:
448,192,16963,1,0,0:0:0:30:tick.wav
192,192,17065,1,0,0:0:0:0:
320,192,17167,1,0,0:0:0:0:
448,192,17269,1,0,0:0:0:0:
64,192,17371,1,0,0:0:0:0:
192,192,17575,1,0,0:0:0:0:
448,192,17779,1,0,0:0:0:30:tick.wav
320,192,17983,1,0,0:0:0:0:
64,192,18187,1,0,0:0:0:0:
64,192,18493,1,0,0:0:0:0:
448,192,18596,1,0,0:0:0:30:tick.wav
320,192,18800,1,0,0:0:0:0:
320,192,19004,1,0,0:0:0:0:
192,192,19208,1,0,0:0:0:0:
192,192,19412,1,0,0:0:0:30:tick.wav
64,192,19616,1,0,0:0:0:0:
320,192,19718,1,0,0:0:0:0:
448,192,19820,1,0,0:0:0:0:
192,192,19922,1,0,0:0:0:0:
448,192,20126,1,0,0:0:0:0:
64,192,20228,1,0,0:0:0:30:tick.wav
320,192,20330,1,0,0:0:0:0:
192,192,20432,1,0,0:0:0:0:
64,192,20534,1,0,0:0:0:0:
448,192,20636,1,0,0:0:0:0:
320,192,20840,1,0,0:0:0:0:
64,192,21044,1,0,0:0:0:40:tick.wav
192,192,21249,1,0,0:0:0:0:
448,192,21453,1,0,0:0:0:0:
448,192,21759,1,0,0:0:0:0:
64,192,21861,1,0,0:0:0:40:tick.wav
192,192,22065,1,0,0:0:0:0:
64,192,22269,1,0,0:0:0:0:
192,192,22269,1,0,0:0:0:0:
320,192,22473,1,0,0:0:0:0:
320,192,22677,1,0,0:0:0:40:tick.wav
448,192,22677,1,0,0:0:0:0:
448,192,22881,1,0,0:0:0:0:
64,192,23085,1,0,0:0:0:0:
192,192,23085,128,0,23902:0:0:0:0:
448,192,23187,1,0,0:0:0:0:
320,192,23391,1,0,0:0:0:0:
448,192,23493,1,0,0:0:0:40:tick.wav
64,192,23596,1,0,0:0:0:0:
320,192,23698,1,0,0:0:0:0:
64,192,23902,1,2,0:0:0:0:
320,192,23902,1,4,0:0:0:0:
448,192,23902,1,0,0:0:0:0:
448,192,24106,1,0,0:0:0:0:
64,192,24310,1,0,0:0:0:40:tick.wav
192,192,24310,1,0,0:0:0:0:
64,192,24514,1,0,0:0:0:0:
320,192,24718,1,0,0:0:0:0:
448,192,24718,1,0,0:0:0:0:
64,192,24922,1,0,0:0:0:0:
320,192,24922,1,0,0:0:0:0:
64,192,25126,1,0,0:0:0:40:tick.wav
192,192,25126,1,0,0:0:0:0:
192,192,25330,1,0,0:0:0:0:
448,192,25330,1,0,0:0:0:0:
320,192,25534,1,2,0:0:0:0:
448,192,25534,1,0,0:0:0:0:
64,192,25738,1,2,0:0:0:0:
320,192,25738,1,0,0:0:0:0:
64,192,25942,1,2,0:0:0:0:
192,192,25942,1,0,0:0:0:40:tick.wav
320,192,26044,1,2,0:0:0:0:
448,192,26044,1,0,0:0:0:0:
64,192,26147,1,2,0:0:0:0:
192,192,26147,1,0,0:0:0:0:
320,192,26249,1,2,0:0:0:0:
448,192,26249,1,0,0:0:0:0:
64,192,26351,1,2,0:0:0:0:
192,192,26351,1,0,0:0:0:0:
320,192,26453,1,2,0:0:0:0:
448,192,26453,1,0,0:0:0:0:
64,192,26555,1,2,0:0:0:0:
192,192,26555,1,0,0:0:0:0:
320,192,26657,1,2,0:0:0:0:
448,192,26657,1,0,0:0:0:0:
64,192,26759,1,2,0:0:0:0:
192,192,26759,1,0,0:0:0:40:tick.wav
320,192,26963,1,0,0:0:0:0:
64,192,27167,128,2,27575:0:0:0:0:
320,192,27167,128,0,27575:0:0:0:50:cymbal.wav
448,192,27167,128,0,27575:0:0:0:0:
448,192,27677,1,0,0:0:0:0:
64,192,27779,1,0,0:0:0:0:
192,192,27881,1,0,0:0:0:0:
320,192,27983,1,0,0:0:0:0:
64,192,28085,1,0,0:0:0:0:
448,192,28187,1,0,0:0:0:0:
320,192,28289,1,0,0:0:0:0:
192,192,28391,1,0,0:0:0:0:
448,192,28493,1,0,0:0:0:0:
64,192,28596,1,0,0:0:0:0:
64,192,28800,1,0,0:0:0:0:
320,192,28902,1,0,0:0:0:0:
192,192,29004,1,0,0:0:0:0:
448,192,29106,1,0,0:0:0:0:
320,192,29208,1,0,0:0:0:0:
64,192,29310,1,0,0:0:0:0:
192,192,29412,1,0,0:0:0:0:
448,192,29514,1,0,0:0:0:0:
64,192,29616,1,0,0:0:0:0:
320,192,29718,1,0,0:0:0:0:
192,192,29820,1,0,0:0:0:0:
64,192,29922,1,0,0:0:0:0:
448,192,30024,1,0,0:0:0:0:
192,192,30126,1,0,0:0:0:0:
320,192,30228,1,0,0:0:0:0:
192,192,30330,1,0,0:0:0:0:
64,192,30432,128,2,30840:0:0:0:0:
320,192,30432,128,0,30840:0:0:0:50:cymbal.wav
448,192,30432,128,0,30840:0:0:0:0:
64,192,30942,128,2,31044:0:0:0:0:
320,192,30942,128,0,31044:0:0:0:50:cymbal.wav
448,192,30942,128,0,31044:0:0:0:0:
64,192,31147,128,2,31249:0:0:0:0:
320,192,31147,128,0,31249:0:0:0:50:cymbal.wav
448,192,31147,128,0,31249:0:0:0:0:
64,192,31453,128,2,31657:0:0:0:0:
320,192,31453,128,0,31657:0:0:0:50:cymbal.wav
448,192,31453,128,0,31657:0:0:0:0:
192,192,31759,1,0,0:0:0:0:
448,192,31861,1,0,0:0:0:0:
448,192,32065,1,0,0:0:0:0:
192,192,32167,1,0,0:0:0:0:
320,192,32269,1,0,0:0:0:0:
64,192,32371,1,0,0:0:0:0:
192,192,32473,1,0,0:0:0:0:
448,192,32575,1,0,0:0:0:0:
320,192,32677,1,0,0:0:0:0:
64,192,32779,1,0,0:0:0:0:
448,192,32881,1,0,0:0:0:0:
192,192,32983,1,0,0:0:0:0:
320,192,33085,1,0,0:0:0:0:
64,192,33187,128,2,33289:0:0:0:0:
192,192,33187,128,0,33289:0:0:0:50:cymbal.wav
448,192,33187,128,0,33289:0:0:0:0:
64,192,33391,128,2,33596:0:0:0:0:
192,192,33391,128,0,33596:0:0:0:50:cymbal.wav
320,192,33391,128,0,33596:0:0:0:0:
64,192,33698,128,2,34106:0:0:0:0:
320,192,33698,128,0,34106:0:0:0:50:cymbal.wav
448,192,33698,128,0,34106:0:0:0:0:
448,192,34208,1,0,0:0:0:0:
64,192,34310,1,0,0:0:0:0:
192,192,34412,1,0,0:0:0:0:
320,192,34514,1,0,0:0:0:0:
64,192,34616,1,0,0:0:0:0:
448,192,34718,1,0,0:0:0:0:
320,192,34820,1,0,0:0:0:0:
192,192,34922,1,0,0:0:0:0:
448,192,35024,1,0,0:0:0:0:
64,192,35126,1,0,0:0:0:0:
448,192,35228,1,0,0:0:0:0:
64,192,35330,1,0,0:0:0:0:
320,192,35432,1,0,0:0:0:0:
192,192,35534,1,0,0:0:0:0:
448,192,35636,1,0,0:0:0:0:
320,192,35738,1,0,0:0:0:0:
64,192,35840,1,0,0:0:0:0:
192,192,35942,1,0,0:0:0:0:
448,192,36044,1,0,0:0:0:0:
64,192,36147,1,0,0:0:0:0:
320,192,36249,1,0,0:0:0:0:
192,192,36351,1,0,0:0:0:0:
64,192,36453,1,0,0:0:0:0:
448,192,36555,1,0,0:0:0:0:
64,192,36657,1,0,0:0:0:0:
320,192,36759,1,0,0:0:0:0:
192,192,36861,1,0,0:0:0:0:
64,192,36963,128,2,37371:0:0:0:0:
320,192,36963,128,0,37371:0:0:0:50:cymbal.wav
448,192,36963,128,0,37371:0:0:0:0:
64,192,37473,128,2,37575:0:0:0:0:
320,192,37473,128,0,37575:0:0:0:50:cymbal.wav
448,192,37473,128,0,37575:0:0:0:0:
64,192,37677,128,2,37779:0:0:0:0:
320,192,37677,128,0,37779:0:0:0:50:cymbal.wav
448,192,37677,128,0,37779:0:0:0:0:
64,192,37983,128,2,38187:0:0:0:0:
192,192,37983,128,0,38187:0:0:0:50:cymbal.wav
448,192,37983,128,0,38187:0:0:0:0:
64,192,38391,128,2,38596:0:0:0:0:
320,192,38391,128,0,38596:0:0:0:50:cymbal.wav
448,192,38391,128,0,38596:0:0:0:0:
64,192,38800,128,2,39004:0:0:0:0:
192,192,38800,128,0,39004:0:0:0:50:cymbal.wav
320,192,38800,128,0,39004:0:0:0:0:
192,192,39208,128,2,39412:0:0:0:0:
320,192,39208,128,0,39412:0:0:0:50:cymbal.wav
448,192,39208,128,0,39412:0:0:0:0:
64,192,39616,128,2,40126:0:0:0:0:
192,192,39616,128,0,40126:0:0:0:50:cymbal.wav
320,192,39616,128,0,40126:0:0:0:0:
448,192,39616,128,0,40126:0:0:0:0:
64,192,40228,1,2,0:0:0:0:
192,192,40228,1,4,0:0:0:0:
320,192,40228,1,0,0:0:0:50:snare_wave.wav
448,192,40228,1,0,0:0:0:0:
64,192,40432,1,0,0:0:0:0:
192,192,40534,1,0,0:0:0:0:
320,192,40636,1,0,0:0:0:0:
448,192,40840,1,0,0:0:0:0:
320,192,40942,1,0,0:0:0:0:
192,192,41044,1,0,0:0:0:0:
64,192,41249,1,0,0:0:0:0:
320,192,41351,1,0,0:0:0:0:
192,192,41453,1,0,0:0:0:0:
448,192,41657,1,0,0:0:0:0:
192,192,41759,1,0,0:0:0:0:
320,192,41861,1,2,0:0:0:0:
64,192,42065,1,0,0:0:0:0:
192,192,42167,1,0,0:0:0:0:
320,192,42269,1,0,0:0:0:0:
448,192,42473,1,0,0:0:0:0:
320,192,42575,1,0,0:0:0:0:
192,192,42677,1,0,0:0:0:0:
64,192,42881,1,0,0:0:0:0:
320,192,42983,1,0,0:0:0:0:
192,192,43085,1,0,0:0:0:0:
448,192,43289,1,0,0:0:0:0:
192,192,43391,1,0,0:0:0:0:
320,192,43493,1,2,0:0:0:0:
64,192,43698,1,0,0:0:0:0:
192,192,43800,1,0,0:0:0:0:
320,192,43902,1,0,0:0:0:0:
448,192,44106,1,0,0:0:0:0:
320,192,44208,1,0,0:0:0:0:
192,192,44310,1,0,0:0:0:0:
64,192,44514,1,0,0:0:0:0:
320,192,44616,1,0,0:0:0:0:
192,192,44718,1,0,0:0:0:0:
448,192,44922,1,0,0:0:0:0:
192,192,45024,1,0,0:0:0:0:
320,192,45126,1,2,0:0:0:0:
64,192,45330,1,0,0:0:0:0:
192,192,45432,1,0,0:0:0:0:
320,192,45534,1,0,0:0:0:0:
448,192,45738,1,0,0:0:0:0:
320,192,45840,1,0,0:0:0:0:
192,192,45942,1,0,0:0:0:0:
64,192,46147,1,0,0:0:0:0:
320,192,46249,1,0,0:0:0:0:
192,192,46351,1,0,0:0:0:0:
448,192,46555,1,0,0:0:0:0:
192,192,46657,1,0,0:0:0:0:
320,192,46759,1,2,0:0:0:0:
448,192,46759,1,0,0:0:0:0:
64,192,46963,128,0,47065:0:0:0:0:
192,192,47065,1,0,0:0:0:0:
320,192,47167,1,0,0:0:0:0:
448,192,47371,128,0,47473:0:0:0:0:
320,192,47473,1,0,0:0:0:0:
192,192,47575,1,0,0:0:0:0:
64,192,47779,128,0,47881:0:0:0:0:
320,192,47881,1,0,0:0:0:0:
192,192,47983,1,0,0:0:0:0:
448,192,48187,128,0,48289:0:0:0:0:
192,192,48289,1,0,0:0:0:0:
320,192,48391,1,2,0:0:0:0:
448,192,48391,1,0,0:0:0:0:
64,192,48596,1,0,0:0:0:0:
192,192,48698,1,0,0:0:0:0:
320,192,48800,1,0,0:0:0:0:
448,192,49004,1,0,0:0:0:0:
320,192,49106,1,0,0:0:0:0:
192,192,49208,1,0,0:0:0:0:
64,192,49412,1,0,0:0:0:0:
320,192,49514,1,0,0:0:0:0:
192,192,49616,1,0,0:0:0:0:
448,192,49820,1,0,0:0:0:0:
192,192,49922,1,0,0:0:0:0:
320,192,50024,1,2,0:0:0:0:
448,192,50024,1,0,0:0:0:0:
64,192,50228,1,0,0:0:0:0:
192,192,50330,1,0,0:0:0:0:
320,192,50432,1,0,0:0:0:0:
448,192,50636,1,0,0:0:0:0:
320,192,50738,1,0,0:0:0:0:
64,192,50840,1,2,0:0:0:0:
192,192,50840,1,0,0:0:0:0:
64,192,51044,1,0,0:0:0:0:
320,192,51147,1,0,0:0:0:0:
192,192,51249,1,0,0:0:0:0:
448,192,51453,1,0,0:0:0:0:
192,192,51555,1,0,0:0:0:0:
320,192,51657,1,2,0:0:0:0:
448,192,51657,1,0,0:0:0:0:
64,192,51861,1,0,0:0:0:0:
192,192,51963,1,0,0:0:0:0:
320,192,52065,1,0,0:0:0:0:
448,192,52269,1,0,0:0:0:0:
320,192,52371,1,0,0:0:0:0:
64,192,52473,1,2,0:0:0:0:
192,192,52473,1,0,0:0:0:0:
64,192,52677,1,0,0:0:0:0:
320,192,52779,1,0,0:0:0:0:
192,192,52881,1,0,0:0:0:0:
448,192,53085,1,0,0:0:0:0:
192,192,53187,1,0,0:0:0:0:
64,192,53289,1,4,0:0:0:0:
320,192,53289,1,2,0:0:0:0:
448,192,53289,1,0,0:0:0:50:snare_wave.wav
64,192,53493,128,0,53596:0:0:0:0:
192,192,53596,1,0,0:0:0:0:
320,192,53698,1,2,0:0:0:0:
448,192,53698,1,0,0:0:0:0:
448,192,53902,128,0,54004:0:0:0:0:
320,192,54004,1,0,0:0:0:0:
64,192,54106,1,2,0:0:0:0:
192,192,54106,1,0,0:0:0:0:
192,192,54310,128,0,54412:0:0:0:0:
320,192,54412,1,0,0:0:0:0:
64,192,54514,1,2,0:0:0:0:
448,192,54514,1,0,0:0:0:0:
320,192,54718,128,0,54820:0:0:0:0:
192,192,54820,1,0,0:0:0:0:
64,192,54922,1,2,0:0:0:0:
448,192,54922,1,0,0:0:0:0:
64,192,55126,1,0,0:0:0:0:
192,192,55228,1,0,0:0:0:0:
320,192,55330,1,2,0:0:0:0:
448,192,55330,1,0,0:0:0:0:
448,192,55534,1,0,0:0:0:0:
320,192,55636,1,0,0:0:0:0:
64,192,55738,1,2,0:0:0:0:
192,192,55738,1,0,0:0:0:0:
192,192,55942,1,0,0:0:0:0:
320,192,56044,1,0,0:0:0:0:
64,192,56147,1,2,0:0:0:0:
448,192,56147,1,0,0:0:0:0:
320,192,56351,1,0,0:0:0:0:
192,192,56453,1,0,0:0:0:0:
64,192,56555,1,2,0:0:0:0:
448,192,56555,1,0,0:0:0:0:
64,192,56759,1,0,0:0:0:0:
192,192,56861,1,0,0:0:0:0:
320,192,56963,1,2,0:0:0:0:
448,192,56963,1,0,0:0:0:0:
448,192,57167,1,0,0:0:0:0:
320,192,57269,1,0,0:0:0:0:
64,192,57371,1,2,0:0:0:0:
192,192,57371,1,0,0:0:0:0:
192,192,57575,1,0,0:0:0:0:
320,192,57677,1,0,0:0:0:0:
64,192,57779,1,2,0:0:0:0:
448,192,57779,1,0,0:0:0:0:
320,192,57983,1,0,0:0:0:0:
192,192,58085,1,0,0:0:0:0:
64,192,58187,1,2,0:0:0:0:
448,192,58187,1,0,0:0:0:0:
64,192,58391,1,0,0:0:0:0:
192,192,58493,1,0,0:0:0:0:
320,192,58596,1,2,0:0:0:0:
448,192,58596,1,0,0:0:0:0:
448,192,58800,1,0,0:0:0:0:
320,192,58902,1,0,0:0:0:0:
64,192,59004,1,2,0:0:0:0:
192,192,59004,1,0,0:0:0:0:
192,192,59208,1,0,0:0:0:0:
320,192,59310,1,0,0:0:0:0:
64,192,59412,1,2,0:0:0:0:
448,192,59412,1,0,0:0:0:0:
320,192,59616,1,0,0:0:0:0:
192,192,59718,1,0,0:0:0:0:
64,192,59820,1,2,0:0:0:0:
448,192,59820,1,0,0:0:0:0:
64,192,60024,128,0,60126:0:0:0:0:
192,192,60126,1,0,0:0:0:0:
320,192,60228,1,2,0:0:0:0:
448,192,60228,1,0,0:0:0:0:
448,192,60432,128,0,60534:0:0:0:0:
320,192,60534,1,0,0:0:0:0:
64,192,60636,1,2,0:0:0:0:
192,192,60636,1,0,0:0:0:0:
192,192,60840,128,0,60942:0:0:0:0:
320,192,60942,1,0,0:0:0:0:
64,192,61044,1,2,0:0:0:0:
448,192,61044,1,0,0:0:0:0:
320,192,61249,128,0,61351:0:0:0:0:
192,192,61351,1,0,0:0:0:0:
64,192,61453,1,2,0:0:0:0:
448,192,61453,1,0,0:0:0:0:
64,192,61657,1,0,0:0:0:0:
192,192,61759,1,0,0:0:0:0:
448,192,61861,1,0,0:0:0:0:
320,192,61861,1,0,0:0:0:40:electronic32.wav
64,192,61861,1,0,0:0:0:0:
320,192,62065,1,0,0:0:0:0:
192,192,62167,1,0,0:0:0:0:
64,192,62269,1,2,0:0:0:0:
448,192,62269,1,0,0:0:0:0:
448,192,62473,1,0,0:0:0:0:
320,192,62575,1,0,0:0:0:0:
192,192,62677,1,0,0:0:0:0:
64,192,62677,1,0,0:0:0:40:electronic32.wav
448,192,62677,1,0,0:0:0:0:
192,192,62881,1,0,0:0:0:0:
320,192,62983,1,0,0:0:0:0:
192,192,63085,1,0,0:0:0:0:
448,192,63085,1,0,0:0:0:0:
64,192,63085,1,0,0:0:0:40:electronic32.wav
64,192,63289,1,0,0:0:0:0:
192,192,63391,1,0,0:0:0:0:
320,192,63493,1,0,0:0:0:40:electronic32.wav
448,192,63493,1,0,0:0:0:0:
64,192,63493,1,0,0:0:0:0:
320,192,63698,1,0,0:0:0:0:
192,192,63800,1,0,0:0:0:0:
448,192,63902,1,0,0:0:0:0:
320,192,63902,1,0,0:0:0:40:electronic32.wav
64,192,63902,1,0,0:0:0:0:
192,192,64004,1,0,0:0:0:0:
64,192,64106,1,0,0:0:0:40:electronic32.wav
448,192,64106,1,0,0:0:0:0:
320,192,64208,1,0,0:0:0:0:
192,192,64310,1,0,0:0:0:40:electronic32.wav
64,192,64310,1,0,0:0:0:0:
448,192,64412,1,0,0:0:0:40:electronic32.wav
320,192,64412,1,0,0:0:0:0:
64,192,64514,1,0,0:0:0:40:electronic32.wav
192,192,64565,1,0,0:0:0:40:electronic32.wav
320,192,64616,1,0,0:0:0:40:electronic32.wav
64,192,64718,1,2,0:0:0:0:
448,192,64718,128,0,64922:0:0:0:0:
192,192,64922,128,0,65126:0:0:0:0:
320,192,65126,1,0,0:0:0:0:
64,192,65228,128,0,65432:0:0:0:0:
448,192,65432,1,0,0:0:0:0:
64,192,65534,1,0,0:0:0:100:LR_Snare Drum 2.wav
192,192,65534,1,0,0:0:0:0:
192,192,65738,1,0,0:0:0:0:
320,192,65840,1,0,0:0:0:40:electronic32.wav
448,192,65840,1,0,0:0:0:0:
64,192,65942,1,0,0:0:0:100:LR_Snare Drum 2.wav
192,192,65942,1,0,0:0:0:0:
320,192,66147,1,0,0:0:0:40:electronic32.wav
64,192,66198,1,0,0:0:0:40:electronic32.wav
192,192,66249,1,0,0:0:0:40:electronic32.wav
320,192,66300,1,0,0:0:0:40:electronic32.wav
64,192,66351,1,4,0:0:0:0:
192,192,66351,1,0,0:0:0:50:snare_wave.wav
448,192,66351,1,0,0:0:0:40:electronic32.wav
64,192,66555,1,2,0:0:0:0:
448,192,66555,1,0,0:0:0:0:
192,192,66657,1,2,0:0:0:0:
320,192,66759,1,0,0:0:0:40:electronic32.wav
448,192,66759,1,0,0:0:0:0:
64,192,66963,1,2,0:0:0:0:
448,192,66963,1,0,0:0:0:0:
192,192,67065,1,2,0:0:0:0:
320,192,67167,1,0,0:0:0:40:electronic32.wav
448,192,67167,1,0,0:0:0:0:
64,192,67371,1,2,0:0:0:0:
192,192,67371,1,0,0:0:0:0:
320,192,67473,1,2,0:0:0:0:
448,192,67473,1,0,0:0:0:0:
64,192,67575,1,0,0:0:0:40:electronic32.wav
192,192,67575,1,0,0:0:0:0:
448,192,67575,1,0,0:0:0:0:
320,192,67779,1,2,0:0:0:0:
448,192,67779,1,0,0:0:0:0:
64,192,67881,1,2,0:0:0:0:
192,192,67881,1,0,0:0:0:0:
320,192,67983,1,0,0:0:0:40:electronic32.wav
448,192,67983,1,0,0:0:0:0:
64,192,68187,1,2,0:0:0:0:
192,192,68187,1,0,0:0:0:0:
320,192,68289,1,2,0:0:0:0:
64,192,68391,1,0,0:0:0:40:electronic32.wav
448,192,68391,1,0,0:0:0:0:
64,192,68596,1,2,0:0:0:0:
192,192,68596,1,0,0:0:0:0:
320,192,68698,1,2,0:0:0:0:
64,192,68800,1,0,0:0:0:40:electronic32.wav
448,192,68800,1,0,0:0:0:0:
320,192,69004,1,2,0:0:0:0:
448,192,69004,1,0,0:0:0:0:
64,192,69106,1,0,0:0:0:40:electronic32.wav
192,192,69106,1,0,0:0:0:0:
320,192,69208,128,2,69412:0:0:0:0:
448,192,69208,128,0,69412:0:0:0:0:
64,192,69412,1,0,0:0:0:40:electronic32.wav
192,192,69412,1,0,0:0:0:0:
320,192,69514,1,2,0:0:0:0:
448,192,69514,1,0,0:0:0:0:
64,192,69616,1,0,0:0:0:40:electronic32.wav
192,192,69616,1,0,0:0:0:0:
64,192,69820,1,2,0:0:0:0:
448,192,69820,1,0,0:0:0:0:
192,192,69922,1,2,0:0:0:0:
320,192,70024,1,0,0:0:0:40:electronic32.wav
448,192,70024,1,0,0:0:0:0:
64,192,70228,1,2,0:0:0:0:
448,192,70228,1,0,0:0:0:0:
192,192,70330,1,2,0:0:0:0:
320,192,70432,1,0,0:0:0:40:electronic32.wav
448,192,70432,1,0,0:0:0:0:
64,192,70636,1,2,0:0:0:0:
192,192,70636,1,0,0:0:0:0:
320,192,70738,1,2,0:0:0:0:
448,192,70738,1,0,0:0:0:0:
64,192,70840,1,0,0:0:0:40:electronic32.wav
192,192,70840,1,0,0:0:0:0:
448,192,70840,1,0,0:0:0:0:
320,192,71044,1,2,0:0:0:0:
448,192,71044,1,0,0:0:0:0:
64,192,71147,1,2,0:0:0:0:
192,192,71147,1,0,0:0:0:0:
320,192,71249,1,0,0:0:0:40:electronic32.wav
448,192,71249,1,0,0:0:0:0:
64,192,71453,1,2,0:0:0:0:
192,192,71453,1,0,0:0:0:0:
320,192,71555,1,2,0:0:0:0:
64,192,71657,1,0,0:0:0:40:electronic32.wav
448,192,71657,1,0,0:0:0:0:
64,192,71861,1,2,0:0:0:0:
192,192,71861,1,0,0:0:0:0:
320,192,71963,1,2,0:0:0:0:
64,192,72065,1,0,0:0:0:40:electronic32.wav
448,192,72065,1,0,0:0:0:0:
320,192,72269,1,2,0:0:0:0:
448,192,72269,1,0,0:0:0:0:
64,192,72371,1,0,0:0:0:40:electronic32.wav
192,192,72371,1,0,0:0:0:0:
64,192,72473,128,0,72575:0:0:0:40:electronic32.wav
192,192,72473,128,0,72575:0:0:0:0:
320,192,72677,128,0,72779:0:0:0:40:electronic32.wav
448,192,72677,128,0,72779:0:0:0:0:
64,192,72779,1,2,0:0:0:0:
192,192,72779,1,0,0:0:0:0:
320,192,72881,1,0,0:0:0:40:electronic32.wav
448,192,72881,1,0,0:0:0:0:
64,192,73085,1,2,0:0:0:0:
448,192,73085,1,0,0:0:0:0:
320,192,73187,1,2,0:0:0:0:
64,192,73289,1,0,0:0:0:40:electronic32.wav
192,192,73289,1,0,0:0:0:0:
64,192,73493,1,2,0:0:0:0:
448,192,73493,1,0,0:0:0:0:
320,192,73596,1,2,0:0:0:0:
64,192,73698,1,0,0:0:0:40:electronic32.wav
192,192,73698,1,0,0:0:0:0:
320,192,73902,1,2,0:0:0:0:
448,192,73902,1,0,0:0:0:0:
64,192,74004,1,2,0:0:0:0:
192,192,74004,1,0,0:0:0:0:
64,192,74106,1,0,0:0:0:40:electronic32.wav
320,192,74106,1,0,0:0:0:0:
448,192,74106,1,0,0:0:0:0:
64,192,74310,1,2,0:0:0:0:
192,192,74310,1,0,0:0:0:0:
320,192,74412,1,2,0:0:0:0:
448,192,74412,1,0,0:0:0:0:
64,192,74514,1,0,0:0:0:40:electronic32.wav
192,192,74514,1,0,0:0:0:0:
320,192,74718,1,2,0:0:0:0:
448,192,74718,1,0,0:0:0:0:
192,192,74820,1,2,0:0:0:0:
64,192,74922,1,0,0:0:0:40:electronic32.wav
448,192,74922,1,0,0:0:0:0:
320,192,75126,1,2,0:0:0:0:
448,192,75126,1,0,0:0:0:0:
192,192,75228,1,2,0:0:0:0:
64,192,75330,1,0,0:0:0:40:electronic32.wav
448,192,75330,1,0,0:0:0:0:
64,192,75534,1,2,0:0:0:0:
192,192,75534,1,0,0:0:0:0:
320,192,75636,1,0,0:0:0:40:electronic32.wav
448,192,75636,1,0,0:0:0:0:
64,192,75738,128,2,75942:0:0:0:0:
192,192,75738,128,0,75942:0:0:0:0:
320,192,75942,1,0,0:0:0:40:electronic32.wav
448,192,75942,1,0,0:0:0:0:
64,192,76044,1,2,0:0:0:0:
192,192,76044,1,0,0:0:0:0:
320,192,76147,1,0,0:0:0:40:electronic32.wav
448,192,76147,1,0,0:0:0:0:
64,192,76351,1,2,0:0:0:0:
448,192,76351,1,0,0:0:0:0:
320,192,76453,1,2,0:0:0:0:
64,192,76555,1,0,0:0:0:40:electronic32.wav
192,192,76555,1,0,0:0:0:0:
448,192,76555,1,0,0:0:0:0:
64,192,76759,1,0,0:0:0:0:
448,192,76759,1,0,0:0:0:0:
192,192,76759,1,0,0:0:0:40:electronic32.wav
320,192,76861,1,2,0:0:0:0:
64,192,76963,1,0,0:0:0:40:electronic32.wav
192,192,76963,1,0,0:0:0:0:
448,192,76963,1,0,0:0:0:0:
320,192,77167,1,2,0:0:0:0:
448,192,77167,1,0,0:0:0:0:
64,192,77269,1,2,0:0:0:0:
192,192,77269,1,0,0:0:0:0:
64,192,77371,1,0,0:0:0:40:electronic32.wav
320,192,77371,1,0,0:0:0:0:
448,192,77371,1,0,0:0:0:0:
192,192,77575,1,0,0:0:0:0:
64,192,77575,1,0,0:0:0:40:electronic32.wav
320,192,77677,1,2,0:0:0:0:
448,192,77677,1,0,0:0:0:0:
64,192,77779,1,0,0:0:0:40:electronic32.wav
192,192,77779,1,0,0:0:0:0:
320,192,77881,1,0,0:0:0:0:
64,192,77983,1,2,0:0:0:0:
448,192,77983,1,0,0:0:0:0:
192,192,78085,1,0,0:0:0:40:electronic32.wav
320,192,78085,1,0,0:0:0:0:
64,192,78187,1,0,0:0:0:40:electronic32.wav
448,192,78187,1,0,0:0:0:0:
192,192,78289,1,0,0:0:0:0:
320,192,78391,1,2,0:0:0:0:
448,192,78391,1,0,0:0:0:0:
192,192,78493,1,0,0:0:0:0:
320,192,78596,1,0,0:0:0:40:electronic32.wav
448,192,78596,1,0,0:0:0:0:
320,192,78698,1,0,0:0:0:40:electronic32.wav
448,192,78698,1,0,0:0:0:0:
64,192,78800,1,2,0:0:0:0:
192,192,78800,1,0,0:0:0:0:
320,192,78902,1,2,0:0:0:0:
448,192,78902,1,0,0:0:0:0:
64,192,79004,1,0,0:0:0:40:electronic32.wav
192,192,79004,1,0,0:0:0:0:
64,192,79106,1,0,0:0:0:40:electronic32.wav
192,192,79106,1,0,0:0:0:0:
320,192,79208,1,0,0:0:0:40:electronic32.wav
448,192,79208,1,0,0:0:0:0:
320,192,79310,1,0,0:0:0:40:electronic32.wav
448,192,79310,1,0,0:0:0:0:
64,192,79412,1,4,0:0:0:0:
192,192,79412,1,0,0:0:0:40:electronic32.wav
448,192,79412,1,0,0:0:0:0:
64,192,79616,1,2,0:0:0:0:
448,192,79616,128,0,79718:0:0:0:0:
192,192,79718,1,2,0:0:0:0:
320,192,79820,1,0,0:0:0:40:electronic32.wav
448,192,79820,128,0,79922:0:0:0:0:
64,192,80024,1,2,0:0:0:0:
448,192,80024,128,0,80126:0:0:0:0:
192,192,80126,1,2,0:0:0:0:
320,192,80228,1,0,0:0:0:40:electronic32.wav
448,192,80228,128,0,80330:0:0:0:0:
64,192,80432,1,2,0:0:0:0:
192,192,80432,1,0,0:0:0:0:
320,192,80534,1,2,0:0:0:0:
448,192,80534,1,0,0:0:0:0:
64,192,80636,1,0,0:0:0:40:electronic32.wav
192,192,80636,1,0,0:0:0:0:
448,192,80636,1,0,0:0:0:0:
320,192,80840,1,0,0:0:0:40:electronic32.wav
448,192,80840,1,0,0:0:0:0:
320,192,80942,1,0,0:0:0:40:electronic32.wav
448,192,80942,1,0,0:0:0:0:
64,192,81044,1,0,0:0:0:40:electronic32.wav
192,192,81044,1,0,0:0:0:0:
448,192,81044,1,0,0:0:0:0:
64,192,81249,128,2,81351:0:0:0:0:
448,192,81249,1,0,0:0:0:0:
320,192,81351,1,2,0:0:0:0:
64,192,81453,128,0,81555:0:0:0:40:electronic32.wav
192,192,81453,1,0,0:0:0:0:
64,192,81657,128,2,81759:0:0:0:0:
448,192,81657,1,0,0:0:0:0:
320,192,81759,1,2,0:0:0:0:
64,192,81861,128,0,81963:0:0:0:40:electronic32.wav
192,192,81861,1,0,0:0:0:0:
320,192,82065,1,2,0:0:0:0:
448,192,82065,1,0,0:0:0:0:
64,192,82167,1,0,0:0:0:40:electronic32.wav
192,192,82167,1,0,0:0:0:0:
64,192,82269,1,2,0:0:0:0:
320,192,82269,1,0,0:0:0:0:
448,192,82269,1,0,0:0:0:0:
320,192,82371,1,0,0:0:0:40:electronic32.wav
448,192,82371,1,0,0:0:0:0:
64,192,82473,1,0,0:0:0:40:electronic32.wav
192,192,82473,1,0,0:0:0:0:
64,192,82575,1,0,0:0:0:40:electronic32.wav
192,192,82575,1,0,0:0:0:0:
64,192,82677,1,0,0:0:0:40:electronic32.wav
320,192,82677,1,0,0:0:0:0:
448,192,82677,1,0,0:0:0:0:
448,192,82881,1,2,0:0:0:0:
320,192,82881,128,0,82983:0:0:0:0:
192,192,82983,1,2,0:0:0:0:
320,192,83085,128,0,83187:0:0:0:40:electronic32.wav
64,192,83085,1,0,0:0:0:0:
448,192,83289,1,2,0:0:0:0:
320,192,83289,128,0,83391:0:0:0:0:
192,192,83391,1,2,0:0:0:0:
320,192,83493,128,0,83596:0:0:0:40:electronic32.wav
64,192,83493,1,0,0:0:0:0:
64,192,83698,1,2,0:0:0:0:
192,192,83698,1,0,0:0:0:0:
320,192,83800,1,2,0:0:0:0:
448,192,83800,1,0,0:0:0:0:
64,192,83902,1,0,0:0:0:40:electronic32.wav
192,192,83902,1,0,0:0:0:0:
448,192,83902,1,0,0:0:0:0:
320,192,84106,1,0,0:0:0:40:electronic32.wav
448,192,84106,1,0,0:0:0:0:
320,192,84208,1,0,0:0:0:40:electronic32.wav
448,192,84208,1,0,0:0:0:0:
64,192,84310,1,0,0:0:0:40:electronic32.wav
192,192,84310,1,0,0:0:0:0:
448,192,84310,1,0,0:0:0:0:
64,192,84514,1,0,0:0:0:40:electronic32.wav
192,192,84565,1,0,0:0:0:40:electronic32.wav
448,192,84616,1,0,0:0:0:40:electronic32.wav
320,192,84667,1,0,0:0:0:40:electronic32.wav
192,192,84718,128,0,84820:0:0:0:0:
64,192,84718,1,2,0:0:0:0:
64,192,84922,1,0,0:0:0:40:electronic32.wav
192,192,84973,1,0,0:0:0:40:electronic32.wav
448,192,85024,1,0,0:0:0:40:electronic32.wav
320,192,85075,1,0,0:0:0:40:electronic32.wav
64,192,85126,1,0,0:0:0:0:
192,192,85126,128,2,85228:0:0:0:0:
448,192,85330,1,0,0:0:0:40:electronic32.wav
320,192,85381,1,0,0:0:0:40:electronic32.wav
64,192,85432,1,0,0:0:0:40:electronic32.wav
192,192,85483,1,0,0:0:0:40:electronic32.wav
320,192,85534,1,2,0:0:0:0:
448,192,85534,1,0,0:0:0:0:
64,192,85738,1,0,0:0:0:40:electronic32.wav
192,192,85738,1,0,0:0:0:0:
64,192,85840,1,0,0:0:0:40:electronic32.wav
192,192,85840,1,0,0:0:0:0:
64,192,85942,1,4,0:0:0:0:
320,192,85942,1,0,0:0:0:30:electronic32.wav
448,192,85942,1,0,0:0:0:0:
320,192,86044,1,0,0:0:0:30:electronic32.wav
448,192,86044,1,0,0:0:0:0:
64,192,86147,1,0,0:0:0:30:electronic32.wav
192,192,86147,1,0,0:0:0:0:
320,192,86249,1,0,0:0:0:30:electronic32.wav
448,192,86249,1,0,0:0:0:0:
64,192,86351,1,0,0:0:0:30:electronic32.wav
192,192,86351,1,0,0:0:0:0:
320,192,86453,1,0,0:0:0:30:electronic32.wav
448,192,86453,1,0,0:0:0:0:
64,192,86555,1,0,0:0:0:30:electronic32.wav
192,192,86555,1,0,0:0:0:0:
320,192,86657,1,0,0:0:0:30:electronic32.wav
448,192,86657,1,0,0:0:0:0:
64,192,86759,1,4,0:0:0:0:
192,192,86759,1,0,0:0:0:30:electronic32.wav
448,192,86759,1,0,0:0:0:0:
64,192,86861,1,0,0:0:0:30:electronic32.wav
192,192,86861,1,0,0:0:0:0:
320,192,86963,1,0,0:0:0:30:electronic32.wav
448,192,86963,1,0,0:0:0:0:
64,192,87065,1,0,0:0:0:30:electronic32.wav
192,192,87065,1,0,0:0:0:0:
320,192,87167,1,0,0:0:0:30:electronic32.wav
448,192,87167,1,0,0:0:0:0:
64,192,87269,1,0,0:0:0:30:electronic32.wav
192,192,87269,1,0,0:0:0:0:
320,192,87371,1,0,0:0:0:30:electronic32.wav
448,192,87371,1,0,0:0:0:0:
64,192,87473,1,0,0:0:0:30:electronic32.wav
192,192,87473,1,0,0:0:0:0:
64,192,87575,1,4,0:0:0:0:
320,192,87575,1,0,0:0:0:30:electronic32.wav
448,192,87575,1,0,0:0:0:0:
320,192,87677,1,0,0:0:0:30:electronic32.wav
448,192,87677,1,0,0:0:0:0:
64,192,87779,1,0,0:0:0:30:electronic32.wav
192,192,87779,1,0,0:0:0:0:
320,192,87881,1,0,0:0:0:30:electronic32.wav
448,192,87881,1,0,0:0:0:0:
64,192,87983,1,0,0:0:0:30:electronic32.wav
192,192,87983,1,0,0:0:0:0:
320,192,88085,1,0,0:0:0:30:electronic32.wav
448,192,88085,1,0,0:0:0:0:
64,192,88187,1,0,0:0:0:30:electronic32.wav
192,192,88187,1,0,0:0:0:0:
320,192,88289,1,0,0:0:0:30:electronic32.wav
448,192,88289,1,0,0:0:0:0:
64,192,88391,1,4,0:0:0:0:
192,192,88391,1,0,0:0:0:30:electronic32.wav
448,192,88391,1,0,0:0:0:0:
64,192,88493,1,0,0:0:0:30:electronic32.wav
192,192,88493,1,0,0:0:0:0:
320,192,88596,1,0,0:0:0:30:electronic32.wav
448,192,88596,1,0,0:0:0:0:
64,192,88698,1,0,0:0:0:30:electronic32.wav
192,192,88698,1,0,0:0:0:0:
320,192,88800,1,0,0:0:0:30:electronic32.wav
448,192,88800,1,0,0:0:0:0:
64,192,88902,1,0,0:0:0:30:electronic32.wav
192,192,88902,1,0,0:0:0:0:
320,192,89004,1,0,0:0:0:30:electronic32.wav
448,192,89004,1,0,0:0:0:0:
64,192,89106,1,0,0:0:0:30:electronic32.wav
192,192,89106,1,0,0:0:0:0:
320,192,89208,1,4,0:0:0:0:
448,192,89208,1,0,0:0:0:20:electronic32.wav
192,192,89259,1,0,0:0:0:20:electronic32.wav
64,192,89310,1,0,0:0:0:20:electronic32.wav
448,192,89361,1,0,0:0:0:20:electronic32.wav
320,192,89412,1,0,0:0:0:20:electronic32.wav
64,192,89463,1,0,0:0:0:20:electronic32.wav
192,192,89514,1,0,0:0:0:20:electronic32.wav
448,192,89565,1,0,0:0:0:20:electronic32.wav
320,192,89616,1,4,0:0:0:0:
64,192,89667,1,0,0:0:0:20:electronic32.wav
192,192,89718,1,0,0:0:0:20:electronic32.wav
320,192,89769,1,0,0:0:0:20:electronic32.wav
448,192,89820,1,0,0:0:0:20:electronic32.wav
192,192,89871,1,0,0:0:0:20:electronic32.wav
320,192,89922,1,0,0:0:0:20:electronic32.wav
64,192,89973,1,0,0:0:0:20:electronic32.wav
192,192,90024,1,4,0:0:0:0:
320,192,90075,1,0,0:0:0:20:electronic32.wav
448,192,90126,1,0,0:0:0:20:electronic32.wav
64,192,90177,1,0,0:0:0:20:electronic32.wav
192,192,90228,1,0,0:0:0:20:electronic32.wav
448,192,90279,1,0,0:0:0:20:electronic32.wav
320,192,90330,1,0,0:0:0:20:electronic32.wav
64,192,90381,1,0,0:0:0:20:electronic32.wav
192,192,90432,1,4,0:0:0:0:
448,192,90483,1,0,0:0:0:20:electronic32.wav
320,192,90534,1,0,0:0:0:20:electronic32.wav
192,192,90585,1,0,0:0:0:20:electronic32.wav
64,192,90636,1,0,0:0:0:20:electronic32.wav
320,192,90687,1,0,0:0:0:20:electronic32.wav
192,192,90738,1,0,0:0:0:20:electronic32.wav
448,192,90789,1,0,0:0:0:20:electronic32.wav
320,192,90840,1,4,0:0:0:0:
192,192,90891,1,0,0:0:0:20:electronic32.wav
64,192,90942,1,0,0:0:0:20:electronic32.wav
448,192,90993,1,0,0:0:0:20:electronic32.wav
320,192,91044,1,0,0:0:0:20:electronic32.wav
64,192,91096,1,0,0:0:0:20:electronic32.wav
448,192,91147,1,0,0:0:0:20:electronic32.wav
192,192,91198,1,0,0:0:0:20:electronic32.wav
320,192,91249,1,4,0:0:0:0:
64,192,91300,1,0,0:0:0:20:electronic32.wav
448,192,91351,1,0,0:0:0:20:electronic32.wav
192,192,91402,1,0,0:0:0:20:electronic32.wav
64,192,91453,1,0,0:0:0:20:electronic32.wav
448,192,91504,1,0,0:0:0:20:electronic32.wav
320,192,91555,1,0,0:0:0:20:electronic32.wav
64,192,91606,1,0,0:0:0:20:electronic32.wav
192,192,91657,1,4,0:0:0:0:
448,192,91708,1,0,0:0:0:20:electronic32.wav
64,192,91759,1,0,0:0:0:20:electronic32.wav
320,192,91810,1,0,0:0:0:20:electronic32.wav
448,192,91861,1,0,0:0:0:20:electronic32.wav
192,192,91912,1,0,0:0:0:20:electronic32.wav
64,192,91963,1,0,0:0:0:20:electronic32.wav
320,192,92014,1,0,0:0:0:20:electronic32.wav
192,192,92065,1,4,0:0:0:0:
448,192,92116,1,0,0:0:0:20:electronic32.wav
320,192,92167,1,0,0:0:0:20:electronic32.wav
64,192,92218,1,0,0:0:0:20:electronic32.wav
192,192,92269,1,2,0:0:0:0:
320,192,92320,1,2,0:0:0:0:
448,192,92371,1,2,0:0:0:0:
192,192,92422,1,2,0:0:0:0:
64,192,92473,1,4,0:0:0:0:
320,192,92473,1,2,0:0:0:0:
448,192,92473,1,0,0:0:0:0:
448,192,94922,1,0,0:0:0:0:
64,192,94922,128,2,95126:0:0:0:0:
320,192,95126,128,0,95432:0:0:0:0:
320,192,95534,128,0,95636:0:0:0:0:
320,192,95738,128,4,95789:0:0:0:0:
64,192,95738,1,2,0:0:0:0:
448,192,95738,1,0,0:0:0:0:
320,192,96044,128,0,96147:0:0:0:0:
320,192,96351,128,0,96504:0:0:0:0:
320,192,96657,128,0,96861:0:0:0:0:
320,192,96963,128,0,97218:0:0:0:0:
320,192,97269,128,0,97371:0:0:0:0:
64,192,97371,1,2,0:0:0:0:
192,192,97371,1,0,0:0:0:0:
192,192,97473,1,0,0:0:0:0:
320,192,97575,1,2,0:0:0:0:
448,192,97575,1,0,0:0:0:0:
320,192,97677,1,0,0:0:0:0:
64,192,97779,1,2,0:0:0:0:
192,192,97779,1,0,0:0:0:0:
64,192,97881,1,2,0:0:0:0:
192,192,97881,1,0,0:0:0:0:
320,192,97983,1,2,0:0:0:0:
448,192,97983,1,0,0:0:0:0:
320,192,98085,1,2,0:0:0:0:
448,192,98085,1,0,0:0:0:0:
64,192,98187,1,2,0:0:0:0:
192,192,98187,1,0,0:0:0:0:
64,192,98391,128,0,98493:0:0:0:70:LS-HKI Basic Hard Kick 2 (01) - C1.wav
448,192,98391,128,0,98493:0:0:0:0:
64,192,98596,1,0,0:0:0:70:LR4_SnareBPDT.wav
192,192,98596,1,0,0:0:0:100:LR4_DSFX_TCL.wav
448,192,98596,1,0,0:0:0:0:
320,192,98698,1,0,0:0:0:0:
64,192,98800,1,0,0:0:0:100:LR_Snare Drum.wav
192,192,98800,1,0,0:0:0:0:
320,192,98902,1,0,0:0:0:100:LR_Snare Drum.wav
448,192,98902,1,0,0:0:0:0:
64,192,99004,128,2,99310:0:0:0:0:
192,192,99004,128,0,99310:0:0:0:0:
64,192,99412,1,2,0:0:0:0:
192,192,99412,1,8,0:0:0:0:
320,192,99412,1,4,0:0:0:0:
448,192,99412,1,0,0:0:0:0:
64,192,99616,1,2,0:0:0:0:
320,192,99616,1,0,0:0:0:0:
448,192,99616,1,0,0:0:0:0:
64,192,99820,1,2,0:0:0:0:
192,192,99820,1,0,0:0:0:0:
320,192,99922,1,0,0:0:0:0:
192,192,100024,1,0,0:0:0:0:
320,192,100126,1,0,0:0:0:0:
64,192,100228,1,8,0:0:0:0:
192,192,100228,1,2,0:0:0:0:
448,192,100228,1,0,0:0:0:0:
192,192,100330,1,0,0:0:0:0:
192,192,100432,1,0,0:0:0:0:
320,192,100534,1,2,0:0:0:0:
448,192,100534,1,0,0:0:0:0:
64,192,100636,128,2,100942:0:0:0:0:
448,192,100636,128,0,100942:0:0:0:0:
64,192,101044,1,8,0:0:0:0:
192,192,101044,1,2,0:0:0:0:
320,192,101044,1,0,0:0:0:0:
448,192,101044,1,0,0:0:0:0:
192,192,101249,1,0,0:0:0:0:
320,192,101351,1,0,0:0:0:0:
64,192,101453,1,2,0:0:0:0:
448,192,101453,1,0,0:0:0:0:
192,192,101555,1,0,0:0:0:0:
320,192,101657,1,2,0:0:0:0:
448,192,101657,1,0,0:0:0:0:
320,192,101759,1,0,0:0:0:0:
64,192,101861,1,8,0:0:0:0:
192,192,101861,1,2,0:0:0:0:
448,192,101861,1,0,0:0:0:0:
64,192,102065,1,0,0:0:0:0:
192,192,102167,1,0,0:0:0:0:
320,192,102269,128,2,102575:0:0:0:0:
448,192,102269,128,0,102575:0:0:0:0:
64,192,102677,1,8,0:0:0:0:
192,192,102677,1,2,0:0:0:0:
320,192,102677,1,0,0:0:0:0:
448,192,102677,1,0,0:0:0:0:
64,192,102881,1,2,0:0:0:0:
192,192,102881,1,0,0:0:0:0:
448,192,102881,1,0,0:0:0:0:
320,192,103085,1,2,0:0:0:0:
448,192,103085,1,0,0:0:0:0:
192,192,103187,1,0,0:0:0:0:
320,192,103289,1,0,0:0:0:0:
192,192,103391,1,0,0:0:0:0:
64,192,103493,1,8,0:0:0:0:
320,192,103493,1,2,0:0:0:0:
448,192,103493,1,0,0:0:0:0:
448,192,103596,1,0,0:0:0:0:
448,192,103698,1,0,0:0:0:0:
64,192,103800,1,2,0:0:0:0:
192,192,103800,1,0,0:0:0:0:
192,192,103902,128,2,104208:0:0:0:0:
320,192,103902,128,0,104208:0:0:0:0:
64,192,104310,1,8,0:0:0:0:
192,192,104310,1,2,0:0:0:0:
320,192,104310,1,0,0:0:0:0:
448,192,104310,1,0,0:0:0:0:
320,192,104514,1,0,0:0:0:0:
192,192,104616,1,0,0:0:0:0:
64,192,104718,1,2,0:0:0:0:
448,192,104718,1,0,0:0:0:0:
320,192,104820,1,0,0:0:0:0:
64,192,104922,1,2,0:0:0:0:
192,192,104922,1,0,0:0:0:0:
192,192,105024,1,0,0:0:0:0:
64,192,105126,1,8,0:0:0:0:
320,192,105126,1,2,0:0:0:0:
448,192,105126,1,0,0:0:0:0:
320,192,105330,1,0,0:0:0:0:
192,192,105432,1,0,0:0:0:0:
64,192,105534,1,2,0:0:0:0:
320,192,105534,128,4,105840:0:0:0:0:
448,192,105534,128,0,105840:0:0:0:0:
64,192,105942,1,8,0:0:0:0:
192,192,105942,1,2,0:0:0:0:
320,192,105942,1,0,0:0:0:0:
448,192,105942,1,0,0:0:0:0:
64,192,106147,1,2,0:0:0:0:
320,192,106147,1,0,0:0:0:0:
448,192,106147,1,0,0:0:0:0:
64,192,106351,1,2,0:0:0:0:
192,192,106351,1,0,0:0:0:0:
320,192,106453,1,0,0:0:0:0:
192,192,106555,1,0,0:0:0:0:
320,192,106657,1,0,0:0:0:0:
64,192,106759,1,8,0:0:0:0:
192,192,106759,1,2,0:0:0:0:
448,192,106759,1,0,0:0:0:0:
64,192,106861,1,0,0:0:0:0:
64,192,106963,1,0,0:0:0:0:
320,192,107065,1,2,0:0:0:0:
448,192,107065,1,0,0:0:0:0:
64,192,107167,128,2,107473:0:0:0:0:
448,192,107167,128,0,107473:0:0:0:0:
64,192,107575,1,8,0:0:0:0:
192,192,107575,1,2,0:0:0:0:
320,192,107575,1,0,0:0:0:0:
448,192,107575,1,0,0:0:0:0:
192,192,107779,1,0,0:0:0:0:
320,192,107881,1,0,0:0:0:0:
64,192,107983,1,2,0:0:0:0:
448,192,107983,1,0,0:0:0:0:
192,192,108085,1,0,0:0:0:0:
320,192,108187,1,2,0:0:0:0:
448,192,108187,1,0,0:0:0:0:
320,192,108289,1,0,0:0:0:0:
448,192,108289,1,0,0:0:0:0:
64,192,108391,1,8,0:0:0:0:
192,192,108391,1,2,0:0:0:0:
448,192,108391,1,0,0:0:0:0:
320,192,108596,1,0,0:0:0:0:
192,192,108698,1,0,0:0:0:0:
320,192,108800,128,2,109106:0:0:0:0:
448,192,108800,128,0,109106:0:0:0:0:
64,192,109004,128,0,109106:0:0:0:0:
192,192,109004,128,0,109106:0:0:0:0:
64,192,109208,1,8,0:0:0:0:
192,192,109208,1,2,0:0:0:0:
320,192,109208,1,0,0:0:0:0:
448,192,109208,1,0,0:0:0:0:
64,192,109412,1,2,0:0:0:0:
192,192,109412,1,0,0:0:0:0:
448,192,109412,1,0,0:0:0:0:
320,192,109616,1,2,0:0:0:0:
448,192,109616,1,0,0:0:0:0:
192,192,109718,1,0,0:0:0:0:
320,192,109820,1,0,0:0:0:0:
192,192,109922,1,0,0:0:0:0:
64,192,110024,1,8,0:0:0:0:
320,192,110024,1,4,0:0:0:0:
448,192,110024,1,2,0:0:0:0:
64,192,110126,1,2,0:0:0:0:
192,192,110126,1,4,0:0:0:0:
64,192,110330,128,2,111147:0:0:0:0:
192,192,110330,1,4,0:0:0:0:
320,192,110330,1,0,0:0:0:0:
448,192,110330,128,0,111147:0:0:0:0:
320,192,110636,128,0,110942:0:0:0:0:
192,192,110942,128,0,111249:0:0:0:0:
64,192,111249,1,2,0:0:0:0:
320,192,111249,1,4,0:0:0:0:
448,192,111249,1,0,0:0:0:0:
192,192,111453,128,0,111555:0:0:0:0:
64,192,111555,1,2,0:0:0:0:
320,192,111555,1,4,0:0:0:0:
448,192,111555,1,0,0:0:0:0:
192,192,111759,128,0,111861:0:0:0:0:
64,192,111861,1,2,0:0:0:0:
320,192,111861,1,4,0:0:0:0:
448,192,111861,1,0,0:0:0:0:
192,192,111963,128,0,112065:0:0:0:0:
64,192,112065,128,4,112371:0:0:0:0:
320,192,112065,128,2,112371:0:0:0:0:
448,192,112065,128,0,112371:0:0:0:0:
64,192,112473,1,8,0:0:0:0:
192,192,112473,1,2,0:0:0:0:
320,192,112473,1,0,0:0:0:0:
448,192,112473,1,0,0:0:0:0:
64,192,112677,1,2,0:0:0:0:
320,192,112677,1,0,0:0:0:0:
448,192,112677,1,0,0:0:0:0:
192,192,112779,1,0,0:0:0:0:
64,192,112881,1,2,0:0:0:0:
448,192,112881,1,0,0:0:0:0:
320,192,112983,1,0,0:0:0:0:
192,192,113085,1,0,0:0:0:0:
320,192,113187,1,0,0:0:0:0:
64,192,113289,1,8,0:0:0:0:
192,192,113289,1,2,0:0:0:0:
448,192,113289,1,0,0:0:0:0:
448,192,113391,1,0,0:0:0:0:
192,192,113493,1,0,0:0:0:0:
320,192,113596,1,2,0:0:0:0:
448,192,113596,1,0,0:0:0:0:
64,192,113698,128,2,114004:0:0:0:0:
192,192,113698,128,0,114004:0:0:0:0:
448,192,113698,128,0,114004:0:0:0:0:
64,192,114106,1,8,0:0:0:0:
192,192,114106,1,2,0:0:0:0:
320,192,114106,1,0,0:0:0:0:
448,192,114106,1,0,0:0:0:0:
192,192,114310,1,0,0:0:0:0:
320,192,114412,1,0,0:0:0:0:
64,192,114514,1,2,0:0:0:0:
448,192,114514,1,0,0:0:0:0:
192,192,114616,1,0,0:0:0:0:
320,192,114718,1,2,0:0:0:0:
448,192,114718,1,0,0:0:0:0:
320,192,114820,1,0,0:0:0:0:
64,192,114922,1,8,0:0:0:0:
192,192,114922,1,2,0:0:0:0:
448,192,114922,1,0,0:0:0:0:
320,192,115024,1,0,0:0:0:0:
64,192,115126,1,0,0:0:0:0:
64,192,115228,1,0,0:0:0:0:
192,192,115330,128,2,115636:0:0:0:0:
320,192,115330,128,0,115636:0:0:0:0:
448,192,115330,128,0,115636:0:0:0:0:
64,192,115738,1,8,0:0:0:0:
192,192,115738,1,2,0:0:0:0:
320,192,115738,1,0,0:0:0:0:
448,192,115738,1,0,0:0:0:0:
64,192,115942,1,2,0:0:0:0:
192,192,115942,1,0,0:0:0:0:
448,192,115942,1,0,0:0:0:0:
320,192,116044,1,0,0:0:0:0:
64,192,116147,1,2,0:0:0:0:
448,192,116147,1,0,0:0:0:0:
192,192,116249,1,0,0:0:0:0:
320,192,116351,1,0,0:0:0:0:
192,192,116453,1,0,0:0:0:0:
64,192,116555,1,8,0:0:0:0:
320,192,116555,1,2,0:0:0:0:
448,192,116555,1,0,0:0:0:0:
64,192,116657,1,0,0:0:0:0:
320,192,116759,1,0,0:0:0:0:
64,192,116861,1,2,0:0:0:0:
448,192,116861,1,0,0:0:0:0:
192,192,116963,128,0,117065:0:0:0:0:
64,192,116963,128,2,117065:0:0:0:0:
192,192,117167,128,0,117269:0:0:0:0:
320,192,117269,1,0,0:0:0:0:
64,192,117371,128,8,117473:0:0:0:0:
192,192,117371,1,0,0:0:0:0:
448,192,117371,128,2,117473:0:0:0:0:
320,192,117473,1,0,0:0:0:0:
448,192,117575,128,0,117677:0:0:0:0:
192,192,117677,1,0,0:0:0:0:
64,192,117779,128,2,117983:0:0:0:0:
448,192,117779,1,0,0:0:0:0:
320,192,117983,1,2,0:0:0:0:
448,192,117983,1,0,0:0:0:0:
192,192,118085,128,2,118187:0:0:0:0:
448,192,118187,128,0,118391:0:0:0:0:
320,192,118187,1,8,0:0:0:0:
64,192,118187,1,2,0:0:0:0:
192,192,118391,128,0,118596:0:0:0:0:
64,192,118596,128,2,118902:0:0:0:0:
320,192,118596,128,0,118902:0:0:0:0:
448,192,118596,128,0,118902:0:0:0:0:
64,192,119004,1,8,0:0:0:0:
192,192,119004,1,4,0:0:0:0:
320,192,119004,1,2,0:0:0:0:
448,192,119004,1,0,0:0:0:0:
64,192,119208,1,2,0:0:0:0:
320,192,119208,1,0,0:0:0:0:
448,192,119208,1,0,0:0:0:0:
192,192,119310,1,0,0:0:0:0:
64,192,119412,1,2,0:0:0:0:
448,192,119412,1,0,0:0:0:0:
320,192,119514,1,0,0:0:0:0:
192,192,119616,1,0,0:0:0:0:
320,192,119718,1,0,0:0:0:0:
64,192,119820,1,8,0:0:0:0:
192,192,119820,1,2,0:0:0:0:
448,192,119820,1,0,0:0:0:0:
448,192,119922,1,0,0:0:0:0:
192,192,120024,1,0,0:0:0:0:
320,192,120126,1,2,0:0:0:0:
448,192,120126,1,0,0:0:0:0:
64,192,120228,128,2,120534:0:0:0:0:
192,192,120228,128,0,120534:0:0:0:0:
448,192,120228,128,0,120534:0:0:0:0:
64,192,120636,1,8,0:0:0:0:
192,192,120636,1,2,0:0:0:0:
320,192,120636,1,0,0:0:0:0:
448,192,120636,1,0,0:0:0:0:
192,192,120840,1,0,0:0:0:0:
320,192,120942,1,0,0:0:0:0:
64,192,121044,1,2,0:0:0:0:
448,192,121044,1,0,0:0:0:0:
192,192,121147,1,0,0:0:0:0:
320,192,121249,1,2,0:0:0:0:
448,192,121249,1,0,0:0:0:0:
320,192,121351,1,0,0:0:0:0:
64,192,121453,1,8,0:0:0:0:
192,192,121453,1,2,0:0:0:0:
448,192,121453,1,0,0:0:0:0:
320,192,121555,1,0,0:0:0:0:
192,192,121657,128,0,121861:0:0:0:0:
320,192,121759,1,0,0:0:0:0:
64,192,121861,128,2,121963:0:0:0:0:
320,192,121861,128,0,121963:0:0:0:0:
448,192,121861,128,0,121963:0:0:0:0:
64,192,122065,128,2,122167:0:0:0:0:
320,192,122065,128,0,122167:0:0:0:0:
448,192,122065,128,0,122167:0:0:0:0:
64,192,122269,1,8,0:0:0:0:
192,192,122269,1,2,0:0:0:0:
320,192,122269,1,0,0:0:0:0:
448,192,122269,1,0,0:0:0:0:
320,192,122473,128,2,122677:0:0:0:0:
448,192,122473,1,0,0:0:0:0:
192,192,122575,1,0,0:0:0:0:
64,192,122677,128,2,122779:0:0:0:0:
192,192,122677,128,0,122779:0:0:0:0:
448,192,122677,128,0,122779:0:0:0:0:
448,192,122881,1,0,0:0:0:0:
320,192,122932,1,0,0:0:0:0:
192,192,122983,1,0,0:0:0:0:
64,192,123034,1,0,0:0:0:0:
320,192,123085,1,2,0:0:0:0:
448,192,123085,1,8,0:0:0:0:
320,192,123187,1,2,0:0:0:0:
448,192,123187,1,8,0:0:0:0:
64,192,123289,1,2,0:0:0:0:
192,192,123289,1,8,0:0:0:0:
64,192,123391,1,2,0:0:0:0:
192,192,123391,1,8,0:0:0:0:
64,192,123493,1,4,0:0:0:0:
320,192,123493,1,2,0:0:0:0:
448,192,123493,1,0,0:0:0:0:
192,192,123902,1,0,0:0:0:0:
192,192,124004,1,0,0:0:0:0:
192,192,124106,1,0,0:0:0:0:
320,192,124310,1,0,0:0:0:0:
448,192,124514,1,0,0:0:0:0:
64,192,124616,1,0,0:0:0:0:
320,192,124718,128,0,124922:0:0:0:0:
448,192,124718,128,0,124922:0:0:0:0:
192,192,124922,128,0,125126:0:0:0:0:
64,192,125126,1,4,0:0:0:0:
320,192,125126,1,2,0:0:0:0:
448,192,125126,128,0,125534:0:0:0:0:
192,192,125228,1,0,0:0:0:0:
320,192,125330,1,0,0:0:0:0:
192,192,125432,1,0,0:0:0:0:
64,192,125534,1,8,0:0:0:0:
320,192,125534,1,2,0:0:0:0:
192,192,125636,1,0,0:0:0:0:
448,192,125738,128,0,125840:0:0:0:0:
64,192,125840,128,0,125942:0:0:0:0:
320,192,125942,1,2,0:0:0:0:
448,192,125942,1,0,0:0:0:0:
192,192,126044,1,0,0:0:0:0:
320,192,126147,1,0,0:0:0:0:
192,192,126249,1,0,0:0:0:0:
64,192,126351,1,8,0:0:0:0:
448,192,126351,1,2,0:0:0:0:
320,192,126453,1,0,0:0:0:0:
192,192,126555,128,0,126657:0:0:0:0:
448,192,126657,128,0,126759:0:0:0:0:
64,192,126759,1,2,0:0:0:0:
192,192,126759,128,0,127167:0:0:0:0:
320,192,126861,1,0,0:0:0:0:
448,192,126963,1,0,0:0:0:0:
320,192,127065,1,0,0:0:0:0:
64,192,127167,1,8,0:0:0:0:
448,192,127167,1,2,0:0:0:0:
320,192,127269,1,0,0:0:0:0:
64,192,127371,128,0,127473:0:0:0:0:
448,192,127473,128,0,127575:0:0:0:0:
64,192,127575,1,2,0:0:0:0:
192,192,127575,1,0,0:0:0:0:
320,192,127677,1,0,0:0:0:0:
64,192,127779,1,0,0:0:0:0:
320,192,127881,1,0,0:0:0:0:
64,192,127983,1,8,0:0:0:0:
448,192,127983,1,2,0:0:0:0:
192,192,128085,128,0,128187:0:0:0:0:
448,192,128187,1,0,0:0:0:0:
320,192,128289,128,0,128391:0:0:0:0:
64,192,128391,128,2,128800:0:0:0:0:
192,192,128391,1,0,0:0:0:0:
320,192,128493,1,0,0:0:0:0:
192,192,128596,1,0,0:0:0:0:
320,192,128698,1,0,0:0:0:0:
192,192,128800,1,8,0:0:0:0:
448,192,128800,1,2,0:0:0:0:
320,192,128902,1,0,0:0:0:0:
64,192,129004,128,0,129106:0:0:0:0:
448,192,129106,128,0,129208:0:0:0:0:
64,192,129208,1,2,0:0:0:0:
192,192,129208,1,0,0:0:0:0:
320,192,129310,1,0,0:0:0:0:
192,192,129412,1,0,0:0:0:0:
320,192,129514,1,0,0:0:0:0:
64,192,129616,1,8,0:0:0:0:
448,192,129616,1,2,0:0:0:0:
192,192,129718,1,0,0:0:0:0:
320,192,129820,128,0,129922:0:0:0:0:
64,192,129922,128,0,130024:0:0:0:0:
320,192,130024,128,2,130432:0:0:0:0:
448,192,130024,1,0,0:0:0:0:
192,192,130126,1,0,0:0:0:0:
64,192,130228,1,0,0:0:0:0:
192,192,130330,1,0,0:0:0:0:
64,192,130432,1,8,0:0:0:0:
448,192,130432,1,2,0:0:0:0:
192,192,130534,1,0,0:0:0:0:
448,192,130636,128,0,130738:0:0:0:0:
64,192,130738,128,0,130840:0:0:0:0:
320,192,130840,1,2,0:0:0:0:
448,192,130840,1,0,0:0:0:0:
192,192,130942,1,0,0:0:0:0:
448,192,131044,1,0,0:0:0:0:
320,192,131147,1,0,0:0:0:0:
64,192,131249,1,8,0:0:0:0:
192,192,131249,1,2,0:0:0:0:
320,192,131351,1,0,0:0:0:0:
448,192,131453,128,0,131555:0:0:0:0:
192,192,131555,128,0,131657:0:0:0:0:
64,192,131657,1,2,0:0:0:0:
320,192,131657,128,4,132065:0:0:0:0:
448,192,131657,1,0,0:0:0:0:
192,192,131759,1,0,0:0:0:0:
448,192,131861,1,0,0:0:0:0:
192,192,131963,1,0,0:0:0:0:
64,192,132065,1,8,0:0:0:0:
448,192,132065,1,2,0:0:0:0:
192,192,132167,1,0,0:0:0:0:
320,192,132269,128,0,132371:0:0:0:0:
64,192,132371,128,0,132473:0:0:0:0:
320,192,132473,1,2,0:0:0:0:
448,192,132473,1,0,0:0:0:0:
192,192,132575,1,0,0:0:0:0:
320,192,132677,1,0,0:0:0:0:
320,192,132779,1,0,0:0:0:0:
64,192,132881,1,8,0:0:0:0:
448,192,132881,1,2,0:0:0:0:
192,192,132983,1,0,0:0:0:0:
64,192,133085,128,0,133187:0:0:0:0:
448,192,133187,128,0,133289:0:0:0:0:
64,192,133289,128,2,133698:0:0:0:0:
192,192,133289,1,0,0:0:0:0:
320,192,133391,1,0,0:0:0:0:
192,192,133493,1,0,0:0:0:0:
320,192,133596,1,0,0:0:0:0:
192,192,133698,1,8,0:0:0:0:
448,192,133698,1,2,0:0:0:0:
320,192,133800,1,0,0:0:0:0:
192,192,133902,128,0,134004:0:0:0:0:
448,192,134004,128,0,134106:0:0:0:0:
64,192,134106,1,2,0:0:0:0:
192,192,134106,1,0,0:0:0:0:
320,192,134208,1,0,0:0:0:0:
192,192,134310,1,0,0:0:0:0:
320,192,134412,1,0,0:0:0:0:
64,192,134514,1,8,0:0:0:0:
448,192,134514,1,2,0:0:0:0:
192,192,134616,128,0,134718:0:0:0:0:
320,192,134718,1,0,0:0:0:0:
448,192,134820,128,0,134922:0:0:0:0:
192,192,134922,128,2,135330:0:0:0:0:
64,192,134922,1,0,0:0:0:0:
320,192,135024,1,0,0:0:0:0:
64,192,135126,1,0,0:0:0:0:
320,192,135228,1,0,0:0:0:0:
64,192,135330,1,8,0:0:0:0:
448,192,135330,1,2,0:0:0:0:
320,192,135432,1,0,0:0:0:0:
192,192,135534,128,0,135636:0:0:0:0:
448,192,135636,128,0,135738:0:0:0:0:
64,192,135738,1,2,0:0:0:0:
192,192,135738,1,0,0:0:0:0:
320,192,135840,1,0,0:0:0:0:
192,192,135942,1,0,0:0:0:0:
192,192,136044,1,0,0:0:0:0:
64,192,136147,1,8,0:0:0:0:
448,192,136147,1,2,0:0:0:0:
320,192,136249,1,0,0:0:0:0:
448,192,136351,128,0,136453:0:0:0:0:
64,192,136453,128,0,136555:0:0:0:0:
320,192,136555,1,2,0:0:0:0:
448,192,136555,128,0,136963:0:0:0:0:
192,192,136657,1,0,0:0:0:0:
320,192,136759,1,0,0:0:0:0:
192,192,136861,1,0,0:0:0:0:
64,192,136963,1,8,0:0:0:0:
320,192,136963,1,2,0:0:0:0:
192,192,137065,1,0,0:0:0:0:
320,192,137167,128,2,137269:0:0:0:0:
448,192,137167,1,0,0:0:0:0:
192,192,137269,128,0,137371:0:0:0:0:
64,192,137371,1,2,0:0:0:0:
448,192,137371,1,0,0:0:0:0:
192,192,137473,1,0,0:0:0:0:
320,192,137575,1,0,0:0:0:0:
64,192,137677,1,2,0:0:0:0:
448,192,137677,1,0,0:0:0:0:
192,192,137779,1,0,0:0:0:0:
320,192,137881,1,0,0:0:0:0:
64,192,137983,1,2,0:0:0:0:
192,192,137983,128,0,138085:0:0:0:0:
320,192,138085,128,0,138187:0:0:0:0:
64,192,138187,1,2,0:0:0:0:
192,192,138187,128,4,138493:0:0:0:0:
448,192,138187,1,0,0:0:0:50:LR4_DSFX_TXL.wav
320,192,138391,128,0,138596:0:0:0:0:
64,192,138596,1,10,0:0:0:0:
192,192,138596,1,0,0:0:0:50:snare_wave.wav
448,192,138596,1,4,0:0:0:0:
320,192,138698,1,0,0:0:0:0:
64,192,138800,128,0,139004:0:0:0:0:
192,192,138902,128,0,139004:0:0:0:0:
320,192,139004,1,2,0:0:0:0:
448,192,139004,128,0,139208:0:0:0:0:
192,192,139106,1,0,0:0:0:0:
64,192,139208,1,0,0:0:0:0:
320,192,139310,128,0,139412:0:0:0:0:
64,192,139412,128,8,139820:0:0:0:0:
448,192,139412,1,2,0:0:0:0:
192,192,139514,1,0,0:0:0:0:
448,192,139616,1,0,0:0:0:0:
192,192,139718,1,0,0:0:0:0:
320,192,139820,1,2,0:0:0:0:
448,192,139820,128,0,140228:0:0:0:0:
192,192,139922,1,0,0:0:0:0:
64,192,140024,1,0,0:0:0:0:
320,192,140126,1,0,0:0:0:0:
64,192,140228,128,8,140432:0:0:0:0:
192,192,140228,1,2,0:0:0:0:
320,192,140330,1,0,0:0:0:0:
448,192,140432,128,0,140534:0:0:0:0:
192,192,140534,128,0,140636:0:0:0:0:
64,192,140636,1,2,0:0:0:0:
320,192,140636,128,0,141044:0:0:0:0:
192,192,140738,1,0,0:0:0:0:
448,192,140840,1,0,0:0:0:0:
192,192,140942,1,0,0:0:0:0:
64,192,141044,1,8,0:0:0:0:
448,192,141044,1,2,0:0:0:0:
192,192,141147,128,0,141249:0:0:0:0:
448,192,141249,1,0,0:0:0:0:
64,192,141351,128,0,141453:0:0:0:0:
448,192,141453,1,2,0:0:0:0:
320,192,141453,128,0,141861:0:0:0:0:
192,192,141555,1,0,0:0:0:0:
64,192,141657,1,0,0:0:0:0:
192,192,141759,1,0,0:0:0:0:
64,192,141861,1,8,0:0:0:0:
448,192,141861,1,2,0:0:0:0:
192,192,141963,1,0,0:0:0:0:
448,192,142065,128,0,142269:0:0:0:0:
320,192,142167,128,0,142269:0:0:0:0:
64,192,142269,128,2,142473:0:0:0:0:
192,192,142269,1,0,0:0:0:0:
320,192,142371,1,0,0:0:0:0:
448,192,142473,1,0,0:0:0:0:
192,192,142575,128,0,142677:0:0:0:0:
64,192,142677,1,8,0:0:0:0:
448,192,142677,128,2,143085:0:0:0:0:
320,192,142779,1,0,0:0:0:0:
64,192,142881,1,0,0:0:0:0:
320,192,142983,1,0,0:0:0:0:
64,192,143085,128,2,143493:0:0:0:0:
192,192,143085,1,0,0:0:0:0:
320,192,143187,1,0,0:0:0:0:
448,192,143289,1,0,0:0:0:0:
192,192,143391,1,0,0:0:0:0:
320,192,143493,1,8,0:0:0:0:
448,192,143493,128,2,143698:0:0:0:0:
192,192,143596,1,0,0:0:0:0:
64,192,143698,128,0,143800:0:0:0:0:
320,192,143800,128,0,143902:0:0:0:0:
64,192,143902,1,2,0:0:0:0:
448,192,143902,1,0,0:0:0:0:
320,192,144004,1,0,0:0:0:0:
64,192,144106,1,8,0:0:0:0:
448,192,144106,1,2,0:0:0:0:
192,192,144208,1,0,0:0:0:0:
192,192,144310,128,0,144718:0:0:0:0:
320,192,144514,128,0,144718:0:0:0:0:
64,192,144718,1,4,0:0:0:0:
448,192,144718,1,2,0:0:0:0:
64,192,144820,1,0,0:0:0:0:
320,192,144922,1,2,0:0:0:0:
448,192,144922,1,0,0:0:0:0:
320,192,145024,1,0,0:0:0:0:
64,192,145126,1,8,0:0:0:0:
192,192,145126,1,2,0:0:0:0:
448,192,145126,1,0,0:0:0:0:
192,192,145228,1,0,0:0:0:0:
64,192,145330,1,2,0:0:0:0:
448,192,145330,1,0,0:0:0:0:
448,192,145432,1,0,0:0:0:0:
64,192,145534,1,2,0:0:0:0:
192,192,145534,1,0,0:0:0:0:
64,192,145636,128,0,145738:0:0:0:0:
320,192,145738,1,2,0:0:0:0:
448,192,145738,1,0,0:0:0:0:
320,192,145840,128,0,145942:0:0:0:0:
64,192,145942,128,4,146249:0:0:0:0:
192,192,145942,1,2,0:0:0:0:
448,192,145942,128,0,146249:0:0:0:0:
192,192,146147,128,0,146351:0:0:0:0:
64,192,146351,1,4,0:0:0:0:
320,192,146351,1,2,0:0:0:0:
448,192,146351,1,0,0:0:0:0:
448,192,146453,1,0,0:0:0:0:
64,192,146555,1,2,0:0:0:0:
192,192,146555,1,0,0:0:0:0:
192,192,146657,1,0,0:0:0:0:
64,192,146759,1,8,0:0:0:0:
320,192,146759,1,2,0:0:0:0:
448,192,146759,1,0,0:0:0:0:
320,192,146861,1,0,0:0:0:0:
64,192,146963,1,2,0:0:0:0:
448,192,146963,1,0,0:0:0:0:
64,192,147065,1,0,0:0:0:0:
320,192,147167,1,2,0:0:0:0:
448,192,147167,1,0,0:0:0:0:
448,192,147269,128,0,147371:0:0:0:0:
64,192,147371,1,2,0:0:0:0:
192,192,147371,1,0,0:0:0:0:
192,192,147473,128,0,147575:0:0:0:0:
64,192,147575,128,4,147881:0:0:0:0:
320,192,147575,1,2,0:0:0:0:
448,192,147575,128,0,147881:0:0:0:0:
320,192,147779,128,0,147983:0:0:0:0:
64,192,147983,1,2,0:0:0:0:
192,192,147983,1,4,0:0:0:0:
448,192,147983,1,0,0:0:0:0:
192,192,148085,1,2,0:0:0:0:
320,192,148085,1,0,0:0:0:0:
320,192,148187,1,2,0:0:0:0:
448,192,148187,1,0,0:0:0:0:
64,192,148289,1,2,0:0:0:0:
192,192,148289,1,0,0:0:0:0:
64,192,148391,1,8,0:0:0:0:
320,192,148391,1,2,0:0:0:0:
448,192,148391,1,0,0:0:0:0:
192,192,148493,1,2,0:0:0:0:
320,192,148493,1,0,0:0:0:0:
64,192,148596,1,2,0:0:0:0:
192,192,148596,1,0,0:0:0:0:
320,192,148698,1,2,0:0:0:0:
448,192,148698,1,0,0:0:0:0:
64,192,148800,1,2,0:0:0:0:
448,192,148800,1,0,0:0:0:0:
192,192,148902,1,2,0:0:0:0:
320,192,148902,1,0,0:0:0:0:
320,192,149004,1,2,0:0:0:0:
448,192,149004,1,0,0:0:0:0:
64,192,149106,1,2,0:0:0:0:
192,192,149106,1,0,0:0:0:0:
64,192,149208,1,4,0:0:0:0:
320,192,149208,128,2,149514:0:0:0:0:
448,192,149208,128,0,149514:0:0:0:0:
192,192,149412,128,0,149616:0:0:0:0:
64,192,149616,1,4,0:0:0:0:
320,192,149616,1,2,0:0:0:0:
448,192,149616,1,0,0:0:0:0:
192,192,149718,1,0,0:0:0:0:
320,192,149820,1,0,0:0:0:0:
320,192,149922,1,0,0:0:0:0:
64,192,150024,128,0,150330:0:0:0:0:
192,192,150126,128,0,150330:0:0:0:0:
320,192,150228,128,0,150432:0:0:0:0:
448,192,150330,128,0,150432:0:0:0:0:
64,192,150432,1,2,0:0:0:0:
192,192,150432,1,0,0:0:0:0:
192,192,150534,1,0,0:0:0:0:
448,192,150636,1,0,0:0:0:0:
448,192,150738,1,0,0:0:0:0:
64,192,150840,1,0,0:0:0:0:
64,192,150942,1,0,0:0:0:0:
320,192,151044,1,0,0:0:0:0:
448,192,151044,1,0,0:0:0:0:
320,192,151147,1,0,0:0:0:0:
64,192,151249,1,4,0:0:0:0:
192,192,151249,1,2,0:0:0:0:
448,192,151249,1,0,0:0:0:50:snare_wave.wav
64,192,151453,1,0,0:0:0:0:
192,192,151555,1,0,0:0:0:0:
320,192,151657,1,2,0:0:0:0:
448,192,151861,1,0,0:0:0:0:
320,192,151963,1,0,0:0:0:0:
192,192,152065,1,2,0:0:0:0:
64,192,152269,1,0,0:0:0:0:
320,192,152371,1,0,0:0:0:0:
192,192,152473,1,2,0:0:0:0:
448,192,152677,1,0,0:0:0:0:
192,192,152779,1,0,0:0:0:0:
320,192,152881,1,2,0:0:0:0:
64,192,153085,1,0,0:0:0:0:
192,192,153187,1,0,0:0:0:0:
320,192,153289,1,2,0:0:0:0:
448,192,153493,1,0,0:0:0:0:
320,192,153596,1,0,0:0:0:0:
192,192,153698,1,2,0:0:0:0:
64,192,153902,1,0,0:0:0:0:
320,192,154004,1,0,0:0:0:0:
192,192,154106,1,2,0:0:0:0:
448,192,154310,1,0,0:0:0:0:
192,192,154412,1,0,0:0:0:0:
320,192,154514,1,2,0:0:0:0:
64,192,154718,1,0,0:0:0:0:
192,192,154820,1,0,0:0:0:0:
320,192,154922,1,2,0:0:0:0:
448,192,155126,1,0,0:0:0:0:
320,192,155228,1,0,0:0:0:0:
192,192,155330,1,2,0:0:0:0:
64,192,155534,1,0,0:0:0:0:
320,192,155636,1,0,0:0:0:0:
192,192,155738,1,2,0:0:0:0:
448,192,155942,1,0,0:0:0:0:
192,192,156044,1,0,0:0:0:0:
320,192,156147,1,2,0:0:0:0:
64,192,156351,1,0,0:0:0:0:
192,192,156453,1,0,0:0:0:0:
320,192,156555,1,2,0:0:0:0:
448,192,156759,1,0,0:0:0:0:
320,192,156861,1,0,0:0:0:0:
192,192,156963,1,2,0:0:0:0:
64,192,157167,1,0,0:0:0:0:
320,192,157269,1,0,0:0:0:0:
192,192,157371,1,2,0:0:0:0:
448,192,157575,1,0,0:0:0:0:
192,192,157677,1,0,0:0:0:0:
320,192,157779,1,2,0:0:0:0:
448,192,157779,1,0,0:0:0:0:
64,192,157983,1,0,0:0:0:0:
192,192,158085,1,0,0:0:0:0:
320,192,158187,1,2,0:0:0:0:
448,192,158391,1,0,0:0:0:0:
320,192,158493,1,0,0:0:0:0:
192,192,158596,1,2,0:0:0:0:
64,192,158800,1,0,0:0:0:0:
320,192,158902,1,0,0:0:0:0:
192,192,159004,1,2,0:0:0:0:
448,192,159208,1,0,0:0:0:0:
192,192,159310,1,0,0:0:0:0:
320,192,159412,1,2,0:0:0:0:
64,192,159616,1,0,0:0:0:0:
192,192,159718,1,0,0:0:0:0:
320,192,159820,1,2,0:0:0:0:
448,192,160024,1,0,0:0:0:0:
320,192,160126,1,0,0:0:0:0:
192,192,160228,1,2,0:0:0:0:
64,192,160432,1,0,0:0:0:0:
320,192,160534,1,0,0:0:0:0:
192,192,160636,1,2,0:0:0:0:
448,192,160840,1,0,0:0:0:0:
192,192,160942,1,0,0:0:0:0:
320,192,161044,1,2,0:0:0:0:
448,192,161044,1,0,0:0:0:0:
64,192,161249,1,0,0:0:0:0:
192,192,161351,1,0,0:0:0:0:
320,192,161453,1,2,0:0:0:0:
448,192,161657,1,0,0:0:0:0:
320,192,161759,1,0,0:0:0:0:
64,192,161861,1,2,0:0:0:0:
192,192,161861,1,0,0:0:0:0:
64,192,162065,1,0,0:0:0:0:
320,192,162167,1,0,0:0:0:0:
192,192,162269,1,2,0:0:0:0:
448,192,162473,1,0,0:0:0:0:
192,192,162575,1,0,0:0:0:0:
320,192,162677,1,2,0:0:0:0:
448,192,162677,1,0,0:0:0:0:
64,192,162881,1,0,0:0:0:0:
192,192,162983,1,0,0:0:0:0:
320,192,163085,1,2,0:0:0:0:
448,192,163289,1,0,0:0:0:0:
320,192,163391,1,0,0:0:0:0:
64,192,163493,1,2,0:0:0:0:
192,192,163493,1,0,0:0:0:0:
64,192,163698,1,0,0:0:0:0:
320,192,163800,1,0,0:0:0:0:
192,192,163902,1,2,0:0:0:0:
448,192,164106,1,0,0:0:0:0:
192,192,164208,1,0,0:0:0:0:
64,192,164310,1,2,0:0:0:0:
320,192,164310,1,4,0:0:0:0:
448,192,164310,1,0,0:0:0:0:
192,192,164514,1,0,0:0:0:0:
320,192,164616,1,0,0:0:0:0:
64,192,164718,1,2,0:0:0:0:
192,192,164718,1,0,0:0:0:0:
320,192,164922,1,0,0:0:0:0:
192,192,165024,1,0,0:0:0:0:
320,192,165126,1,2,0:0:0:0:
448,192,165126,1,0,0:0:0:0:
64,192,165330,1,0,0:0:0:0:
320,192,165432,1,0,0:0:0:0:
64,192,165534,1,2,0:0:0:0:
192,192,165534,1,0,0:0:0:0:
448,192,165738,1,0,0:0:0:0:
192,192,165840,1,0,0:0:0:0:
320,192,165942,1,2,0:0:0:0:
448,192,165942,1,0,0:0:0:0:
192,192,166147,1,0,0:0:0:0:
448,192,166249,1,0,0:0:0:0:
64,192,166351,1,2,0:0:0:0:
192,192,166351,1,0,0:0:0:0:
320,192,166555,1,0,0:0:0:0:
64,192,166657,1,0,0:0:0:0:
320,192,166759,1,2,0:0:0:0:
448,192,166759,1,0,0:0:0:0:
64,192,166963,1,0,0:0:0:0:
448,192,167065,1,0,0:0:0:0:
64,192,167167,1,2,0:0:0:0:
192,192,167167,1,0,0:0:0:0:
448,192,167371,1,0,0:0:0:0:
64,192,167473,1,0,0:0:0:0:
320,192,167575,1,2,0:0:0:0:
448,192,167575,1,0,0:0:0:0:
192,192,167779,1,0,0:0:0:0:
320,192,167881,1,0,0:0:0:0:
448,192,167881,1,0,0:0:0:0:
64,192,167983,1,2,0:0:0:0:
192,192,167983,1,0,0:0:0:0:
320,192,168187,1,0,0:0:0:0:
64,192,168289,1,0,0:0:0:0:
192,192,168289,1,0,0:0:0:0:
320,192,168391,1,2,0:0:0:0:
448,192,168391,1,0,0:0:0:0:
64,192,168596,1,0,0:0:0:0:
320,192,168698,1,0,0:0:0:0:
448,192,168698,1,0,0:0:0:0:
64,192,168800,1,2,0:0:0:0:
192,192,168800,1,0,0:0:0:0:
448,192,169004,1,0,0:0:0:0:
64,192,169106,1,0,0:0:0:0:
192,192,169106,1,0,0:0:0:0:
320,192,169208,1,2,0:0:0:0:
448,192,169208,1,0,0:0:0:0:
192,192,169412,1,0,0:0:0:0:
320,192,169514,1,0,0:0:0:0:
448,192,169514,1,0,0:0:0:0:
64,192,169616,1,2,0:0:0:0:
192,192,169616,1,0,0:0:0:0:
320,192,169820,1,0,0:0:0:0:
64,192,169922,1,0,0:0:0:0:
192,192,169922,1,0,0:0:0:0:
320,192,170024,1,2,0:0:0:0:
448,192,170024,1,0,0:0:0:0:
64,192,170228,1,0,0:0:0:0:
320,192,170330,1,0,0:0:0:0:
448,192,170330,1,0,0:0:0:0:
64,192,170432,1,2,0:0:0:0:
192,192,170432,1,0,0:0:0:0:
320,192,170636,1,2,0:0:0:0:
448,192,170636,1,0,0:0:0:0:
64,192,170738,1,0,0:0:0:0:
192,192,170738,1,0,0:0:0:0:
64,192,170840,1,2,0:0:0:0:
320,192,170840,1,4,0:0:0:0:
448,192,170840,1,0,0:0:0:0:
192,192,171044,1,0,0:0:0:0:
320,192,171147,1,0,0:0:0:0:
64,192,171249,1,2,0:0:0:0:
448,192,171249,1,0,0:0:0:0:
192,192,171351,1,0,0:0:0:0:
320,192,171453,1,0,0:0:0:0:
448,192,171555,1,0,0:0:0:0:
64,192,171657,1,2,0:0:0:0:
192,192,171657,1,0,0:0:0:0:
320,192,171759,1,0,0:0:0:0:
448,192,171861,1,0,0:0:0:0:
192,192,171963,1,0,0:0:0:0:
64,192,172065,1,2,0:0:0:0:
448,192,172065,1,0,0:0:0:0:
320,192,172167,1,0,0:0:0:0:
192,192,172269,1,0,0:0:0:0:
64,192,172371,1,0,0:0:0:0:
320,192,172473,1,2,0:0:0:0:
448,192,172473,1,0,0:0:0:0:
192,192,172575,1,0,0:0:0:0:
64,192,172677,1,0,0:0:0:0:
320,192,172779,1,0,0:0:0:0:
64,192,172881,1,2,0:0:0:0:
448,192,172881,1,0,0:0:0:0:
192,192,172983,1,0,0:0:0:0:
320,192,173085,1,0,0:0:0:0:
448,192,173187,1,0,0:0:0:0:
64,192,173289,1,2,0:0:0:0:
192,192,173289,1,0,0:0:0:0:
320,192,173391,1,0,0:0:0:0:
448,192,173493,1,0,0:0:0:0:
192,192,173596,1,0,0:0:0:0:
64,192,173698,1,2,0:0:0:0:
448,192,173698,1,0,0:0:0:0:
320,192,173800,1,0,0:0:0:0:
192,192,173902,1,0,0:0:0:0:
64,192,174004,1,0,0:0:0:0:
320,192,174106,1,2,0:0:0:0:
448,192,174106,1,0,0:0:0:0:
192,192,174208,1,0,0:0:0:0:
64,192,174310,1,2,0:0:0:0:
448,192,174310,1,0,0:0:0:0:
320,192,174412,1,0,0:0:0:0:
64,192,174514,1,2,0:0:0:0:
192,192,174514,1,0,0:0:0:0:
320,192,174616,1,0,0:0:0:0:
192,192,174718,1,2,0:0:0:0:
448,192,174718,1,0,0:0:0:0:
64,192,174820,1,0,0:0:0:0:
320,192,174922,1,2,0:0:0:0:
448,192,174922,1,0,0:0:0:0:
64,192,175024,1,2,0:0:0:0:
192,192,175024,1,0,0:0:0:0:
320,192,175126,1,2,0:0:0:0:
448,192,175126,1,0,0:0:0:0:
64,192,175228,1,2,0:0:0:0:
192,192,175228,1,0,0:0:0:0:
320,192,175330,1,2,0:0:0:0:
448,192,175330,1,0,0:0:0:0:
320,192,175432,1,2,0:0:0:0:
448,192,175432,1,0,0:0:0:0:
64,192,175534,1,2,0:0:0:0:
192,192,175534,1,0,0:0:0:0:
64,192,175636,1,2,0:0:0:0:
192,192,175636,1,0,0:0:0:0:
64,192,175738,1,2,0:0:0:0:
448,192,175738,1,0,0:0:0:0:
320,192,175738,128,4,175840:0:0:0:0:
320,192,175942,128,0,176044:0:0:0:0:
320,192,176147,1,0,0:0:0:0:
192,192,176198,1,0,0:0:0:0:
64,192,176249,1,0,0:0:0:0:
448,192,176300,1,0,0:0:0:0:
320,192,176351,1,0,0:0:0:0:
192,192,176555,128,0,176759:0:0:0:0:
320,192,176657,128,0,176963:0:0:0:0:
192,192,176861,128,0,176963:0:0:0:0:
448,192,176963,128,0,177269:0:0:0:0:
64,192,176963,128,0,177269:0:0:0:50:LS-HKI Big Kick 09.wav
64,192,177371,1,2,0:0:0:0:
192,192,177371,1,4,0:0:0:0:
448,192,177371,1,0,0:0:0:0:
320,192,177473,1,0,0:0:0:0:
192,192,177575,1,0,0:0:0:0:
192,192,177677,1,0,0:0:0:0:
64,192,177779,1,8,0:0:0:0:
320,192,177779,1,2,0:0:0:0:
448,192,177779,1,0,0:0:0:0:
192,192,177881,1,0,0:0:0:0:
448,192,177983,1,0,0:0:0:0:
192,192,178085,1,0,0:0:0:0:
64,192,178187,1,2,0:0:0:0:
448,192,178187,1,0,0:0:0:0:
320,192,178289,1,0,0:0:0:0:
192,192,178391,1,0,0:0:0:0:
192,192,178493,1,0,0:0:0:0:
64,192,178596,1,8,0:0:0:0:
320,192,178596,1,2,0:0:0:0:
448,192,178596,1,0,0:0:0:0:
192,192,178698,1,0,0:0:0:0:
448,192,178800,1,0,0:0:0:0:
320,192,178902,1,0,0:0:0:0:
448,192,179004,1,0,0:0:0:0:
64,192,179004,1,2,0:0:0:0:
192,192,179106,1,0,0:0:0:0:
320,192,179157,1,0,0:0:0:0:
448,192,179208,1,0,0:0:0:0:
64,192,179259,1,0,0:0:0:0:
192,192,179310,1,0,0:0:0:0:
320,192,179361,1,0,0:0:0:0:
64,192,179412,1,8,0:0:0:0:
192,192,179412,1,2,0:0:0:0:
448,192,179412,1,0,0:0:0:0:
320,192,179514,1,0,0:0:0:0:
64,192,179616,1,0,0:0:0:0:
192,192,179718,1,0,0:0:0:0:
320,192,179820,1,2,0:0:0:0:
448,192,179820,1,0,0:0:0:0:
64,192,179922,1,0,0:0:0:0:
448,192,180024,1,0,0:0:0:0:
320,192,180126,1,0,0:0:0:0:
64,192,180228,1,8,0:0:0:0:
192,192,180228,1,2,0:0:0:0:
448,192,180228,1,0,0:0:0:0:
320,192,180330,1,0,0:0:0:0:
64,192,180432,1,0,0:0:0:0:
448,192,180483,1,0,0:0:0:0:
192,192,180534,1,0,0:0:0:0:
320,192,180585,1,0,0:0:0:0:
64,192,180636,1,2,0:0:0:0:
448,192,180636,1,0,0:0:0:0:
192,192,180738,1,0,0:0:0:0:
448,192,180840,1,0,0:0:0:0:
192,192,180942,1,0,0:0:0:0:
64,192,181044,1,8,0:0:0:0:
320,192,181044,1,2,0:0:0:0:
448,192,181044,1,0,0:0:0:0:
192,192,181147,1,0,0:0:0:0:
320,192,181249,1,0,0:0:0:0:
192,192,181351,1,0,0:0:0:0:
64,192,181453,1,2,0:0:0:0:
448,192,181453,1,0,0:0:0:0:
64,192,181555,1,0,0:0:0:0:
320,192,181657,1,0,0:0:0:0:
320,192,181759,1,0,0:0:0:0:
64,192,181861,1,8,0:0:0:0:
192,192,181861,1,2,0:0:0:0:
448,192,181861,1,0,0:0:0:0:
320,192,181963,1,0,0:0:0:0:
64,192,182065,1,0,0:0:0:0:
448,192,182116,1,0,0:0:0:0:
192,192,182167,1,0,0:0:0:0:
320,192,182218,1,0,0:0:0:0:
448,192,182269,1,0,0:0:0:0:
64,192,182269,1,2,0:0:0:0:
192,192,182371,1,0,0:0:0:0:
448,192,182473,1,0,0:0:0:0:
320,192,182575,1,0,0:0:0:0:
64,192,182677,1,8,0:0:0:0:
192,192,182677,1,2,0:0:0:0:
448,192,182677,1,0,0:0:0:0:
320,192,182779,1,0,0:0:0:0:
64,192,182881,1,0,0:0:0:0:
192,192,182983,1,0,0:0:0:0:
448,192,183085,128,2,183187:0:0:0:0:
320,192,183085,1,0,0:0:0:0:
192,192,183187,1,0,0:0:0:0:
64,192,183289,128,0,183391:0:0:0:0:
320,192,183391,1,0,0:0:0:0:
64,192,183493,1,8,0:0:0:0:
192,192,183493,1,2,0:0:0:0:
448,192,183493,1,0,0:0:0:0:
320,192,183596,1,0,0:0:0:0:
64,192,183698,1,0,0:0:0:0:
448,192,183749,1,0,0:0:0:0:
192,192,183800,1,0,0:0:0:0:
320,192,183851,1,0,0:0:0:0:
64,192,183902,1,2,0:0:0:0:
448,192,183902,1,0,0:0:0:0:
192,192,184004,1,0,0:0:0:0:
320,192,184106,1,0,0:0:0:0:
320,192,184208,1,0,0:0:0:0:
448,192,184310,1,8,0:0:0:0:
192,192,184310,1,2,0:0:0:0:
64,192,184310,1,0,0:0:0:0:
320,192,184412,1,0,0:0:0:0:
64,192,184514,1,0,0:0:0:0:
320,192,184616,1,0,0:0:0:0:
448,192,184718,1,2,0:0:0:0:
64,192,184718,1,0,0:0:0:0:
192,192,184820,1,0,0:0:0:0:
320,192,184922,1,0,0:0:0:0:
320,192,185024,1,0,0:0:0:0:
448,192,185126,1,8,0:0:0:0:
192,192,185126,1,2,0:0:0:0:
64,192,185126,1,0,0:0:0:0:
320,192,185228,1,0,0:0:0:0:
192,192,185330,1,0,0:0:0:0:
192,192,185432,1,0,0:0:0:0:
448,192,185534,1,2,0:0:0:0:
64,192,185534,1,0,0:0:0:0:
320,192,185636,1,0,0:0:0:0:
192,192,185687,1,0,0:0:0:0:
64,192,185738,1,0,0:0:0:0:
448,192,185789,1,0,0:0:0:0:
320,192,185840,1,0,0:0:0:0:
192,192,185891,1,0,0:0:0:0:
448,192,185942,1,8,0:0:0:0:
320,192,185942,1,2,0:0:0:0:
64,192,185942,1,0,0:0:0:0:
192,192,186044,1,0,0:0:0:0:
448,192,186147,1,0,0:0:0:0:
320,192,186249,1,0,0:0:0:0:
192,192,186351,1,2,0:0:0:0:
64,192,186351,1,0,0:0:0:0:
448,192,186453,1,0,0:0:0:0:
64,192,186555,1,0,0:0:0:0:
192,192,186657,1,0,0:0:0:0:
448,192,186759,1,8,0:0:0:0:
320,192,186759,1,2,0:0:0:0:
64,192,186759,1,0,0:0:0:0:
192,192,186861,1,0,0:0:0:0:
448,192,186963,1,0,0:0:0:0:
64,192,187014,1,0,0:0:0:0:
320,192,187065,1,0,0:0:0:0:
192,192,187116,1,0,0:0:0:0:
64,192,187167,1,0,0:0:0:0:
448,192,187167,1,2,0:0:0:0:
320,192,187269,1,0,0:0:0:0:
64,192,187371,1,0,0:0:0:0:
320,192,187473,1,0,0:0:0:0:
448,192,187575,1,8,0:0:0:0:
192,192,187575,1,2,0:0:0:0:
64,192,187575,1,0,0:0:0:0:
320,192,187677,1,0,0:0:0:0:
192,192,187779,1,0,0:0:0:0:
320,192,187881,1,0,0:0:0:0:
448,192,187983,1,2,0:0:0:0:
64,192,187983,1,0,0:0:0:0:
448,192,188085,1,0,0:0:0:0:
192,192,188187,1,0,0:0:0:0:
192,192,188289,1,0,0:0:0:0:
448,192,188391,1,8,0:0:0:0:
320,192,188391,1,2,0:0:0:0:
64,192,188391,1,0,0:0:0:0:
192,192,188493,1,0,0:0:0:0:
448,192,188596,1,0,0:0:0:0:
64,192,188647,1,0,0:0:0:0:
320,192,188698,1,0,0:0:0:0:
192,192,188749,1,0,0:0:0:0:
64,192,188800,1,2,0:0:0:0:
448,192,188800,1,0,0:0:0:0:
320,192,188902,1,0,0:0:0:0:
320,192,189004,1,0,0:0:0:0:
192,192,189106,1,0,0:0:0:0:
64,192,189208,1,8,0:0:0:0:
320,192,189208,1,2,0:0:0:0:
448,192,189208,1,0,0:0:0:0:
320,192,189310,1,0,0:0:0:0:
64,192,189412,1,2,0:0:0:0:
192,192,189412,1,0,0:0:0:0:
64,192,189514,1,0,0:0:0:0:
320,192,189616,1,2,0:0:0:0:
448,192,189616,1,0,0:0:0:0:
320,192,189718,1,0,0:0:0:0:
192,192,189820,1,0,0:0:0:0:
192,192,189922,1,0,0:0:0:0:
64,192,190024,128,0,190126:0:0:0:0:
448,192,190024,128,0,190126:0:0:0:0:
320,192,190126,1,0,0:0:0:0:
64,192,190228,1,2,0:0:0:0:
192,192,190228,1,0,0:0:0:0:
320,192,190330,1,0,0:0:0:0:
64,192,190432,1,4,0:0:0:0:
192,192,190432,1,2,0:0:0:0:
448,192,190432,1,0,0:0:0:0:
320,192,190534,1,0,0:0:0:0:
320,192,190636,1,0,0:0:0:0:
320,192,190738,1,0,0:0:0:0:
64,192,190840,1,8,0:0:0:0:
192,192,190840,1,2,0:0:0:0:
448,192,190840,1,0,0:0:0:0:
320,192,190942,1,0,0:0:0:0:
64,192,191044,1,0,0:0:0:0:
320,192,191147,1,0,0:0:0:0:
64,192,191249,1,2,0:0:0:0:
448,192,191249,1,0,0:0:0:0:
192,192,191300,1,0,0:0:0:0:
320,192,191351,1,0,0:0:0:0:
64,192,191453,1,0,0:0:0:0:
192,192,191555,1,0,0:0:0:0:
320,192,191606,1,0,0:0:0:0:
64,192,191657,1,8,0:0:0:0:
192,192,191657,1,2,0:0:0:0:
448,192,191657,1,0,0:0:0:0:
64,192,191759,1,0,0:0:0:0:
448,192,191861,1,0,0:0:0:0:
448,192,191963,1,0,0:0:0:0:
64,192,192065,1,2,0:0:0:0:
192,192,192065,1,0,0:0:0:0:
320,192,192167,1,0,0:0:0:0:
448,192,192218,1,0,0:0:0:0:
192,192,192269,1,0,0:0:0:0:
64,192,192320,1,0,0:0:0:0:
320,192,192371,1,0,0:0:0:0:
192,192,192422,1,0,0:0:0:0:
64,192,192473,1,8,0:0:0:0:
320,192,192473,1,2,0:0:0:0:
448,192,192473,1,0,0:0:0:0:
192,192,192575,1,0,0:0:0:0:
320,192,192677,1,0,0:0:0:0:
320,192,192779,1,0,0:0:0:0:
64,192,192881,1,2,0:0:0:0:
448,192,192881,1,0,0:0:0:0:
192,192,192983,1,0,0:0:0:0:
448,192,193085,1,0,0:0:0:0:
448,192,193187,1,0,0:0:0:0:
64,192,193289,1,8,0:0:0:0:
192,192,193289,1,2,0:0:0:0:
320,192,193289,1,0,0:0:0:0:
320,192,193391,1,0,0:0:0:0:
64,192,193493,1,0,0:0:0:0:
192,192,193596,1,0,0:0:0:0:
320,192,193698,1,2,0:0:0:0:
448,192,193698,1,0,0:0:0:0:
64,192,193800,1,0,0:0:0:0:
64,192,193902,1,0,0:0:0:0:
64,192,194004,1,0,0:0:0:0:
192,192,194106,1,8,0:0:0:0:
320,192,194106,1,2,0:0:0:0:
448,192,194106,1,0,0:0:0:0:
64,192,194208,1,0,0:0:0:0:
320,192,194310,1,0,0:0:0:0:
192,192,194412,1,0,0:0:0:0:
64,192,194514,1,0,0:0:0:0:
448,192,194514,1,2,0:0:0:0:
320,192,194565,1,0,0:0:0:0:
192,192,194616,1,0,0:0:0:0:
448,192,194718,1,0,0:0:0:0:
320,192,194820,1,0,0:0:0:0:
192,192,194871,1,0,0:0:0:0:
448,192,194922,1,8,0:0:0:0:
320,192,194922,1,2,0:0:0:0:
64,192,194922,1,0,0:0:0:0:
448,192,195024,1,0,0:0:0:0:
64,192,195126,1,0,0:0:0:0:
64,192,195228,1,0,0:0:0:0:
320,192,195330,1,2,0:0:0:0:
448,192,195330,1,0,0:0:0:0:
320,192,195432,1,0,0:0:0:0:
192,192,195534,1,0,0:0:0:0:
320,192,195636,1,0,0:0:0:0:
64,192,195738,1,8,0:0:0:0:
192,192,195738,1,2,0:0:0:0:
448,192,195738,1,0,0:0:0:0:
320,192,195840,1,0,0:0:0:0:
64,192,195942,1,0,0:0:0:0:
64,192,196044,1,0,0:0:0:0:
320,192,196147,1,2,0:0:0:0:
448,192,196147,1,0,0:0:0:0:
192,192,196249,1,0,0:0:0:0:
320,192,196351,1,0,0:0:0:0:
320,192,196453,1,0,0:0:0:0:
64,192,196555,1,8,0:0:0:0:
192,192,196555,1,2,0:0:0:0:
448,192,196555,1,0,0:0:0:0:
192,192,196657,1,0,0:0:0:0:
448,192,196759,1,0,0:0:0:0:
192,192,196861,1,0,0:0:0:0:
64,192,196963,1,2,0:0:0:0:
320,192,196963,1,0,0:0:0:0:
448,192,196963,1,0,0:0:0:0:
192,192,197065,1,0,0:0:0:0:
192,192,197167,1,0,0:0:0:0:
192,192,197269,1,2,0:0:0:0:
320,192,197269,1,0,0:0:0:0:
64,192,197371,1,8,0:0:0:0:
320,192,197371,1,2,0:0:0:0:
448,192,197371,1,0,0:0:0:0:
192,192,197473,1,0,0:0:0:0:
448,192,197575,1,0,0:0:0:0:
192,192,197677,1,0,0:0:0:0:
64,192,197779,1,2,0:0:0:0:
448,192,197779,1,0,0:0:0:0:
320,192,197830,1,0,0:0:0:0:
192,192,197881,1,0,0:0:0:0:
320,192,197983,1,0,0:0:0:0:
192,192,198085,1,0,0:0:0:0:
320,192,198136,1,0,0:0:0:0:
448,192,198187,1,0,0:0:0:0:
192,192,198187,1,2,0:0:0:0:
64,192,198187,1,8,0:0:0:0:
448,192,198289,1,0,0:0:0:0:
64,192,198391,1,0,0:0:0:0:
64,192,198493,1,0,0:0:0:0:
320,192,198596,1,2,0:0:0:0:
448,192,198596,1,0,0:0:0:0:
192,192,198698,1,0,0:0:0:0:
64,192,198749,1,0,0:0:0:0:
320,192,198800,1,0,0:0:0:0:
448,192,198851,1,0,0:0:0:0:
192,192,198902,1,0,0:0:0:0:
320,192,198953,1,0,0:0:0:0:
64,192,199004,1,8,0:0:0:0:
192,192,199004,1,2,0:0:0:0:
448,192,199004,1,0,0:0:0:0:
320,192,199106,1,0,0:0:0:0:
192,192,199208,1,0,0:0:0:0:
192,192,199310,1,0,0:0:0:0:
64,192,199412,1,2,0:0:0:0:
448,192,199412,1,0,0:0:0:0:
320,192,199514,1,0,0:0:0:0:
64,192,199616,1,0,0:0:0:0:
64,192,199718,1,0,0:0:0:0:
192,192,199820,1,8,0:0:0:0:
320,192,199820,1,2,0:0:0:0:
448,192,199820,1,0,0:0:0:0:
192,192,199922,1,0,0:0:0:0:
448,192,200024,1,0,0:0:0:0:
320,192,200126,1,0,0:0:0:0:
64,192,200228,1,2,0:0:0:0:
192,192,200228,1,0,0:0:0:0:
448,192,200330,1,0,0:0:0:0:
448,192,200432,1,0,0:0:0:0:
448,192,200534,1,0,0:0:0:0:
64,192,200636,128,8,200738:0:0:0:0:
192,192,200636,1,2,0:0:0:0:
320,192,200636,1,0,0:0:0:0:
448,192,200738,128,0,200840:0:0:0:0:
192,192,200840,128,0,200942:0:0:0:0:
320,192,200942,128,0,201044:0:0:0:0:
64,192,201044,1,2,0:0:0:0:
192,192,201044,1,0,0:0:0:0:
448,192,201044,1,0,0:0:0:0:
192,192,201147,1,0,0:0:0:0:
320,192,201249,1,0,0:0:0:0:
320,192,201351,1,0,0:0:0:0:
192,192,201453,1,0,0:0:0:0:
192,192,201555,1,0,0:0:0:0:
448,192,201657,1,2,0:0:0:0:
64,192,201657,1,0,0:0:0:0:
320,192,201759,1,0,0:0:0:0:
448,192,201861,1,2,0:0:0:0:
192,192,201861,1,4,0:0:0:0:
64,192,201861,1,0,0:0:0:0:
320,192,202065,1,0,0:0:0:0:
64,192,202167,1,2,0:0:0:0:
192,192,202167,1,0,0:0:0:0:
64,192,202269,1,0,0:0:0:40:SNARE-D-CEPTOR_RawSushi.wav
320,192,202269,1,0,0:0:0:0:
448,192,202269,1,0,0:0:0:0:
192,192,202371,1,0,0:0:0:40:electronic32.wav
448,192,202473,1,0,0:0:0:40:electronic32.wav
320,192,202524,1,0,0:0:0:40:electronic32.wav
64,192,202575,1,0,0:0:0:40:electronic32.wav
192,192,202626,1,0,0:0:0:40:electronic32.wav
320,192,202677,1,2,0:0:0:0:
448,192,202677,1,0,0:0:0:0:
64,192,202779,1,0,0:0:0:0:
64,192,202881,1,0,0:0:0:40:SNARE-D-CEPTOR_RawSushi.wav
192,192,202881,1,0,0:0:0:0:
448,192,202881,1,0,0:0:0:0:
320,192,202983,1,2,0:0:0:0:
448,192,202983,1,0,0:0:0:0:
64,192,203085,1,0,0:0:0:0:
192,192,203136,1,0,0:0:0:0:
64,192,203187,1,0,0:0:0:40:SNARE-D-CEPTOR_RawSushi.wav
448,192,203187,1,0,0:0:0:0:
320,192,203187,1,0,0:0:0:0:
448,192,203289,1,2,0:0:0:0:
192,192,203289,1,0,0:0:0:0:
320,192,203391,1,0,0:0:0:0:
64,192,203493,1,4,0:0:0:0:
192,192,203493,1,2,0:0:0:0:
448,192,203493,1,0,0:0:0:0:
320,192,203596,1,0,0:0:0:0:
192,192,203698,1,0,0:0:0:0:
192,192,203800,1,0,0:0:0:0:
64,192,203902,128,8,204208:0:0:0:0:
320,192,203902,1,2,0:0:0:0:
448,192,203902,1,0,0:0:0:0:
192,192,204004,1,0,0:0:0:0:
448,192,204106,1,0,0:0:0:0:
448,192,204208,1,0,0:0:0:0:
64,192,204310,1,2,0:0:0:0:
192,192,204310,1,0,0:0:0:0:
320,192,204412,1,0,0:0:0:0:
320,192,204514,1,0,0:0:0:0:
64,192,204616,1,0,0:0:0:0:
192,192,204718,1,8,0:0:0:0:
320,192,204718,1,2,0:0:0:0:
448,192,204718,1,0,0:0:0:0:
192,192,204820,1,0,0:0:0:0:
320,192,204922,1,0,0:0:0:0:
320,192,205024,1,0,0:0:0:0:
448,192,205126,1,0,0:0:0:0:
64,192,205126,1,2,0:0:0:0:
192,192,205228,1,0,0:0:0:0:
320,192,205279,1,0,0:0:0:0:
448,192,205330,1,0,0:0:0:0:
64,192,205381,1,0,0:0:0:0:
192,192,205432,1,0,0:0:0:0:
320,192,205483,1,0,0:0:0:0:
64,192,205534,1,8,0:0:0:0:
192,192,205534,1,2,0:0:0:0:
448,192,205534,1,0,0:0:0:0:
320,192,205636,1,0,0:0:0:0:
64,192,205738,1,0,0:0:0:0:
64,192,205840,1,0,0:0:0:0:
320,192,205942,1,2,0:0:0:0:
448,192,205942,1,0,0:0:0:0:
192,192,206044,1,0,0:0:0:0:
448,192,206147,1,0,0:0:0:0:
448,192,206249,1,0,0:0:0:0:
64,192,206351,128,8,206453:0:0:0:0:
192,192,206351,1,2,0:0:0:0:
320,192,206351,1,0,0:0:0:0:
320,192,206453,128,0,206555:0:0:0:0:
192,192,206555,1,0,0:0:0:0:
192,192,206657,1,0,0:0:0:0:
64,192,206759,1,2,0:0:0:0:
448,192,206759,1,0,0:0:0:0:
320,192,206861,128,0,206963:0:0:0:0:
64,192,206963,1,0,0:0:0:0:
192,192,207065,128,0,207167:0:0:0:0:
64,192,207167,1,8,0:0:0:0:
320,192,207167,1,2,0:0:0:0:
448,192,207167,1,0,0:0:0:0:
192,192,207269,1,0,0:0:0:0:
320,192,207371,1,0,0:0:0:0:
320,192,207473,1,0,0:0:0:0:
64,192,207575,1,2,0:0:0:0:
192,192,207575,1,0,0:0:0:0:
448,192,207677,1,0,0:0:0:0:
192,192,207779,1,0,0:0:0:0:
192,192,207881,1,0,0:0:0:0:
64,192,207983,1,8,0:0:0:0:
320,192,207983,1,2,0:0:0:0:
448,192,207983,1,0,0:0:0:0:
192,192,208085,1,0,0:0:0:0:
320,192,208187,1,0,0:0:0:0:
320,192,208289,1,0,0:0:0:0:
64,192,208391,1,2,0:0:0:0:
448,192,208391,1,0,0:0:0:0:
192,192,208493,128,0,208596:0:0:0:0:
448,192,208596,1,0,0:0:0:0:
320,192,208698,128,0,208800:0:0:0:0:
64,192,208800,1,8,0:0:0:0:
192,192,208800,1,2,0:0:0:0:
448,192,208800,1,0,0:0:0:0:
320,192,208902,1,0,0:0:0:0:
64,192,209004,1,0,0:0:0:0:
64,192,209106,128,0,209208:0:0:0:0:
320,192,209208,1,2,0:0:0:0:
448,192,209208,1,0,0:0:0:0:
448,192,209310,128,0,209412:0:0:0:0:
192,192,209412,1,0,0:0:0:0:
192,192,209514,128,0,209616:0:0:0:0:
64,192,209616,1,8,0:0:0:0:
320,192,209616,1,2,0:0:0:0:
448,192,209616,1,0,0:0:0:0:
320,192,209718,128,0,209820:0:0:0:0:
192,192,209820,128,0,210024:0:0:0:0:
320,192,209922,1,0,0:0:0:0:
64,192,210024,1,2,0:0:0:0:
448,192,210024,1,0,0:0:0:0:
192,192,210126,1,0,0:0:0:0:
320,192,210228,1,0,0:0:0:0:
320,192,210330,1,0,0:0:0:0:
64,192,210432,1,8,0:0:0:0:
192,192,210432,1,2,0:0:0:0:
448,192,210432,128,0,210738:0:0:0:0:
320,192,210534,1,0,0:0:0:0:
64,192,210636,1,0,0:0:0:0:
64,192,210738,1,0,0:0:0:0:
320,192,210840,1,2,0:0:0:0:
448,192,210840,1,0,0:0:0:0:
192,192,210942,1,0,0:0:0:0:
448,192,211044,1,0,0:0:0:0:
448,192,211147,1,0,0:0:0:0:
64,192,211249,1,8,0:0:0:0:
192,192,211249,1,2,0:0:0:0:
320,192,211249,1,0,0:0:0:0:
320,192,211351,1,0,0:0:0:0:
192,192,211453,1,0,0:0:0:0:
192,192,211555,1,0,0:0:0:0:
64,192,211657,1,2,0:0:0:0:
448,192,211657,1,0,0:0:0:0:
320,192,211759,1,0,0:0:0:0:
192,192,211810,1,0,0:0:0:0:
64,192,211861,1,0,0:0:0:0:
448,192,211912,1,0,0:0:0:0:
320,192,211963,1,0,0:0:0:0:
192,192,212014,1,0,0:0:0:0:
64,192,212065,1,8,0:0:0:0:
320,192,212065,1,2,0:0:0:0:
448,192,212065,1,0,0:0:0:0:
192,192,212167,1,0,0:0:0:0:
448,192,212269,1,0,0:0:0:0:
448,192,212371,1,0,0:0:0:0:
64,192,212473,1,2,0:0:0:0:
192,192,212473,1,0,0:0:0:0:
320,192,212575,1,0,0:0:0:0:
64,192,212677,1,0,0:0:0:0:
64,192,212779,1,0,0:0:0:0:
192,192,212881,1,8,0:0:0:0:
320,192,212881,1,2,0:0:0:0:
448,192,212881,128,0,212983:0:0:0:0:
192,192,212983,128,0,213085:0:0:0:0:
320,192,213085,128,0,213187:0:0:0:0:
192,192,213187,1,0,0:0:0:0:
64,192,213289,1,2,0:0:0:0:
448,192,213289,1,0,0:0:0:0:
192,192,213391,128,0,213493:0:0:0:0:
448,192,213493,1,0,0:0:0:0:
320,192,213596,128,0,213698:0:0:0:0:
64,192,213698,1,8,0:0:0:0:
192,192,213698,1,2,0:0:0:0:
448,192,213698,1,0,0:0:0:0:
320,192,213800,1,0,0:0:0:0:
192,192,213902,1,0,0:0:0:0:
192,192,214004,1,0,0:0:0:0:
320,192,214106,1,2,0:0:0:0:
448,192,214106,1,0,0:0:0:0:
64,192,214208,1,0,0:0:0:0:
320,192,214310,1,0,0:0:0:0:
320,192,214412,1,0,0:0:0:0:
64,192,214514,1,8,0:0:0:0:
192,192,214514,1,2,0:0:0:0:
448,192,214514,1,0,0:0:0:0:
320,192,214616,1,0,0:0:0:0:
192,192,214718,1,0,0:0:0:0:
192,192,214820,1,0,0:0:0:0:
64,192,214922,1,2,0:0:0:0:
448,192,214922,1,0,0:0:0:0:
320,192,215024,128,0,215126:0:0:0:0:
64,192,215126,1,0,0:0:0:0:
192,192,215228,128,0,215330:0:0:0:0:
64,192,215330,1,8,0:0:0:0:
320,192,215330,1,2,0:0:0:0:
448,192,215330,1,0,0:0:0:0:
192,192,215432,1,0,0:0:0:0:
320,192,215534,1,0,0:0:0:0:
320,192,215636,1,0,0:0:0:0:
64,192,215738,1,2,0:0:0:0:
192,192,215738,1,0,0:0:0:0:
320,192,215789,1,0,0:0:0:0:
64,192,215840,1,2,0:0:0:0:
192,192,215891,1,0,0:0:0:0:
448,192,215942,1,8,0:0:0:0:
320,192,215942,1,2,0:0:0:0:
192,192,215993,1,0,0:0:0:0:
448,192,216044,1,2,0:0:0:0:
320,192,216096,1,0,0:0:0:0:
192,192,216147,1,4,0:0:0:0:
64,192,216147,1,2,0:0:0:0:
192,192,216249,128,0,216351:0:0:0:0:
320,192,216351,1,2,0:0:0:0:
448,192,216351,1,4,0:0:0:0:
320,192,216453,128,0,216555:0:0:0:0:
64,192,216555,1,2,0:0:0:0:
192,192,216555,1,4,0:0:0:0:
448,192,216555,1,0,0:0:0:0:
320,192,216657,1,0,0:0:0:0:
192,192,216759,1,0,0:0:0:0:
192,192,216861,1,0,0:0:0:0:
64,192,216963,128,8,217269:0:0:0:0:
320,192,216963,1,2,0:0:0:0:
448,192,216963,1,0,0:0:0:0:
192,192,217065,1,0,0:0:0:0:
448,192,217167,1,0,0:0:0:0:
448,192,217269,1,0,0:0:0:0:
64,192,217371,1,2,0:0:0:0:
192,192,217371,1,0,0:0:0:0:
320,192,217473,1,0,0:0:0:0:
64,192,217575,1,0,0:0:0:0:
64,192,217677,1,0,0:0:0:0:
192,192,217779,1,8,0:0:0:0:
320,192,217779,1,2,0:0:0:0:
448,192,217779,1,0,0:0:0:0:
192,192,217881,1,0,0:0:0:0:
320,192,217983,1,0,0:0:0:0:
320,192,218085,1,0,0:0:0:0:
64,192,218187,1,2,0:0:0:0:
448,192,218187,1,0,0:0:0:0:
192,192,218289,1,0,0:0:0:0:
448,192,218340,1,0,0:0:0:0:
320,192,218391,1,0,0:0:0:0:
192,192,218442,1,0,0:0:0:0:
64,192,218493,1,0,0:0:0:0:
320,192,218544,1,0,0:0:0:0:
64,192,218596,1,8,0:0:0:0:
192,192,218596,1,2,0:0:0:0:
448,192,218596,1,0,0:0:0:0:
320,192,218698,1,0,0:0:0:0:
64,192,218800,1,0,0:0:0:0:
64,192,218902,1,0,0:0:0:0:
320,192,219004,1,2,0:0:0:0:
448,192,219004,1,0,0:0:0:0:
192,192,219106,1,0,0:0:0:0:
448,192,219208,1,0,0:0:0:0:
448,192,219310,1,0,0:0:0:0:
64,192,219412,1,8,0:0:0:0:
192,192,219412,128,2,219514:0:0:0:0:
320,192,219412,1,0,0:0:0:0:
320,192,219514,128,0,219616:0:0:0:0:
192,192,219616,1,0,0:0:0:0:
192,192,219718,1,0,0:0:0:0:
64,192,219820,1,2,0:0:0:0:
448,192,219820,1,0,0:0:0:0:
320,192,219922,128,0,220024:0:0:0:0:
64,192,220024,1,0,0:0:0:0:
192,192,220126,128,0,220228:0:0:0:0:
64,192,220228,1,8,0:0:0:0:
320,192,220228,1,2,0:0:0:0:
448,192,220228,1,0,0:0:0:0:
192,192,220330,1,0,0:0:0:0:
320,192,220432,1,0,0:0:0:0:
320,192,220534,1,0,0:0:0:0:
64,192,220636,1,2,0:0:0:0:
192,192,220636,1,0,0:0:0:0:
320,192,220738,1,0,0:0:0:0:
192,192,220840,1,2,0:0:0:0:
448,192,220840,1,0,0:0:0:0:
64,192,220942,1,2,0:0:0:0:
192,192,220942,1,0,0:0:0:0:
64,192,221044,1,8,0:0:0:0:
320,192,221044,1,2,0:0:0:0:
448,192,221044,1,0,0:0:0:0:
192,192,221147,1,0,0:0:0:0:
320,192,221249,1,0,0:0:0:0:
320,192,221351,1,0,0:0:0:0:
64,192,221453,1,2,0:0:0:0:
448,192,221453,1,0,0:0:0:0:
192,192,221555,128,0,221657:0:0:0:0:
448,192,221657,1,0,0:0:0:0:
320,192,221759,128,0,221861:0:0:0:0:
64,192,221861,1,8,0:0:0:0:
192,192,221861,1,2,0:0:0:0:
448,192,221861,1,0,0:0:0:0:
320,192,221963,1,0,0:0:0:0:
64,192,222065,1,0,0:0:0:0:
64,192,222167,128,0,222269:0:0:0:0:
320,192,222269,1,2,0:0:0:0:
448,192,222269,1,0,0:0:0:0:
448,192,222371,128,0,222473:0:0:0:0:
64,192,222473,1,2,0:0:0:0:
192,192,222473,1,0,0:0:0:0:
192,192,222575,128,0,222677:0:0:0:0:
64,192,222677,1,8,0:0:0:0:
320,192,222677,1,2,0:0:0:0:
448,192,222677,1,0,0:0:0:0:
320,192,222779,128,0,223085:0:0:0:0:
192,192,222881,1,0,0:0:0:0:
192,192,222983,1,0,0:0:0:0:
64,192,223085,128,2,223391:0:0:0:0:
448,192,223085,128,0,223391:0:0:0:0:
64,192,223493,1,4,0:0:0:0:
192,192,223493,1,8,0:0:0:0:
320,192,223493,1,2,0:0:0:0:
448,192,223493,1,0,0:0:0:70:snare_wave.wav
320,192,223596,1,0,0:0:0:0:
64,192,223698,1,0,0:0:0:0:
64,192,223800,1,0,0:0:0:0:
320,192,223902,1,2,0:0:0:0:
448,192,223902,1,0,0:0:0:0:
192,192,224004,1,0,0:0:0:0:
320,192,224106,1,0,0:0:0:0:
320,192,224208,1,0,0:0:0:0:
64,192,224310,1,8,0:0:0:0:
192,192,224310,1,2,0:0:0:0:
448,192,224310,1,0,0:0:0:0:
192,192,224412,1,0,0:0:0:0:
320,192,224514,1,0,0:0:0:0:
320,192,224616,1,0,0:0:0:0:
64,192,224718,1,2,0:0:0:0:
448,192,224718,1,0,0:0:0:0:
320,192,224820,1,0,0:0:0:0:
64,192,224871,1,0,0:0:0:0:
192,192,224922,1,0,0:0:0:0:
320,192,224973,1,0,0:0:0:0:
448,192,225024,1,0,0:0:0:0:
192,192,225075,1,0,0:0:0:0:
64,192,225126,1,8,0:0:0:0:
320,192,225126,1,2,0:0:0:0:
448,192,225126,1,0,0:0:0:0:
192,192,225228,1,0,0:0:0:0:
448,192,225330,1,0,0:0:0:0:
448,192,225432,1,0,0:0:0:0:
64,192,225534,1,2,0:0:0:0:
192,192,225534,1,0,0:0:0:0:
320,192,225636,1,0,0:0:0:0:
64,192,225738,1,0,0:0:0:0:
64,192,225840,1,0,0:0:0:0:
192,192,225942,1,8,0:0:0:0:
320,192,225942,128,2,226044:0:0:0:0:
448,192,225942,1,0,0:0:0:0:
64,192,226044,128,0,226147:0:0:0:0:
320,192,226147,1,0,0:0:0:0:
320,192,226249,1,0,0:0:0:0:
64,192,226351,1,2,0:0:0:0:
192,192,226351,1,4,0:0:0:0:
448,192,226351,1,0,0:0:0:0:
64,192,226453,1,0,0:0:0:0:
192,192,226555,1,0,0:0:0:0:
64,192,226657,1,2,0:0:0:0:
320,192,226657,1,4,0:0:0:0:
448,192,226657,1,0,0:0:0:0:
448,192,226759,1,0,0:0:0:0:
192,192,226861,1,0,0:0:0:0:
64,192,226963,1,2,0:0:0:0:
320,192,226963,1,4,0:0:0:0:
448,192,226963,1,0,0:0:0:0:
64,192,227065,1,0,0:0:0:0:
320,192,227167,1,0,0:0:0:0:
64,192,227269,1,2,0:0:0:0:
192,192,227269,1,4,0:0:0:0:
448,192,227269,1,0,0:0:0:0:
192,192,227371,1,0,0:0:0:0:
320,192,227473,1,0,0:0:0:0:
64,192,227575,1,2,0:0:0:0:
192,192,227575,1,4,0:0:0:0:
448,192,227575,1,0,0:0:0:0:
192,192,227677,1,0,0:0:0:0:
64,192,227779,1,2,0:0:0:0:
320,192,227779,1,0,0:0:0:0:
448,192,227779,1,0,0:0:0:0:
320,192,227881,1,0,0:0:0:0:
64,192,227983,128,4,229514:0:0:0:0:
192,192,227983,1,2,0:0:0:0:
448,192,227983,128,0,229514:0:0:0:0:
192,192,228800,128,0,229514:0:0:0:0:
320,192,228800,128,0,229514:0:0:0:0:
64,192,229616,1,4,0:0:0:0:
192,192,229616,1,2,0:0:0:0:
320,192,229616,1,0,0:0:0:50:snare_wave.wav
448,192,229616,1,0,0:0:0:0:
64,192,229718,1,0,0:0:0:0:
192,192,229820,1,0,0:0:0:0:
320,192,229922,1,0,0:0:0:0:
448,192,229922,1,0,0:0:0:0:
64,192,230024,1,2,0:0:0:0:
192,192,230024,1,0,0:0:0:0:
448,192,230126,1,0,0:0:0:0:
320,192,230228,1,0,0:0:0:0:
64,192,230330,1,0,0:0:0:0:
192,192,230330,1,0,0:0:0:0:
320,192,230432,1,2,0:0:0:0:
448,192,230432,1,0,0:0:0:0:
192,192,230534,1,0,0:0:0:0:
64,192,230636,1,0,0:0:0:0:
320,192,230738,1,0,0:0:0:0:
448,192,230738,1,0,0:0:0:0:
64,192,230840,1,2,0:0:0:0:
192,192,230840,1,0,0:0:0:0:
320,192,230942,1,0,0:0:0:0:
448,192,231044,1,0,0:0:0:0:
64,192,231147,1,0,0:0:0:0:
192,192,231147,1,0,0:0:0:0:
320,192,231249,1,2,0:0:0:0:
448,192,231249,1,0,0:0:0:0:
64,192,231351,1,0,0:0:0:0:
192,192,231453,1,0,0:0:0:0:
320,192,231555,1,0,0:0:0:0:
448,192,231555,1,0,0:0:0:0:
64,192,231657,1,2,0:0:0:0:
192,192,231657,1,0,0:0:0:0:
448,192,231759,1,0,0:0:0:0:
320,192,231861,1,0,0:0:0:0:
64,192,231963,1,0,0:0:0:0:
192,192,231963,1,0,0:0:0:0:
320,192,232065,1,2,0:0:0:0:
448,192,232065,1,0,0:0:0:0:
192,192,232167,1,0,0:0:0:0:
64,192,232269,1,0,0:0:0:0:
320,192,232371,1,0,0:0:0:0:
448,192,232371,1,0,0:0:0:0:
64,192,232473,1,2,0:0:0:0:
192,192,232473,1,0,0:0:0:0:
448,192,232677,1,0,0:0:0:0:
64,192,232779,1,0,0:0:0:0:
192,192,232779,1,0,0:0:0:0:
320,192,232881,1,2,0:0:0:0:
448,192,232881,1,0,0:0:0:0:
192,192,233085,1,0,0:0:0:0:
320,192,233187,1,0,0:0:0:0:
448,192,233187,1,0,0:0:0:0:
64,192,233289,1,2,0:0:0:0:
192,192,233289,1,0,0:0:0:0:
320,192,233493,1,0,0:0:0:0:
64,192,233596,1,0,0:0:0:0:
192,192,233596,1,0,0:0:0:0:
320,192,233698,1,2,0:0:0:0:
448,192,233698,1,0,0:0:0:0:
64,192,233902,1,0,0:0:0:0:
320,192,234004,1,0,0:0:0:0:
448,192,234004,1,0,0:0:0:0:
64,192,234106,1,2,0:0:0:0:
192,192,234106,1,0,0:0:0:0:
448,192,234310,1,0,0:0:0:0:
64,192,234412,1,0,0:0:0:0:
192,192,234412,1,0,0:0:0:0:
320,192,234514,1,2,0:0:0:0:
448,192,234514,1,0,0:0:0:0:
192,192,234718,1,0,0:0:0:0:
320,192,234820,1,0,0:0:0:0:
448,192,234820,1,0,0:0:0:0:
64,192,234922,1,2,0:0:0:0:
192,192,234922,1,0,0:0:0:0:
320,192,235126,1,0,0:0:0:0:
64,192,235228,1,0,0:0:0:0:
192,192,235228,1,0,0:0:0:0:
320,192,235330,1,2,0:0:0:0:
448,192,235330,1,0,0:0:0:0:
64,192,235534,1,0,0:0:0:0:
320,192,235636,1,0,0:0:0:0:
448,192,235636,1,0,0:0:0:0:
64,192,235738,1,2,0:0:0:0:
192,192,235738,1,0,0:0:0:0:
320,192,235942,1,0,0:0:0:0:
192,192,236044,1,0,0:0:0:0:
64,192,236147,1,2,0:0:0:0:
448,192,236147,1,0,0:0:0:0:
64,192,236351,1,0,0:0:0:0:
192,192,236453,1,0,0:0:0:0:
320,192,236555,1,2,0:0:0:0:
448,192,236759,1,0,0:0:0:0:
320,192,236861,1,0,0:0:0:0:
64,192,236963,1,2,0:0:0:0:
192,192,236963,1,0,0:0:0:0:
64,192,237167,1,0,0:0:0:0:
320,192,237269,1,0,0:0:0:0:
192,192,237371,1,2,0:0:0:0:
448,192,237575,1,0,0:0:0:0:
192,192,237677,1,0,0:0:0:0:
320,192,237779,1,2,0:0:0:0:
448,192,237779,1,0,0:0:0:0:
64,192,237983,1,0,0:0:0:0:
192,192,238085,1,0,0:0:0:0:
320,192,238187,1,2,0:0:0:0:
448,192,238391,1,0,0:0:0:0:
320,192,238493,1,0,0:0:0:0:
64,192,238596,1,2,0:0:0:0:
192,192,238596,1,0,0:0:0:0:
64,192,238800,1,0,0:0:0:0:
320,192,238902,1,0,0:0:0:0:
192,192,239004,1,2,0:0:0:0:
448,192,239208,1,0,0:0:0:0:
192,192,239310,1,0,0:0:0:0:
320,192,239412,1,0,0:0:0:0:
448,192,239412,1,0,0:0:0:0:
64,192,239616,1,0,0:0:0:0:
192,192,239718,1,0,0:0:0:0:
320,192,239820,1,0,0:0:0:20:tick.wav
448,192,240024,1,0,0:0:0:0:
320,192,240126,1,0,0:0:0:0:
192,192,240228,1,0,0:0:0:0:
64,192,240432,1,0,0:0:0:0:
320,192,240534,1,0,0:0:0:0:
192,192,240636,1,0,0:0:0:20:tick.wav
448,192,240840,1,0,0:0:0:0:
192,192,240942,1,0,0:0:0:0:
320,192,241044,1,0,0:0:0:0:
64,192,241249,1,0,0:0:0:0:
192,192,241351,1,0,0:0:0:0:
320,192,241453,1,0,0:0:0:20:tick.wav
448,192,241657,1,0,0:0:0:0:
320,192,241759,1,0,0:0:0:0:
192,192,241861,1,0,0:0:0:0:
64,192,242065,1,0,0:0:0:0:
320,192,242167,1,0,0:0:0:0:
192,192,242269,1,0,0:0:0:20:tick.wav
448,192,242473,1,0,0:0:0:0:
192,192,242575,1,0,0:0:0:0:
320,192,242677,1,0,0:0:0:0:
64,192,242881,1,0,0:0:0:0:
192,192,242983,1,0,0:0:0:0:
320,192,243085,1,0,0:0:0:30:tick.wav
448,192,243289,1,0,0:0:0:0:
320,192,243391,1,0,0:0:0:0:
192,192,243493,1,0,0:0:0:0:
64,192,243698,1,0,0:0:0:0:
192,192,243800,1,0,0:0:0:0:
320,192,243902,1,0,0:0:0:30:tick.wav
448,192,244106,1,0,0:0:0:0:
320,192,244208,1,0,0:0:0:0:
192,192,244310,1,0,0:0:0:0:
64,192,244514,1,0,0:0:0:0:
192,192,244616,1,0,0:0:0:0:
320,192,244718,1,0,0:0:0:30:tick.wav
448,192,244922,1,0,0:0:0:0:
320,192,245024,1,0,0:0:0:0:
192,192,245126,1,0,0:0:0:0:
64,192,245330,1,0,0:0:0:0:
192,192,245432,1,0,0:0:0:0:
320,192,245534,1,0,0:0:0:30:tick.wav
448,192,245738,1,0,0:0:0:0:
320,192,245840,1,0,0:0:0:0:
192,192,245942,1,0,0:0:0:0:
64,192,246147,1,0,0:0:0:0:
320,192,246351,1,0,0:0:0:30:tick.wav
448,192,246555,1,0,0:0:0:0:
320,192,246657,1,0,0:0:0:0:
192,192,246759,1,0,0:0:0:0:
64,192,246963,1,0,0:0:0:0:
448,192,247167,1,0,0:0:0:30:tick.wav
64,192,247371,1,0,0:0:0:0:
192,192,247473,1,0,0:0:0:0:
320,192,247575,1,0,0:0:0:0:
448,192,247779,1,0,0:0:0:0:
192,192,247983,1,0,0:0:0:30:tick.wav
64,192,248187,1,0,0:0:0:0:
192,192,248289,1,0,0:0:0:0:
320,192,248391,1,0,0:0:0:0:
448,192,248596,1,0,0:0:0:0:
64,192,248800,1,0,0:0:0:30:tick.wav
448,192,249004,1,0,0:0:0:0:
320,192,249106,1,0,0:0:0:0:
192,192,249208,1,0,0:0:0:0:
64,192,249412,1,0,0:0:0:0:
448,192,249616,1,0,0:0:0:40:tick.wav
192,192,249820,1,0,0:0:0:0:
192,192,250024,1,0,0:0:0:0:
448,192,250228,1,0,0:0:0:0:
64,192,250432,1,0,0:0:0:40:tick.wav
320,192,250636,1,0,0:0:0:0:
320,192,250840,1,0,0:0:0:0:
64,192,251044,1,0,0:0:0:0:
320,192,251249,128,0,252473:0:0:0:40:tick.wav
192,192,251453,1,0,0:0:0:0:
192,192,251657,1,0,0:0:0:0:
448,192,251861,1,0,0:0:0:0:
64,192,252065,1,0,0:0:0:40:tick.wav
192,192,252269,1,0,0:0:0:0:
64,192,252473,1,2,0:0:0:0:
192,192,252473,1,4,0:0:0:0:
448,192,252473,1,0,0:0:0:0:
64,192,252677,1,0,0:0:0:0:
192,192,252779,1,0,0:0:0:0:
320,192,252881,1,0,0:0:0:40:tick.wav
448,192,252881,1,0,0:0:0:0:
448,192,253085,1,0,0:0:0:0:
320,192,253187,1,0,0:0:0:0:
64,192,253289,1,0,0:0:0:0:
192,192,253289,1,0,0:0:0:0:
192,192,253493,1,0,0:0:0:0:
64,192,253596,1,0,0:0:0:0:
320,192,253698,1,0,0:0:0:40:tick.wav
448,192,253698,1,0,0:0:0:0:
320,192,253902,1,0,0:0:0:0:
448,192,254004,1,0,0:0:0:0:
64,192,254106,1,2,0:0:0:0:
192,192,254106,1,0,0:0:0:0:
192,192,254310,1,2,0:0:0:0:
448,192,254310,1,0,0:0:0:0:
320,192,254514,1,2,0:0:0:0:
448,192,254514,1,0,0:0:0:40:tick.wav
64,192,254616,1,2,0:0:0:0:
192,192,254616,1,0,0:0:0:0:
320,192,254718,1,2,0:0:0:0:
448,192,254718,1,0,0:0:0:0:
64,192,254820,1,2,0:0:0:0:
192,192,254820,1,0,0:0:0:0:
320,192,254922,1,2,0:0:0:0:
448,192,254922,1,0,0:0:0:0:
64,192,255024,1,2,0:0:0:0:
192,192,255024,1,0,0:0:0:0:
320,192,255126,1,2,0:0:0:0:
448,192,255126,1,0,0:0:0:0:
64,192,255228,1,2,0:0:0:0:
192,192,255228,1,0,0:0:0:0:
320,192,255330,1,2,0:0:0:0:
448,192,255330,1,0,0:0:0:40:tick.wav
192,192,255534,1,0,0:0:0:0:
64,192,255738,128,2,256147:0:0:0:0:
192,192,255738,128,0,256147:0:0:0:50:cymbal.wav
448,192,255738,128,0,256147:0:0:0:0:
64,192,256249,1,0,0:0:0:0:
448,192,256351,1,0,0:0:0:0:
320,192,256453,1,0,0:0:0:0:
192,192,256555,1,0,0:0:0:0:
448,192,256657,1,0,0:0:0:0:
64,192,256759,1,0,0:0:0:0:
192,192,256861,1,0,0:0:0:0:
320,192,256963,1,0,0:0:0:0:
64,192,257065,1,0,0:0:0:0:
448,192,257167,1,0,0:0:0:0:
448,192,257371,1,0,0:0:0:0:
192,192,257473,1,0,0:0:0:0:
320,192,257575,1,0,0:0:0:0:
64,192,257677,1,0,0:0:0:0:
192,192,257779,1,0,0:0:0:0:
448,192,257881,1,0,0:0:0:0:
320,192,257983,1,0,0:0:0:0:
64,192,258085,1,0,0:0:0:0:
448,192,258187,1,0,0:0:0:0:
192,192,258289,1,0,0:0:0:0:
320,192,258391,1,0,0:0:0:0:
448,192,258493,1,0,0:0:0:0:
64,192,258596,1,0,0:0:0:0:
320,192,258698,1,0,0:0:0:0:
192,192,258800,1,0,0:0:0:0:
320,192,258902,1,0,0:0:0:0:
64,192,259004,128,2,259412:0:0:0:0:
192,192,259004,128,0,259412:0:0:0:50:cymbal.wav
448,192,259004,128,0,259412:0:0:0:0:
64,192,259514,128,2,259616:0:0:0:0:
192,192,259514,128,0,259616:0:0:0:50:cymbal.wav
448,192,259514,128,0,259616:0:0:0:0:
64,192,259718,128,2,259820:0:0:0:0:
192,192,259718,128,0,259820:0:0:0:50:cymbal.wav
448,192,259718,128,0,259820:0:0:0:0:
64,192,260024,128,2,260228:0:0:0:0:
192,192,260024,128,0,260228:0:0:0:50:cymbal.wav
448,192,260024,128,0,260228:0:0:0:0:
320,192,260330,1,0,0:0:0:0:
64,192,260432,1,0,0:0:0:0:
64,192,260636,1,0,0:0:0:0:
320,192,260738,1,0,0:0:0:0:
192,192,260840,1,0,0:0:0:0:
448,192,260942,1,0,0:0:0:0:
320,192,261044,1,0,0:0:0:0:
64,192,261147,1,0,0:0:0:0:
192,192,261249,1,0,0:0:0:0:
448,192,261351,1,0,0:0:0:0:
64,192,261453,1,0,0:0:0:0:
320,192,261555,1,0,0:0:0:0:
192,192,261657,1,0,0:0:0:0:
64,192,261759,128,2,261861:0:0:0:0:
320,192,261759,128,0,261861:0:0:0:50:cymbal.wav
448,192,261759,128,0,261861:0:0:0:0:
192,192,261963,128,2,262167:0:0:0:0:
320,192,261963,128,0,262167:0:0:0:50:cymbal.wav
448,192,261963,128,0,262167:0:0:0:0:
64,192,262269,128,2,262677:0:0:0:0:
192,192,262269,128,0,262677:0:0:0:50:cymbal.wav
448,192,262269,128,0,262677:0:0:0:0:
64,192,262779,1,0,0:0:0:0:
448,192,262881,1,0,0:0:0:0:
320,192,262983,1,0,0:0:0:0:
192,192,263085,1,0,0:0:0:0:
448,192,263187,1,0,0:0:0:0:
64,192,263289,1,0,0:0:0:0:
192,192,263391,1,0,0:0:0:0:
320,192,263493,1,0,0:0:0:0:
64,192,263596,1,0,0:0:0:0:
448,192,263698,1,0,0:0:0:0:
64,192,263800,1,0,0:0:0:0:
448,192,263902,1,0,0:0:0:0:
192,192,264004,1,0,0:0:0:0:
320,192,264106,1,0,0:0:0:0:
64,192,264208,1,0,0:0:0:0:
192,192,264310,1,0,0:0:0:0:
448,192,264412,1,0,0:0:0:0:
320,192,264514,1,0,0:0:0:0:
64,192,264616,1,0,0:0:0:0:
448,192,264718,1,0,0:0:0:0:
192,192,264820,1,0,0:0:0:0:
320,192,264922,1,0,0:0:0:0:
448,192,265024,1,0,0:0:0:0:
64,192,265126,1,0,0:0:0:0:
448,192,265228,1,0,0:0:0:0:
192,192,265330,1,0,0:0:0:0:
320,192,265432,1,0,0:0:0:0:
64,192,265534,128,2,265942:0:0:0:0:
192,192,265534,128,0,265942:0:0:0:50:cymbal.wav
448,192,265534,128,0,265942:0:0:0:0:
64,192,266044,128,2,266147:0:0:0:0:
192,192,266044,128,0,266147:0:0:0:50:cymbal.wav
448,192,266044,128,0,266147:0:0:0:0:
64,192,266249,128,2,266351:0:0:0:0:
192,192,266249,128,0,266351:0:0:0:50:cymbal.wav
448,192,266249,128,0,266351:0:0:0:0:
64,192,266555,128,2,266759:0:0:0:0:
320,192,266555,128,0,266759:0:0:0:50:cymbal.wav
448,192,266555,128,0,266759:0:0:0:0:
64,192,266963,128,2,267167:0:0:0:0:
192,192,266963,128,0,267167:0:0:0:50:cymbal.wav
448,192,266963,128,0,267167:0:0:0:0:
192,192,267371,128,2,267575:0:0:0:0:
320,192,267371,128,0,267575:0:0:0:50:cymbal.wav
448,192,267371,128,0,267575:0:0:0:0:
64,192,267779,128,2,267983:0:0:0:0:
192,192,267779,128,0,267983:0:0:0:50:cymbal.wav
320,192,267779,128,0,267983:0:0:0:0:
448,192,267983,1,0,0:0:0:40:electronic32.wav
448,192,268187,1,2,0:0:0:0:
320,192,268187,1,0,0:0:0:50:cymbal.wav
192,192,268289,1,0,0:0:0:40:electronic32.wav
64,192,268289,1,0,0:0:0:0:
192,192,268391,1,0,0:0:0:40:electronic32.wav
64,192,268391,1,0,0:0:0:0:
320,192,268596,1,0,0:0:0:40:electronic32.wav
448,192,268596,1,0,0:0:0:0:
64,192,268647,1,0,0:0:0:40:electronic32.wav
192,192,268698,1,0,0:0:0:40:electronic32.wav
320,192,268749,1,0,0:0:0:40:electronic32.wav
64,192,268800,1,4,0:0:0:0:
192,192,268800,1,0,0:0:0:40:electronic32.wav
448,192,268800,1,0,0:0:0:50:snare_wave.wav
320,192,268902,1,2,0:0:0:0:
64,192,269004,1,2,0:0:0:0:
192,192,269004,1,0,0:0:0:0:
320,192,269106,1,2,0:0:0:0:
64,192,269208,1,0,0:0:0:40:electronic32.wav
448,192,269208,1,0,0:0:0:0:
320,192,269310,1,2,0:0:0:0:
64,192,269412,1,2,0:0:0:0:
192,192,269412,1,0,0:0:0:0:
320,192,269514,1,2,0:0:0:0:
64,192,269616,1,0,0:0:0:40:electronic32.wav
448,192,269616,1,0,0:0:0:0:
192,192,269718,1,2,0:0:0:0:
192,192,269820,1,2,0:0:0:0:
320,192,269922,1,2,0:0:0:0:
64,192,270024,1,0,0:0:0:40:electronic32.wav
448,192,270024,1,0,0:0:0:0:
320,192,270126,1,2,0:0:0:0:
192,192,270228,1,2,0:0:0:0:
320,192,270330,1,2,0:0:0:0:
448,192,270330,1,0,0:0:0:0:
64,192,270432,1,0,0:0:0:40:electronic32.wav
192,192,270432,1,0,0:0:0:0:
64,192,270534,1,2,0:0:0:0:
320,192,270636,1,2,0:0:0:0:
320,192,270738,1,2,0:0:0:0:
64,192,270840,1,0,0:0:0:40:electronic32.wav
448,192,270840,1,0,0:0:0:0:
64,192,270942,1,2,0:0:0:0:
320,192,271044,1,2,0:0:0:0:
320,192,271147,1,2,0:0:0:0:
64,192,271249,1,0,0:0:0:40:electronic32.wav
448,192,271249,1,0,0:0:0:0:
192,192,271351,1,2,0:0:0:0:
448,192,271453,1,2,0:0:0:0:
320,192,271555,1,0,0:0:0:40:electronic32.wav
448,192,271555,1,0,0:0:0:0:
64,192,271657,128,2,271861:0:0:0:0:
192,192,271657,128,0,271861:0:0:0:0:
320,192,271861,1,0,0:0:0:40:electronic32.wav
448,192,271861,1,0,0:0:0:0:
64,192,271963,1,2,0:0:0:0:
192,192,271963,1,0,0:0:0:0:
64,192,272065,1,4,0:0:0:0:
320,192,272065,1,0,0:0:0:40:electronic32.wav
448,192,272065,1,0,0:0:0:0:
192,192,272167,1,2,0:0:0:0:
320,192,272269,1,2,0:0:0:0:
448,192,272269,1,0,0:0:0:0:
192,192,272371,1,2,0:0:0:0:
64,192,272473,1,0,0:0:0:40:electronic32.wav
448,192,272473,1,0,0:0:0:0:
192,192,272575,1,2,0:0:0:0:
320,192,272677,1,2,0:0:0:0:
448,192,272677,1,0,0:0:0:0:
192,192,272779,1,2,0:0:0:0:
64,192,272881,1,0,0:0:0:40:electronic32.wav
448,192,272881,1,0,0:0:0:0:
320,192,272983,1,2,0:0:0:0:
320,192,273085,1,2,0:0:0:0:
192,192,273187,1,2,0:0:0:0:
64,192,273289,1,0,0:0:0:40:electronic32.wav
448,192,273289,1,0,0:0:0:0:
192,192,273391,1,2,0:0:0:0:
320,192,273493,1,2,0:0:0:0:
64,192,273596,1,2,0:0:0:0:
192,192,273596,1,0,0:0:0:0:
320,192,273698,1,0,0:0:0:40:electronic32.wav
448,192,273698,1,0,0:0:0:0:
448,192,273800,1,2,0:0:0:0:
192,192,273902,1,2,0:0:0:0:
192,192,274004,1,2,0:0:0:0:
64,192,274106,1,0,0:0:0:40:electronic32.wav
448,192,274106,1,0,0:0:0:0:
448,192,274208,1,2,0:0:0:0:
192,192,274310,1,2,0:0:0:0:
192,192,274412,1,2,0:0:0:0:
64,192,274514,1,0,0:0:0:40:electronic32.wav
448,192,274514,1,0,0:0:0:0:
320,192,274616,1,2,0:0:0:0:
64,192,274718,1,2,0:0:0:0:
64,192,274820,1,0,0:0:0:40:electronic32.wav
192,192,274820,1,0,0:0:0:0:
320,192,274922,128,0,275024:0:0:0:40:electronic32.wav
448,192,274922,128,0,275024:0:0:0:0:
64,192,275126,128,0,275228:0:0:0:40:electronic32.wav
192,192,275126,128,0,275228:0:0:0:0:
320,192,275228,1,2,0:0:0:0:
448,192,275228,1,0,0:0:0:0:
64,192,275330,1,4,0:0:0:0:
192,192,275330,1,0,0:0:0:40:electronic32.wav
448,192,275330,1,0,0:0:0:0:
320,192,275432,1,2,0:0:0:0:
64,192,275534,1,2,0:0:0:0:
192,192,275534,1,0,0:0:0:0:
320,192,275636,1,2,0:0:0:0:
64,192,275738,1,0,0:0:0:40:electronic32.wav
448,192,275738,1,0,0:0:0:0:
320,192,275840,1,2,0:0:0:0:
64,192,275942,1,2,0:0:0:0:
192,192,275942,1,0,0:0:0:0:
320,192,276044,1,2,0:0:0:0:
64,192,276147,1,0,0:0:0:40:electronic32.wav
448,192,276147,1,0,0:0:0:0:
192,192,276249,1,2,0:0:0:0:
192,192,276351,1,2,0:0:0:0:
320,192,276453,1,2,0:0:0:0:
64,192,276555,1,0,0:0:0:40:electronic32.wav
448,192,276555,1,0,0:0:0:0:
320,192,276657,1,2,0:0:0:0:
192,192,276759,1,2,0:0:0:0:
320,192,276861,1,2,0:0:0:0:
448,192,276861,1,0,0:0:0:0:
64,192,276963,1,0,0:0:0:40:electronic32.wav
192,192,276963,1,0,0:0:0:0:
192,192,277065,1,2,0:0:0:0:
320,192,277167,1,2,0:0:0:0:
320,192,277269,1,2,0:0:0:0:
64,192,277371,1,0,0:0:0:40:electronic32.wav
448,192,277371,1,0,0:0:0:0:
64,192,277473,1,2,0:0:0:0:
320,192,277575,1,2,0:0:0:0:
320,192,277677,1,2,0:0:0:0:
64,192,277779,1,0,0:0:0:40:electronic32.wav
448,192,277779,1,0,0:0:0:0:
192,192,277881,1,2,0:0:0:0:
448,192,277983,1,2,0:0:0:0:
320,192,278085,1,0,0:0:0:40:electronic32.wav
448,192,278085,1,0,0:0:0:0:
64,192,278187,128,2,278391:0:0:0:0:
192,192,278187,128,0,278391:0:0:0:0:
320,192,278391,1,0,0:0:0:40:electronic32.wav
448,192,278391,1,0,0:0:0:0:
64,192,278493,1,2,0:0:0:0:
192,192,278493,1,0,0:0:0:0:
64,192,278596,1,4,0:0:0:0:
320,192,278596,1,0,0:0:0:40:electronic32.wav
448,192,278596,1,0,0:0:0:0:
192,192,278698,1,2,0:0:0:0:
320,192,278800,1,2,0:0:0:0:
448,192,278800,1,0,0:0:0:0:
192,192,278902,1,2,0:0:0:0:
64,192,279004,1,0,0:0:0:40:electronic32.wav
448,192,279004,1,0,0:0:0:0:
192,192,279106,1,2,0:0:0:0:
320,192,279208,1,0,0:0:0:40:electronic32.wav
448,192,279208,1,0,0:0:0:0:
192,192,279310,1,2,0:0:0:0:
64,192,279412,1,0,0:0:0:40:electronic32.wav
448,192,279412,1,0,0:0:0:0:
320,192,279514,1,2,0:0:0:0:
320,192,279616,1,2,0:0:0:0:
192,192,279718,1,2,0:0:0:0:
64,192,279820,1,0,0:0:0:40:electronic32.wav
448,192,279820,1,0,0:0:0:0:
192,192,279922,1,2,0:0:0:0:
320,192,280024,1,2,0:0:0:0:
64,192,280126,1,2,0:0:0:0:
192,192,280126,1,0,0:0:0:0:
64,192,280228,1,0,0:0:0:40:electronic32.wav
320,192,280228,1,0,0:0:0:0:
448,192,280228,1,0,0:0:0:0:
192,192,280330,1,0,0:0:0:0:
320,192,280432,1,0,0:0:0:0:
64,192,280534,1,0,0:0:0:40:electronic32.wav
192,192,280534,1,0,0:0:0:0:
64,192,280636,1,0,0:0:0:40:electronic32.wav
320,192,280636,1,0,0:0:0:0:
448,192,280636,1,0,0:0:0:0:
192,192,280738,1,0,0:0:0:0:
320,192,280840,1,2,0:0:0:0:
448,192,280840,1,0,0:0:0:0:
64,192,280942,1,2,0:0:0:0:
192,192,280942,1,0,0:0:0:0:
64,192,281044,1,0,0:0:0:40:electronic32.wav
320,192,281044,1,0,0:0:0:0:
448,192,281044,1,0,0:0:0:0:
320,192,281147,1,0,0:0:0:40:electronic32.wav
448,192,281147,1,0,0:0:0:0:
64,192,281249,1,2,0:0:0:0:
192,192,281249,1,0,0:0:0:0:
320,192,281351,1,2,0:0:0:0:
448,192,281351,1,0,0:0:0:0:
64,192,281453,1,0,0:0:0:40:electronic32.wav
192,192,281453,1,0,0:0:0:0:
64,192,281555,1,0,0:0:0:40:electronic32.wav
192,192,281555,1,0,0:0:0:0:
320,192,281657,1,0,0:0:0:40:electronic32.wav
448,192,281657,1,0,0:0:0:0:
64,192,281759,1,0,0:0:0:40:electronic32.wav
192,192,281759,1,0,0:0:0:0:
64,192,281861,1,4,0:0:0:0:
320,192,281861,1,0,0:0:0:40:electronic32.wav
448,192,281861,1,0,0:0:0:0:
192,192,281963,1,2,0:0:0:0:
64,192,282065,128,2,282167:0:0:0:0:
448,192,282065,1,0,0:0:0:0:
320,192,282167,1,2,0:0:0:0:
64,192,282269,128,0,282371:0:0:0:40:electronic32.wav
192,192,282269,1,0,0:0:0:0:
320,192,282371,1,2,0:0:0:0:
64,192,282473,128,2,282575:0:0:0:0:
448,192,282473,1,0,0:0:0:0:
320,192,282575,1,2,0:0:0:0:
64,192,282677,128,0,282779:0:0:0:40:electronic32.wav
192,192,282677,1,0,0:0:0:0:
320,192,282779,1,2,0:0:0:0:
448,192,282779,1,0,0:0:0:0:
64,192,282881,1,2,0:0:0:0:
192,192,282881,1,0,0:0:0:0:
64,192,282983,1,2,0:0:0:0:
192,192,282983,1,0,0:0:0:0:
320,192,283085,1,0,0:0:0:40:electronic32.wav
448,192,283085,1,0,0:0:0:0:
192,192,283187,1,0,0:0:0:0:
320,192,283289,1,0,0:0:0:40:electronic32.wav
448,192,283289,1,0,0:0:0:0:
320,192,283391,1,0,0:0:0:40:electronic32.wav
448,192,283391,1,0,0:0:0:0:
64,192,283493,1,4,0:0:0:0:
192,192,283493,1,0,0:0:0:40:electronic32.wav
448,192,283493,1,0,0:0:0:0:
320,192,283596,1,2,0:0:0:0:
64,192,283698,1,2,0:0:0:0:
448,192,283698,128,0,283800:0:0:0:0:
192,192,283800,1,2,0:0:0:0:
320,192,283902,1,0,0:0:0:40:electronic32.wav
448,192,283902,128,0,284004:0:0:0:0:
192,192,284004,1,2,0:0:0:0:
64,192,284106,1,2,0:0:0:0:
448,192,284106,128,0,284208:0:0:0:0:
192,192,284208,1,2,0:0:0:0:
320,192,284310,1,0,0:0:0:40:electronic32.wav
448,192,284310,128,0,284412:0:0:0:0:
64,192,284412,1,2,0:0:0:0:
192,192,284412,1,0,0:0:0:0:
320,192,284514,1,2,0:0:0:0:
448,192,284514,1,0,0:0:0:0:
320,192,284616,1,0,0:0:0:40:electronic32.wav
448,192,284616,1,0,0:0:0:0:
64,192,284718,1,2,0:0:0:0:
192,192,284718,1,0,0:0:0:0:
320,192,284820,1,0,0:0:0:40:electronic32.wav
64,192,284922,1,0,0:0:0:40:electronic32.wav
192,192,284922,1,0,0:0:0:0:
64,192,285024,1,0,0:0:0:40:electronic32.wav
192,192,285024,1,0,0:0:0:0:
64,192,285126,1,4,0:0:0:0:
320,192,285126,1,0,0:0:0:40:electronic32.wav
448,192,285126,1,0,0:0:0:0:
192,192,285228,1,2,0:0:0:0:
64,192,285330,128,2,285432:0:0:0:0:
448,192,285330,1,0,0:0:0:0:
320,192,285432,1,2,0:0:0:0:
64,192,285534,128,0,285636:0:0:0:40:electronic32.wav
192,192,285534,1,0,0:0:0:0:
320,192,285636,1,2,0:0:0:0:
64,192,285738,128,2,285840:0:0:0:0:
448,192,285738,1,0,0:0:0:0:
320,192,285840,1,2,0:0:0:0:
192,192,285942,1,0,0:0:0:0:
64,192,285942,128,0,286044:0:0:0:40:electronic32.wav
320,192,286044,1,2,0:0:0:0:
448,192,286044,1,0,0:0:0:0:
64,192,286147,1,2,0:0:0:0:
192,192,286147,1,0,0:0:0:0:
64,192,286249,1,2,0:0:0:0:
192,192,286249,1,0,0:0:0:0:
320,192,286351,1,0,0:0:0:40:electronic32.wav
448,192,286351,1,0,0:0:0:0:
192,192,286453,1,0,0:0:0:0:
320,192,286555,1,0,0:0:0:40:electronic32.wav
448,192,286555,1,0,0:0:0:0:
320,192,286657,1,0,0:0:0:40:electronic32.wav
448,192,286657,1,0,0:0:0:0:
64,192,286759,1,4,0:0:0:0:
192,192,286759,1,0,0:0:0:40:electronic32.wav
448,192,286759,1,0,0:0:0:0:
320,192,286861,1,2,0:0:0:0:
192,192,286963,1,0,0:0:0:40:electronic32.wav
448,192,287014,1,0,0:0:0:40:electronic32.wav
320,192,287065,1,0,0:0:0:40:electronic32.wav
192,192,287116,1,0,0:0:0:40:electronic32.wav
448,192,287167,128,0,287269:0:0:0:0:
64,192,287167,1,2,0:0:0:0:
320,192,287269,1,2,0:0:0:0:
192,192,287371,1,0,0:0:0:40:electronic32.wav
448,192,287422,1,0,0:0:0:40:electronic32.wav
320,192,287473,1,0,0:0:0:40:electronic32.wav
192,192,287524,1,0,0:0:0:40:electronic32.wav
64,192,287575,1,2,0:0:0:0:
448,192,287575,128,0,287677:0:0:0:0:
320,192,287677,1,2,0:0:0:0:
64,192,287779,1,0,0:0:0:40:electronic32.wav
192,192,287830,1,0,0:0:0:40:electronic32.wav
448,192,287881,1,0,0:0:0:40:electronic32.wav
320,192,287932,1,0,0:0:0:40:electronic32.wav
64,192,287983,1,2,0:0:0:0:
192,192,287983,1,0,0:0:0:0:
320,192,288085,1,0,0:0:0:0:
64,192,288187,1,0,0:0:0:40:electronic32.wav
192,192,288187,1,0,0:0:0:0:
64,192,288289,1,0,0:0:0:40:electronic32.wav
192,192,288289,1,0,0:0:0:0:
64,192,288391,1,4,0:0:0:0:
320,192,288391,1,0,0:0:0:30:electronic32.wav
448,192,288391,1,0,0:0:0:0:
320,192,288493,1,0,0:0:0:30:electronic32.wav
448,192,288493,1,0,0:0:0:0:
64,192,288596,1,0,0:0:0:30:electronic32.wav
192,192,288596,1,0,0:0:0:0:
320,192,288698,1,0,0:0:0:30:electronic32.wav
448,192,288698,1,0,0:0:0:0:
64,192,288800,1,0,0:0:0:30:electronic32.wav
192,192,288800,1,0,0:0:0:0:
320,192,288902,1,0,0:0:0:30:electronic32.wav
448,192,288902,1,0,0:0:0:0:
64,192,289004,1,0,0:0:0:30:electronic32.wav
192,192,289004,1,0,0:0:0:0:
320,192,289106,1,0,0:0:0:30:electronic32.wav
448,192,289106,1,0,0:0:0:0:
64,192,289208,1,4,0:0:0:0:
192,192,289208,1,0,0:0:0:30:electronic32.wav
448,192,289208,1,0,0:0:0:0:
64,192,289310,1,0,0:0:0:30:electronic32.wav
192,192,289310,1,0,0:0:0:0:
320,192,289412,1,0,0:0:0:30:electronic32.wav
448,192,289412,1,0,0:0:0:0:
64,192,289514,1,0,0:0:0:30:electronic32.wav
192,192,289514,1,0,0:0:0:0:
320,192,289616,1,0,0:0:0:30:electronic32.wav
448,192,289616,1,0,0:0:0:0:
64,192,289718,1,0,0:0:0:30:electronic32.wav
192,192,289718,1,0,0:0:0:0:
320,192,289820,1,0,0:0:0:30:electronic32.wav
448,192,289820,1,0,0:0:0:0:
64,192,289922,1,0,0:0:0:30:electronic32.wav
192,192,289922,1,0,0:0:0:0:
320,192,290024,1,4,0:0:0:0:
448,192,290024,1,0,0:0:0:20:electronic32.wav
192,192,290092,1,0,0:0:0:20:electronic32.wav
64,192,290160,1,0,0:0:0:20:electronic32.wav
320,192,290228,1,0,0:0:0:20:electronic32.wav
448,192,290228,1,0,0:0:0:0:
192,192,290296,1,0,0:0:0:20:electronic32.wav
320,192,290364,1,0,0:0:0:20:electronic32.wav
64,192,290432,1,0,0:0:0:20:electronic32.wav
448,192,290432,1,0,0:0:0:0:
192,192,290500,1,0,0:0:0:20:electronic32.wav
320,192,290568,1,0,0:0:0:20:electronic32.wav
64,192,290636,1,0,0:0:0:20:electronic32.wav
192,192,290636,1,0,0:0:0:0:
448,192,290704,1,0,0:0:0:20:electronic32.wav
320,192,290772,1,0,0:0:0:20:electronic32.wav
192,192,290840,1,4,0:0:0:0:
448,192,290840,1,0,0:0:0:20:electronic32.wav
64,192,290908,1,0,0:0:0:20:electronic32.wav
320,192,290976,1,0,0:0:0:20:electronic32.wav
64,192,291044,1,0,0:0:0:20:electronic32.wav
192,192,291044,1,0,0:0:0:0:
448,192,291113,1,0,0:0:0:20:electronic32.wav
192,192,291181,1,0,0:0:0:20:electronic32.wav
64,192,291249,1,0,0:0:0:20:electronic32.wav
320,192,291249,1,0,0:0:0:0:
448,192,291317,1,0,0:0:0:20:electronic32.wav
192,192,291385,1,0,0:0:0:20:electronic32.wav
64,192,291453,1,0,0:0:0:20:electronic32.wav
448,192,291453,1,0,0:0:0:0:
320,192,291521,1,0,0:0:0:20:electronic32.wav
192,192,291589,1,0,0:0:0:20:electronic32.wav
320,192,291657,1,4,0:0:0:0:
448,192,291657,1,0,0:0:0:20:electronic32.wav
192,192,291708,1,0,0:0:0:20:electronic32.wav
64,192,291759,1,0,0:0:0:20:electronic32.wav
448,192,291810,1,0,0:0:0:20:electronic32.wav
320,192,291861,1,0,0:0:0:20:electronic32.wav
64,192,291912,1,0,0:0:0:20:electronic32.wav
448,192,291963,1,0,0:0:0:20:electronic32.wav
192,192,292014,1,0,0:0:0:20:electronic32.wav
320,192,292065,1,4,0:0:0:0:
64,192,292116,1,0,0:0:0:20:electronic32.wav
448,192,292167,1,0,0:0:0:20:electronic32.wav
192,192,292218,1,0,0:0:0:20:electronic32.wav
64,192,292269,1,0,0:0:0:20:electronic32.wav
448,192,292320,1,0,0:0:0:20:electronic32.wav
320,192,292371,1,0,0:0:0:20:electronic32.wav
64,192,292422,1,0,0:0:0:20:electronic32.wav
192,192,292473,1,4,0:0:0:0:
448,192,292524,1,0,0:0:0:20:electronic32.wav
64,192,292575,1,0,0:0:0:20:electronic32.wav
320,192,292626,1,0,0:0:0:20:electronic32.wav
448,192,292677,1,0,0:0:0:20:electronic32.wav
192,192,292728,1,0,0:0:0:20:electronic32.wav
64,192,292779,1,0,0:0:0:20:electronic32.wav
320,192,292830,1,0,0:0:0:20:electronic32.wav
192,192,292881,1,4,0:0:0:0:
448,192,292932,1,0,0:0:0:20:electronic32.wav
320,192,292983,1,0,0:0:0:20:electronic32.wav
64,192,293034,1,0,0:0:0:20:electronic32.wav
192,192,293085,1,0,0:0:0:20:electronic32.wav
320,192,293136,1,0,0:0:0:20:electronic32.wav
448,192,293187,1,0,0:0:0:20:electronic32.wav
192,192,293238,1,0,0:0:0:20:electronic32.wav
64,192,293289,1,4,0:0:0:0:
448,192,293340,1,0,0:0:0:10:electronic32.wav
320,192,293391,1,0,0:0:0:10:electronic32.wav
192,192,293442,1,0,0:0:0:10:electronic32.wav
64,192,293493,1,0,0:0:0:10:electronic32.wav
448,192,293544,1,0,0:0:0:10:electronic32.wav
320,192,293596,1,0,0:0:0:10:electronic32.wav
192,192,293647,1,0,0:0:0:10:electronic32.wav
64,192,293698,1,0,0:0:0:10:electronic32.wav
448,192,293749,1,0,0:0:0:10:electronic32.wav
320,192,293800,1,0,0:0:0:10:electronic32.wav
192,192,293851,1,0,0:0:0:10:electronic32.wav
64,192,293902,1,0,0:0:0:10:electronic32.wav
448,192,293953,1,0,0:0:0:10:electronic32.wav
320,192,294004,1,0,0:0:0:10:electronic32.wav
64,192,294055,1,0,0:0:0:10:electronic32.wav
192,192,294106,1,0,0:0:0:15:electronic32.wav
320,192,294157,1,0,0:0:0:15:electronic32.wav
448,192,294208,1,0,0:0:0:15:electronic32.wav
64,192,294259,1,0,0:0:0:15:electronic32.wav
192,192,294310,1,0,0:0:0:15:electronic32.wav
320,192,294361,1,0,0:0:0:15:electronic32.wav
448,192,294412,1,0,0:0:0:15:electronic32.wav
64,192,294463,1,0,0:0:0:15:electronic32.wav
192,192,294514,1,0,0:0:0:20:electronic32.wav
448,192,294565,1,0,0:0:0:20:electronic32.wav
320,192,294616,1,0,0:0:0:20:electronic32.wav
64,192,294667,1,0,0:0:0:20:electronic32.wav
192,192,294718,1,0,0:0:0:20:electronic32.wav
448,192,294769,1,0,0:0:0:20:electronic32.wav
320,192,294820,1,0,0:0:0:20:electronic32.wav
192,192,294871,1,0,0:0:0:20:electronic32.wav
64,192,294922,1,4,0:0:0:0:
448,192,294922,1,2,0:0:0:0:
320,192,294922,1,0,0:0:0:0:
192,192,295126,1,0,0:0:0:0:
320,192,295228,1,0,0:0:0:0:
64,192,295330,1,0,0:0:0:0:
320,192,295534,1,0,0:0:0:0:
192,192,295636,1,0,0:0:0:0:
448,192,295738,1,0,0:0:0:0:
64,192,295840,1,0,0:0:0:0:
192,192,295942,1,0,0:0:0:0:
320,192,295993,1,0,0:0:0:0:
448,192,296044,1,0,0:0:0:0:
192,192,296147,1,0,0:0:0:0:
320,192,296249,1,0,0:0:0:0:
64,192,296351,1,0,0:0:0:50:S1.wav
192,192,296351,1,0,0:0:0:0:
320,192,296453,1,0,0:0:0:50:S1.wav
448,192,296453,1,0,0:0:0:0:
192,192,296555,1,0,0:0:0:70:S2.wav
64,192,296657,1,0,0:0:0:50:S1.wav
448,192,296657,1,0,0:0:0:0:
320,192,296759,1,0,0:0:0:0:
192,192,296861,1,0,0:0:0:70:tom01.wav
448,192,296861,1,0,0:0:0:0:
64,192,296963,1,0,0:0:0:70:tom01.wav
320,192,296963,1,0,0:0:0:0:
192,192,297065,1,0,0:0:0:0:
320,192,297167,1,0,0:0:0:70:LR_Kick Dry Fast Low.wav
448,192,297167,1,0,0:0:0:0:
192,192,297269,1,0,0:0:0:0:
64,192,297371,1,2,0:0:0:0:
448,192,297371,1,0,0:0:0:100:AR - Groza2.wav
320,192,297473,1,0,0:0:0:0:
64,192,297575,128,0,297677:0:0:0:70:LS-HKI Basic Hard Kick 2 (01) - C1.wav
448,192,297575,128,0,297677:0:0:0:0:
64,192,297779,1,0,0:0:0:70:LR4_SnareBPDT.wav
192,192,297779,1,0,0:0:0:0:
320,192,297779,1,0,0:0:0:0:
448,192,297779,1,0,0:0:0:0:
192,192,297983,128,0,298085:0:0:0:100:LR_Snare Drum.wav
320,192,297983,128,0,298187:0:0:0:0:
64,192,298187,128,4,298289:0:0:0:0:
192,192,298187,1,2,0:0:0:0:
448,192,298187,1,0,0:0:0:0:
320,192,298289,128,0,298391:0:0:0:0:
192,192,298391,1,0,0:0:0:0:
192,192,298493,1,0,0:0:0:0:
64,192,298596,1,8,0:0:0:0:
320,192,298596,1,2,0:0:0:0:
448,192,298596,1,0,0:0:0:0:
192,192,298698,1,0,0:0:0:0:
448,192,298800,128,0,298902:0:0:0:0:
64,192,298902,1,0,0:0:0:0:
320,192,299004,128,2,299106:0:0:0:0:
448,192,299004,1,0,0:0:0:0:
192,192,299106,128,0,299208:0:0:0:0:
320,192,299208,128,0,299310:0:0:0:0:
448,192,299208,1,0,0:0:0:0:
192,192,299310,128,0,299412:0:0:0:0:
64,192,299412,1,8,0:0:0:0:
320,192,299412,128,2,299820:0:0:0:0:
448,192,299412,1,0,0:0:0:0:
192,192,299514,1,0,0:0:0:0:
448,192,299616,1,0,0:0:0:0:
192,192,299718,1,0,0:0:0:0:
64,192,299820,128,2,299922:0:0:0:0:
448,192,299820,1,0,0:0:0:0:
192,192,299922,1,0,0:0:0:0:
320,192,300024,1,0,0:0:0:0:
320,192,300126,1,0,0:0:0:0:
64,192,300228,1,8,0:0:0:0:
192,192,300228,1,2,0:0:0:0:
448,192,300228,1,0,0:0:0:0:
320,192,300330,1,0,0:0:0:0:
192,192,300432,128,0,300534:0:0:0:0:
448,192,300534,1,0,0:0:0:0:
64,192,300636,128,2,300738:0:0:0:0:
192,192,300636,1,0,0:0:0:0:
320,192,300738,128,0,300840:0:0:0:0:
64,192,300840,128,0,300942:0:0:0:0:
192,192,300840,1,0,0:0:0:0:
320,192,300942,128,0,301044:0:0:0:0:
192,192,301044,128,2,301453:0:0:0:0:
448,192,301044,1,0,0:0:0:0:
64,192,301044,1,8,0:0:0:0:
320,192,301147,1,0,0:0:0:0:
64,192,301249,1,0,0:0:0:0:
320,192,301351,1,0,0:0:0:0:
64,192,301453,1,2,0:0:0:0:
448,192,301453,128,0,301555:0:0:0:0:
320,192,301555,1,0,0:0:0:0:
192,192,301657,1,0,0:0:0:0:
192,192,301759,1,0,0:0:0:0:
64,192,301861,1,8,0:0:0:0:
320,192,301861,1,2,0:0:0:0:
448,192,301861,1,0,0:0:0:0:
192,192,301963,1,0,0:0:0:0:
448,192,302065,128,0,302167:0:0:0:0:
64,192,302167,128,0,302269:0:0:0:0:
320,192,302269,128,2,302371:0:0:0:0:
448,192,302269,1,0,0:0:0:0:
192,192,302371,128,0,302473:0:0:0:0:
320,192,302473,128,0,302575:0:0:0:0:
448,192,302473,1,0,0:0:0:0:
192,192,302575,128,0,302677:0:0:0:0:
448,192,302677,128,0,303085:0:0:0:0:
64,192,302677,1,8,0:0:0:0:
320,192,302677,1,2,0:0:0:0:
192,192,302779,1,0,0:0:0:0:
320,192,302881,1,0,0:0:0:0:
192,192,302983,1,0,0:0:0:0:
64,192,303085,1,2,0:0:0:0:
320,192,303085,128,0,303187:0:0:0:0:
192,192,303187,1,0,0:0:0:0:
320,192,303289,1,0,0:0:0:0:
320,192,303391,1,0,0:0:0:0:
64,192,303493,1,8,0:0:0:0:
192,192,303493,1,2,0:0:0:0:
448,192,303493,1,0,0:0:0:0:
320,192,303596,1,0,0:0:0:0:
192,192,303698,128,0,303800:0:0:0:0:
448,192,303800,128,0,303902:0:0:0:0:
64,192,303902,128,2,304004:0:0:0:0:
192,192,303902,1,0,0:0:0:0:
320,192,304004,128,0,304106:0:0:0:0:
64,192,304106,128,0,304208:0:0:0:0:
192,192,304106,1,0,0:0:0:0:
320,192,304208,128,0,304310:0:0:0:0:
64,192,304310,128,8,304718:0:0:0:0:
448,192,304310,1,0,0:0:0:0:
192,192,304310,1,2,0:0:0:0:
320,192,304412,1,0,0:0:0:0:
448,192,304514,1,0,0:0:0:0:
192,192,304616,1,0,0:0:0:0:
320,192,304718,1,2,0:0:0:0:
448,192,304718,128,0,304820:0:0:0:0:
192,192,304820,128,0,304922:0:0:0:0:
320,192,304922,1,0,0:0:0:0:
320,192,305024,1,0,0:0:0:0:
64,192,305126,1,8,0:0:0:0:
192,192,305126,1,2,0:0:0:0:
448,192,305126,1,0,0:0:0:0:
320,192,305228,1,0,0:0:0:0:
64,192,305330,128,0,305432:0:0:0:0:
448,192,305432,1,0,0:0:0:0:
64,192,305534,1,2,0:0:0:0:
192,192,305534,128,0,305636:0:0:0:0:
320,192,305636,128,0,305738:0:0:0:0:
64,192,305738,1,0,0:0:0:0:
192,192,305738,128,0,305840:0:0:0:0:
320,192,305840,128,0,305942:0:0:0:0:
64,192,305942,1,8,0:0:0:0:
192,192,305942,128,2,306351:0:0:0:0:
448,192,305942,1,0,0:0:0:0:
320,192,306044,1,0,0:0:0:0:
64,192,306147,1,0,0:0:0:0:
320,192,306249,1,0,0:0:0:0:
64,192,306351,128,2,306453:0:0:0:0:
448,192,306351,1,0,0:0:0:0:
320,192,306453,1,0,0:0:0:0:
192,192,306555,1,0,0:0:0:0:
192,192,306657,1,0,0:0:0:0:
64,192,306759,1,8,0:0:0:0:
320,192,306759,1,2,0:0:0:0:
448,192,306759,1,0,0:0:0:0:
192,192,306861,1,0,0:0:0:0:
320,192,306963,128,0,307065:0:0:0:0:
64,192,307065,1,0,0:0:0:0:
320,192,307167,1,2,0:0:0:0:
448,192,307167,128,0,307269:0:0:0:0:
192,192,307269,128,0,307371:0:0:0:0:
320,192,307371,1,0,0:0:0:0:
448,192,307371,128,0,307473:0:0:0:0:
192,192,307473,128,0,307575:0:0:0:0:
64,192,307575,1,8,0:0:0:0:
320,192,307575,128,2,307983:0:0:0:0:
448,192,307575,1,0,0:0:0:0:
192,192,307677,1,0,0:0:0:0:
448,192,307779,1,0,0:0:0:0:
192,192,307881,1,0,0:0:0:0:
64,192,307983,1,2,0:0:0:0:
448,192,307983,128,0,308085:0:0:0:0:
192,192,308085,1,0,0:0:0:0:
320,192,308187,1,0,0:0:0:0:
320,192,308289,1,0,0:0:0:0:
64,192,308391,1,8,0:0:0:0:
192,192,308391,1,2,0:0:0:0:
448,192,308391,1,0,0:0:0:0:
320,192,308493,1,0,0:0:0:0:
64,192,308596,128,0,308698:0:0:0:0:
448,192,308698,128,0,308800:0:0:0:0:
64,192,308800,1,2,0:0:0:0:
192,192,308800,128,0,308902:0:0:0:0:
320,192,308902,128,0,309004:0:0:0:0:
192,192,309004,128,0,309106:0:0:0:0:
64,192,309004,1,0,0:0:0:0:
320,192,309106,128,0,309208:0:0:0:0:
64,192,309208,128,8,309616:0:0:0:0:
192,192,309208,1,2,0:0:0:0:
448,192,309208,1,0,0:0:0:0:
320,192,309310,1,0,0:0:0:0:
192,192,309412,1,0,0:0:0:0:
320,192,309514,1,0,0:0:0:0:
192,192,309616,128,2,309718:0:0:0:0:
448,192,309616,1,0,0:0:0:0:
320,192,309718,1,0,0:0:0:0:
192,192,309820,1,0,0:0:0:0:
192,192,309922,1,0,0:0:0:0:
64,192,310024,1,8,0:0:0:0:
320,192,310024,1,2,0:0:0:0:
448,192,310024,1,0,0:0:0:0:
192,192,310126,1,0,0:0:0:0:
64,192,310228,128,0,310432:0:0:0:0:
448,192,310228,128,0,310432:0:0:0:0:
320,192,310432,1,2,0:0:0:0:
192,192,310432,1,0,0:0:0:0:
448,192,310534,1,0,0:0:0:0:
64,192,310636,128,0,310840:0:0:0:0:
192,192,310636,128,0,310840:0:0:0:0:
320,192,310840,1,0,0:0:0:0:
448,192,310840,1,2,0:0:0:0:
64,192,310942,1,0,0:0:0:0:
320,192,311044,1,2,0:0:0:0:
448,192,311044,1,0,0:0:0:0:
64,192,311147,1,2,0:0:0:0:
192,192,311147,1,0,0:0:0:0:
64,192,311249,128,2,311351:0:0:0:0:
320,192,311249,1,4,0:0:0:0:
448,192,311249,1,0,0:0:0:0:
320,192,311351,128,0,311453:0:0:0:0:
192,192,311453,1,0,0:0:0:0:
192,192,311555,1,0,0:0:0:0:
64,192,311657,1,8,0:0:0:0:
320,192,311657,1,2,0:0:0:0:
448,192,311657,1,0,0:0:0:0:
192,192,311759,1,0,0:0:0:0:
448,192,311861,128,0,311963:0:0:0:0:
64,192,311963,1,0,0:0:0:0:
192,192,312065,1,2,0:0:0:0:
320,192,312065,128,0,312167:0:0:0:0:
64,192,312167,128,0,312269:0:0:0:0:
192,192,312269,1,0,0:0:0:0:
320,192,312269,128,0,312371:0:0:0:0:
64,192,312371,128,0,312473:0:0:0:0:
320,192,312473,128,8,312881:0:0:0:0:
448,192,312473,1,2,0:0:0:0:
192,192,312575,1,0,0:0:0:0:
448,192,312677,1,0,0:0:0:0:
192,192,312779,1,0,0:0:0:0:
64,192,312881,128,2,312983:0:0:0:0:
448,192,312881,1,0,0:0:0:0:
192,192,312983,1,0,0:0:0:0:
320,192,313085,1,0,0:0:0:0:
320,192,313187,1,0,0:0:0:0:
64,192,313289,1,8,0:0:0:0:
192,192,313289,1,2,0:0:0:0:
448,192,313289,1,0,0:0:0:0:
320,192,313391,1,0,0:0:0:0:
192,192,313493,128,0,313596:0:0:0:0:
448,192,313596,1,0,0:0:0:0:
64,192,313698,128,2,313800:0:0:0:0:
192,192,313698,1,0,0:0:0:0:
448,192,313800,128,0,313902:0:0:0:0:
64,192,313902,128,0,314004:0:0:0:0:
192,192,313902,1,0,0:0:0:0:
448,192,314004,128,0,314106:0:0:0:0:
192,192,314106,128,2,314514:0:0:0:0:
320,192,314106,1,0,0:0:0:0:
64,192,314106,1,8,0:0:0:0:
448,192,314208,1,0,0:0:0:0:
64,192,314310,1,0,0:0:0:0:
448,192,314412,1,0,0:0:0:0:
64,192,314514,128,2,314616:0:0:0:0:
320,192,314514,1,0,0:0:0:0:
448,192,314616,1,0,0:0:0:0:
192,192,314718,1,0,0:0:0:0:
192,192,314820,1,0,0:0:0:0:
64,192,314922,1,8,0:0:0:0:
320,192,314922,1,2,0:0:0:0:
448,192,314922,1,0,0:0:0:0:
192,192,315024,1,0,0:0:0:0:
448,192,315126,128,0,315228:0:0:0:0:
64,192,315228,1,0,0:0:0:0:
192,192,315330,1,2,0:0:0:0:
320,192,315330,128,0,315432:0:0:0:0:
64,192,315432,128,0,315534:0:0:0:0:
192,192,315534,1,0,0:0:0:0:
320,192,315534,128,0,315636:0:0:0:0:
64,192,315636,128,0,315738:0:0:0:0:
192,192,315738,1,8,0:0:0:0:
448,192,315738,128,0,316147:0:0:0:0:
320,192,315738,1,2,0:0:0:0:
64,192,315840,1,0,0:0:0:0:
320,192,315942,1,0,0:0:0:0:
64,192,316044,1,0,0:0:0:0:
192,192,316147,128,2,316249:0:0:0:0:
320,192,316147,1,0,0:0:0:0:
448,192,316249,1,0,0:0:0:0:
320,192,316351,1,0,0:0:0:0:
320,192,316453,1,0,0:0:0:0:
64,192,316555,1,8,0:0:0:0:
192,192,316555,1,2,0:0:0:0:
448,192,316555,1,0,0:0:0:0:
320,192,316657,1,0,0:0:0:0:
192,192,316759,128,0,316861:0:0:0:0:
448,192,316861,1,0,0:0:0:0:
64,192,316963,128,2,317065:0:0:0:0:
192,192,316963,1,0,0:0:0:0:
448,192,317065,128,0,317167:0:0:0:0:
64,192,317167,128,0,317269:0:0:0:0:
192,192,317167,1,0,0:0:0:0:
448,192,317269,128,0,317371:0:0:0:0:
64,192,317371,128,8,317779:0:0:0:0:
320,192,317371,1,0,0:0:0:0:
192,192,317371,1,2,0:0:0:0:
448,192,317473,1,0,0:0:0:0:
320,192,317575,1,0,0:0:0:0:
192,192,317677,1,0,0:0:0:0:
320,192,317779,128,2,317881:0:0:0:0:
448,192,317779,1,0,0:0:0:0:
192,192,317881,128,0,317983:0:0:0:0:
320,192,317983,1,0,0:0:0:0:
320,192,318085,1,0,0:0:0:0:
64,192,318187,1,8,0:0:0:0:
192,192,318187,1,2,0:0:0:0:
448,192,318187,1,0,0:0:0:0:
320,192,318289,1,0,0:0:0:0:
64,192,318391,128,0,318493:0:0:0:0:
448,192,318493,1,0,0:0:0:0:
192,192,318596,128,2,318698:0:0:0:0:
320,192,318596,1,0,0:0:0:0:
448,192,318698,128,0,318800:0:0:0:0:
192,192,318800,128,0,318902:0:0:0:0:
320,192,318800,1,0,0:0:0:0:
448,192,318902,128,0,319004:0:0:0:0:
192,192,319004,128,2,319412:0:0:0:0:
64,192,319004,1,8,0:0:0:0:
320,192,319106,1,0,0:0:0:0:
64,192,319208,1,0,0:0:0:0:
320,192,319310,1,0,0:0:0:0:
64,192,319412,1,2,0:0:0:0:
448,192,319412,128,0,319514:0:0:0:0:
320,192,319514,1,0,0:0:0:0:
192,192,319616,1,0,0:0:0:0:
192,192,319718,1,0,0:0:0:0:
64,192,319820,1,8,0:0:0:0:
320,192,319820,1,2,0:0:0:0:
448,192,319820,1,0,0:0:0:0:
192,192,319922,1,0,0:0:0:0:
320,192,320024,128,0,320126:0:0:0:0:
64,192,320126,1,0,0:0:0:0:
320,192,320228,1,2,0:0:0:0:
448,192,320228,128,0,320330:0:0:0:0:
64,192,320330,128,0,320432:0:0:0:0:
320,192,320432,1,0,0:0:0:0:
448,192,320432,128,0,320534:0:0:0:0:
64,192,320534,1,2,0:0:0:0:
192,192,320534,1,0,0:0:0:0:
64,192,320636,1,8,0:0:0:0:
320,192,320636,128,2,321044:0:0:0:0:
448,192,320636,1,0,0:0:0:0:
192,192,320738,1,0,0:0:0:0:
64,192,320840,1,2,0:0:0:0:
448,192,320840,1,0,0:0:0:0:
192,192,320942,1,0,0:0:0:0:
64,192,321044,1,2,0:0:0:0:
448,192,321044,1,4,0:0:0:0:
192,192,321249,1,0,0:0:0:0:
320,192,321351,1,0,0:0:0:0:
64,192,321453,1,0,0:0:0:0:
320,192,321555,1,0,0:0:0:0:
448,192,321657,1,0,0:0:0:0:
64,192,321657,1,0,0:0:0:0:
192,192,321759,1,0,0:0:0:0:
320,192,321861,1,0,0:0:0:0:
192,192,321963,1,0,0:0:0:0:
448,192,322065,1,0,0:0:0:0:
64,192,322065,1,0,0:0:0:0:
320,192,322167,1,0,0:0:0:0:
192,192,322269,1,0,0:0:0:0:
320,192,322371,1,0,0:0:0:0:
64,192,322473,1,0,0:0:0:0:
448,192,322524,1,0,0:0:0:0:
320,192,322575,1,0,0:0:0:0:
192,192,322626,1,0,0:0:0:0:
64,192,322677,1,2,0:0:0:0:
320,192,322677,1,0,0:0:0:50:cymbal.wav
448,192,322677,1,0,0:0:0:0:
192,192,322779,1,0,0:0:0:0:
320,192,322881,1,0,0:0:0:70:tom01.wav
448,192,322881,1,0,0:0:0:0:
192,192,322983,1,0,0:0:0:0:
64,192,323085,1,0,0:0:0:70:S1.wav
192,192,323085,1,0,0:0:0:0:
320,192,323187,1,0,0:0:0:70:S1.wav
320,192,323289,1,0,0:0:0:70:tom02.wav
448,192,323289,1,0,0:0:0:0:
64,192,323391,1,0,0:0:0:0:
64,192,323493,1,0,0:0:0:50:S2.wav
448,192,323493,1,0,0:0:0:0:
320,192,323596,1,0,0:0:0:0:
192,192,323698,1,0,0:0:0:70:tom01.wav
192,192,323800,1,0,0:0:0:70:tom01.wav
64,192,323902,1,0,0:0:0:70:S1.wav
448,192,323902,1,0,0:0:0:0:
320,192,324004,1,0,0:0:0:70:S1.wav
320,192,324106,1,0,0:0:0:70:S1.wav
320,192,324208,1,0,0:0:0:70:S1.wav
64,192,324310,128,4,324514:0:0:0:0:
448,192,324310,1,0,0:0:0:0:
192,192,324310,128,2,324412:0:0:0:0:
448,192,324514,1,0,0:0:0:0:
320,192,324616,1,0,0:0:0:0:
64,192,324718,1,8,0:0:0:0:
192,192,324718,1,2,0:0:0:0:
448,192,324718,1,0,0:0:0:0:
64,192,324820,1,0,0:0:0:0:
192,192,324922,128,0,325126:0:0:0:0:
64,192,325024,1,0,0:0:0:0:
320,192,325126,128,2,325228:0:0:0:0:
448,192,325126,1,0,0:0:0:0:
64,192,325228,128,0,325330:0:0:0:0:
320,192,325330,1,0,0:0:0:0:
192,192,325432,1,0,0:0:0:0:
64,192,325534,1,8,0:0:0:0:
320,192,325534,1,2,0:0:0:0:
448,192,325534,1,0,0:0:0:0:
320,192,325636,1,0,0:0:0:0:
192,192,325738,1,0,0:0:0:0:
192,192,325840,1,0,0:0:0:0:
64,192,325942,128,2,326147:0:0:0:0:
448,192,325942,128,0,326044:0:0:0:0:
192,192,326147,1,0,0:0:0:0:
320,192,326249,1,0,0:0:0:0:
64,192,326351,1,8,0:0:0:0:
192,192,326351,1,2,0:0:0:0:
448,192,326351,1,0,0:0:0:0:
320,192,326453,1,0,0:0:0:0:
192,192,326555,128,0,326759:0:0:0:0:
64,192,326657,1,0,0:0:0:0:
320,192,326759,1,2,0:0:0:0:
448,192,326759,128,0,326861:0:0:0:0:
64,192,326861,128,0,326963:0:0:0:0:
320,192,326963,1,0,0:0:0:0:
320,192,327065,1,0,0:0:0:0:
64,192,327167,128,8,327269:0:0:0:0:
192,192,327167,1,2,0:0:0:0:
448,192,327269,128,0,327371:0:0:0:0:
192,192,327371,1,0,0:0:0:0:
192,192,327473,1,0,0:0:0:0:
448,192,327575,128,0,327779:0:0:0:0:
64,192,327575,128,2,327677:0:0:0:0:
192,192,327779,1,0,0:0:0:0:
320,192,327881,1,0,0:0:0:0:
64,192,327983,1,8,0:0:0:0:
192,192,327983,1,2,0:0:0:0:
448,192,327983,1,0,0:0:0:0:
320,192,328085,1,0,0:0:0:0:
192,192,328187,128,0,328391:0:0:0:0:
64,192,328289,1,0,0:0:0:0:
320,192,328391,128,2,328493:0:0:0:0:
448,192,328391,1,0,0:0:0:0:
64,192,328493,128,0,328596:0:0:0:0:
320,192,328596,1,0,0:0:0:0:
448,192,328596,128,0,328698:0:0:0:0:
192,192,328698,128,0,328800:0:0:0:0:
64,192,328800,1,8,0:0:0:0:
320,192,328800,128,2,329208:0:0:0:0:
448,192,328902,1,0,0:0:0:0:
64,192,329004,1,0,0:0:0:0:
448,192,329106,1,0,0:0:0:0:
64,192,329208,1,2,0:0:0:0:
192,192,329208,1,0,0:0:0:0:
320,192,329310,1,0,0:0:0:0:
320,192,329412,1,0,0:0:0:0:
320,192,329514,1,0,0:0:0:0:
64,192,329616,1,8,0:0:0:0:
192,192,329616,1,2,0:0:0:0:
448,192,329616,1,0,0:0:0:0:
320,192,329718,1,0,0:0:0:0:
192,192,329820,128,0,330024:0:0:0:0:
64,192,329922,1,0,0:0:0:0:
320,192,330024,1,2,0:0:0:0:
448,192,330024,128,0,330126:0:0:0:0:
64,192,330126,128,0,330228:0:0:0:0:
320,192,330228,128,0,330330:0:0:0:0:
448,192,330228,1,0,0:0:0:0:
192,192,330330,128,0,330432:0:0:0:0:
64,192,330432,1,8,0:0:0:0:
448,192,330432,1,2,0:0:0:0:
192,192,330534,1,0,0:0:0:0:
192,192,330636,1,0,0:0:0:0:
192,192,330738,1,0,0:0:0:0:
448,192,330840,128,0,331044:0:0:0:0:
320,192,330840,128,2,330942:0:0:0:0:
64,192,331044,1,0,0:0:0:0:
192,192,331147,1,0,0:0:0:0:
64,192,331249,1,8,0:0:0:0:
320,192,331249,1,2,0:0:0:0:
448,192,331249,1,0,0:0:0:0:
448,192,331351,1,0,0:0:0:0:
320,192,331453,128,0,331657:0:0:0:0:
448,192,331555,1,0,0:0:0:0:
64,192,331657,1,2,0:0:0:0:
192,192,331657,128,0,331759:0:0:0:0:
448,192,331759,128,0,331861:0:0:0:0:
192,192,331861,1,0,0:0:0:0:
320,192,331963,1,0,0:0:0:0:
64,192,332065,1,8,0:0:0:0:
192,192,332065,1,2,0:0:0:0:
448,192,332065,1,0,0:0:0:0:
192,192,332167,1,0,0:0:0:0:
320,192,332269,1,0,0:0:0:0:
192,192,332371,1,0,0:0:0:0:
448,192,332473,128,0,332677:0:0:0:0:
64,192,332473,128,2,332575:0:0:0:0:
320,192,332677,1,0,0:0:0:0:
192,192,332779,1,0,0:0:0:0:
64,192,332881,1,8,0:0:0:0:
320,192,332881,1,2,0:0:0:0:
448,192,332881,1,0,0:0:0:0:
192,192,332983,1,0,0:0:0:0:
320,192,333085,128,0,333289:0:0:0:0:
448,192,333187,1,0,0:0:0:0:
64,192,333289,128,2,333391:0:0:0:0:
192,192,333289,1,0,0:0:0:0:
448,192,333391,128,0,333493:0:0:0:0:
192,192,333493,1,0,0:0:0:0:
320,192,333596,1,0,0:0:0:0:
64,192,333698,1,8,0:0:0:0:
192,192,333698,128,2,333800:0:0:0:0:
448,192,333800,1,0,0:0:0:0:
192,192,333902,128,0,334106:0:0:0:0:
320,192,334004,1,0,0:0:0:0:
64,192,334106,128,2,334310:0:0:0:0:
448,192,334106,128,0,334208:0:0:0:0:
320,192,334310,1,0,0:0:0:0:
192,192,334412,1,0,0:0:0:0:
64,192,334514,1,8,0:0:0:0:
320,192,334514,1,2,0:0:0:0:
448,192,334514,1,0,0:0:0:0:
192,192,334616,1,0,0:0:0:0:
320,192,334718,128,0,334922:0:0:0:0:
448,192,334820,1,0,0:0:0:0:
64,192,334922,1,2,0:0:0:0:
192,192,334922,128,0,335024:0:0:0:0:
448,192,335024,128,0,335126:0:0:0:0:
64,192,335126,128,0,335228:0:0:0:0:
192,192,335126,1,0,0:0:0:0:
320,192,335228,128,0,335330:0:0:0:0:
192,192,335330,128,8,335738:0:0:0:0:
448,192,335330,1,2,0:0:0:0:
64,192,335432,1,0,0:0:0:0:
448,192,335534,1,0,0:0:0:0:
64,192,335636,1,0,0:0:0:0:
320,192,335738,1,2,0:0:0:0:
448,192,335738,1,0,0:0:0:0:
192,192,335840,1,0,0:0:0:0:
64,192,335942,1,2,0:0:0:0:
448,192,335942,1,0,0:0:0:0:
320,192,336044,1,0,0:0:0:0:
64,192,336147,1,8,0:0:0:0:
192,192,336147,1,2,0:0:0:0:
448,192,336147,1,0,0:0:0:0:
320,192,336249,1,2,0:0:0:0:
448,192,336249,1,0,0:0:0:0:
192,192,336351,1,0,0:0:0:0:
64,192,336453,1,2,0:0:0:0:
320,192,336453,1,4,0:0:0:0:
448,192,336453,1,0,0:0:0:0:
192,192,336657,1,0,0:0:0:40:electronic32.wav
64,192,336657,1,0,0:0:0:0:
64,192,336759,1,2,0:0:0:0:
320,192,336759,1,4,0:0:0:0:
448,192,336759,1,0,0:0:0:0:
448,192,336963,1,0,0:0:0:40:electronic32.wav
320,192,336963,1,0,0:0:0:0:
448,192,337065,1,4,0:0:0:0:
192,192,337065,1,2,0:0:0:0:
64,192,337065,1,0,0:0:0:0:
320,192,337116,1,2,0:0:0:0:
192,192,337167,1,2,0:0:0:0:
64,192,337269,1,2,0:0:0:0:
448,192,337371,1,2,0:0:0:0:
320,192,337371,1,0,0:0:0:0:
192,192,337439,1,0,0:0:0:0:
320,192,337507,1,0,0:0:0:0:
192,192,337575,1,0,0:0:0:0:
320,192,337643,1,0,0:0:0:0:
192,192,337711,1,0,0:0:0:0:
64,192,337779,1,10,0:0:0:0:
320,192,337779,1,0,0:0:0:50:snare_wave.wav
448,192,337779,1,4,0:0:0:0:
192,192,337881,1,0,0:0:0:0:
64,192,337983,128,0,338187:0:0:0:0:
320,192,337983,1,0,0:0:0:0:
320,192,338085,1,0,0:0:0:0:
192,192,338187,128,2,338289:0:0:0:0:
448,192,338187,1,0,0:0:0:0:
320,192,338289,1,0,0:0:0:0:
192,192,338391,1,0,0:0:0:0:
320,192,338493,1,0,0:0:0:0:
64,192,338596,1,8,0:0:0:0:
192,192,338596,1,2,0:0:0:0:
448,192,338596,128,0,338800:0:0:0:0:
64,192,338698,1,0,0:0:0:0:
192,192,338800,128,0,338902:0:0:0:0:
320,192,338902,128,0,339004:0:0:0:0:
64,192,339004,128,2,339208:0:0:0:0:
448,192,339004,1,0,0:0:0:0:
192,192,339106,1,0,0:0:0:0:
320,192,339208,128,0,339310:0:0:0:0:
192,192,339310,1,0,0:0:0:0:
64,192,339412,1,8,0:0:0:0:
192,192,339412,128,2,339514:0:0:0:0:
448,192,339412,1,0,0:0:0:0:
320,192,339514,1,0,0:0:0:0:
192,192,339616,1,0,0:0:0:0:
448,192,339616,128,0,339820:0:0:0:0:
192,192,339718,1,0,0:0:0:0:
64,192,339820,1,2,0:0:0:0:
320,192,339820,128,0,339922:0:0:0:0:
192,192,339922,128,0,340024:0:0:0:0:
320,192,340024,1,0,0:0:0:0:
192,192,340126,1,0,0:0:0:0:
64,192,340228,128,8,340636:0:0:0:0:
320,192,340228,1,2,0:0:0:0:
448,192,340228,1,0,0:0:0:0:
448,192,340330,1,0,0:0:0:0:
320,192,340432,1,0,0:0:0:0:
320,192,340534,1,0,0:0:0:0:
192,192,340636,1,2,0:0:0:0:
448,192,340636,1,0,0:0:0:0:
192,192,340738,1,0,0:0:0:0:
192,192,340840,1,0,0:0:0:0:
320,192,340942,1,0,0:0:0:0:
64,192,341044,1,8,0:0:0:0:
192,192,341044,1,2,0:0:0:0:
448,192,341044,1,0,0:0:0:0:
320,192,341147,1,0,0:0:0:0:
64,192,341249,128,0,341453:0:0:0:0:
320,192,341249,1,0,0:0:0:0:
320,192,341351,1,0,0:0:0:0:
192,192,341453,128,2,341555:0:0:0:0:
448,192,341453,1,0,0:0:0:0:
320,192,341555,128,0,341657:0:0:0:0:
192,192,341657,1,0,0:0:0:0:
320,192,341759,1,0,0:0:0:0:
64,192,341861,1,8,0:0:0:0:
192,192,341861,128,2,342269:0:0:0:0:
448,192,341861,1,0,0:0:0:0:
320,192,341963,1,0,0:0:0:0:
64,192,342065,1,0,0:0:0:0:
320,192,342167,1,0,0:0:0:0:
64,192,342269,1,2,0:0:0:0:
448,192,342269,1,0,0:0:0:0:
320,192,342371,1,0,0:0:0:0:
320,192,342473,1,0,0:0:0:0:
192,192,342575,1,0,0:0:0:0:
64,192,342677,1,8,0:0:0:0:
320,192,342677,1,2,0:0:0:0:
448,192,342677,1,0,0:0:0:0:
192,192,342779,1,0,0:0:0:0:
448,192,342881,128,0,343085:0:0:0:0:
192,192,342983,1,0,0:0:0:0:
64,192,343085,1,2,0:0:0:0:
320,192,343085,128,0,343187:0:0:0:0:
192,192,343187,1,0,0:0:0:0:
320,192,343289,128,0,343391:0:0:0:0:
192,192,343391,128,0,343493:0:0:0:0:
64,192,343493,1,8,0:0:0:0:
320,192,343493,128,2,343902:0:0:0:0:
448,192,343493,1,0,0:0:0:0:
192,192,343596,1,0,0:0:0:0:
448,192,343698,1,0,0:0:0:0:
192,192,343800,1,0,0:0:0:0:
64,192,343902,1,2,0:0:0:0:
448,192,343902,1,4,0:0:0:0:
448,192,344004,1,0,0:0:0:0:
64,192,344106,1,2,0:0:0:0:
192,192,344106,1,0,0:0:0:0:
192,192,344208,1,0,0:0:0:0:
64,192,344310,1,8,0:0:0:0:
320,192,344310,1,2,0:0:0:0:
448,192,344310,1,0,0:0:0:0:
192,192,344412,1,0,0:0:0:0:
320,192,344514,1,2,0:0:0:0:
448,192,344514,1,0,0:0:0:0:
320,192,344616,1,0,0:0:0:0:
64,192,344718,1,2,0:0:0:0:
448,192,344718,1,0,0:0:0:0:
64,192,344820,1,0,0:0:0:0:
320,192,344922,1,2,0:0:0:0:
448,192,344922,1,0,0:0:0:0:
320,192,345024,1,0,0:0:0:0:
64,192,345126,128,4,345432:0:0:0:0:
192,192,345126,1,2,0:0:0:0:
448,192,345126,128,0,345432:0:0:0:0:
192,192,345330,128,0,345534:0:0:0:0:
64,192,345534,1,4,0:0:0:0:
320,192,345534,1,2,0:0:0:0:
448,192,345534,1,0,0:0:0:0:
64,192,345636,1,0,0:0:0:0:
320,192,345738,1,2,0:0:0:0:
448,192,345738,1,0,0:0:0:0:
320,192,345840,1,0,0:0:0:0:
64,192,345942,1,8,0:0:0:0:
192,192,345942,1,2,0:0:0:0:
448,192,345942,1,0,0:0:0:0:
320,192,346044,1,0,0:0:0:0:
64,192,346147,1,2,0:0:0:0:
192,192,346147,1,0,0:0:0:0:
192,192,346249,1,0,0:0:0:0:
64,192,346351,1,2,0:0:0:0:
448,192,346351,1,0,0:0:0:0:
448,192,346453,1,0,0:0:0:0:
64,192,346555,1,2,0:0:0:0:
192,192,346555,1,0,0:0:0:0:
192,192,346657,1,0,0:0:0:0:
64,192,346759,128,4,347065:0:0:0:0:
320,192,346759,1,2,0:0:0:0:
448,192,346759,128,0,347065:0:0:0:0:
320,192,346963,128,0,347167:0:0:0:0:
64,192,347167,1,4,0:0:0:0:
192,192,347167,1,2,0:0:0:0:
448,192,347167,1,0,0:0:0:0:
192,192,347269,1,2,0:0:0:0:
320,192,347269,1,0,0:0:0:0:
320,192,347371,1,2,0:0:0:0:
448,192,347371,1,0,0:0:0:0:
64,192,347473,1,2,0:0:0:0:
192,192,347473,1,0,0:0:0:0:
64,192,347575,1,8,0:0:0:0:
320,192,347575,1,2,0:0:0:0:
448,192,347575,1,0,0:0:0:0:
192,192,347677,1,2,0:0:0:0:
320,192,347677,1,0,0:0:0:0:
64,192,347779,1,2,0:0:0:0:
192,192,347779,1,0,0:0:0:0:
320,192,347881,1,2,0:0:0:0:
448,192,347881,1,0,0:0:0:0:
64,192,347983,1,2,0:0:0:0:
448,192,347983,1,0,0:0:0:0:
192,192,348085,1,2,0:0:0:0:
320,192,348085,1,0,0:0:0:0:
320,192,348187,1,2,0:0:0:0:
448,192,348187,1,0,0:0:0:0:
64,192,348289,1,2,0:0:0:0:
192,192,348289,1,0,0:0:0:0:
64,192,348391,1,4,0:0:0:0:
320,192,348391,128,2,348698:0:0:0:0:
448,192,348391,128,0,348698:0:0:0:0:
64,192,348596,128,0,348698:0:0:0:0:
192,192,348596,128,0,348800:0:0:0:0:
64,192,348800,1,4,0:0:0:0:
320,192,348800,1,2,0:0:0:0:
448,192,348800,1,0,0:0:0:0:
320,192,349004,1,0,0:0:0:0:
320,192,349106,1,0,0:0:0:0:
64,192,349208,128,0,349310:0:0:0:0:
448,192,349310,128,0,349412:0:0:0:0:
320,192,349412,128,0,349514:0:0:0:0:
192,192,349514,1,0,0:0:0:0:
64,192,349616,1,2,0:0:0:0:
448,192,349616,1,0,0:0:0:0:
320,192,349820,1,0,0:0:0:0:
64,192,349922,1,0,0:0:0:0:
192,192,349973,1,0,0:0:0:0:
320,192,350024,128,0,350330:0:0:0:100:LR4_DSFX_TCL.wav
448,192,350126,128,0,350330:0:0:0:0:
192,192,350228,128,0,350432:0:0:0:0:
64,192,350330,128,0,350432:0:0:0:0:
320,192,350432,128,6,350738:0:0:0:0:
448,192,350432,128,0,350738:0:0:0:100:AR - Groza1.wav
64,192,350840,1,8,0:0:0:0:
192,192,350840,1,2,0:0:0:0:
320,192,350840,1,0,0:0:0:0:
448,192,350840,1,0,0:0:0:0:
64,192,351044,1,2,0:0:0:0:
192,192,351044,1,0,0:0:0:0:
448,192,351044,1,0,0:0:0:0:
320,192,351249,1,2,0:0:0:0:
448,192,351249,1,0,0:0:0:0:
192,192,351351,1,0,0:0:0:0:
320,192,351453,1,0,0:0:0:0:
192,192,351555,1,0,0:0:0:0:
64,192,351657,1,8,0:0:0:0:
320,192,351657,128,2,352065:0:0:0:0:
448,192,351657,1,0,0:0:0:0:
448,192,351861,1,0,0:0:0:0:
192,192,351963,1,2,0:0:0:0:
64,192,351963,1,0,0:0:0:0:
64,192,352065,128,2,352371:0:0:0:0:
448,192,352065,128,0,352371:0:0:0:0:
64,192,352473,1,8,0:0:0:0:
192,192,352473,1,2,0:0:0:0:
320,192,352473,1,0,0:0:0:0:
448,192,352473,1,0,0:0:0:0:
320,192,352677,1,0,0:0:0:0:
192,192,352779,1,0,0:0:0:0:
64,192,352881,1,2,0:0:0:0:
448,192,352881,1,0,0:0:0:0:
320,192,352983,1,0,0:0:0:0:
64,192,353085,1,2,0:0:0:0:
192,192,353085,1,0,0:0:0:0:
192,192,353187,1,0,0:0:0:0:
64,192,353289,1,8,0:0:0:0:
320,192,353289,1,2,0:0:0:0:
448,192,353289,1,0,0:0:0:0:
448,192,353493,1,0,0:0:0:0:
320,192,353596,1,0,0:0:0:0:
64,192,353698,128,2,354004:0:0:0:0:
192,192,353698,128,0,354004:0:0:0:0:
64,192,354106,1,8,0:0:0:0:
192,192,354106,1,2,0:0:0:0:
320,192,354106,1,0,0:0:0:0:
448,192,354106,1,0,0:0:0:0:
64,192,354310,1,2,0:0:0:0:
320,192,354310,1,0,0:0:0:0:
448,192,354310,1,0,0:0:0:0:
64,192,354514,1,2,0:0:0:0:
192,192,354514,1,0,0:0:0:0:
320,192,354616,1,0,0:0:0:0:
192,192,354718,1,0,0:0:0:0:
320,192,354820,1,0,0:0:0:0:
64,192,354922,128,8,355330:0:0:0:0:
192,192,354922,1,2,0:0:0:0:
448,192,354922,1,0,0:0:0:0:
192,192,355126,1,0,0:0:0:0:
448,192,355228,1,2,0:0:0:0:
320,192,355228,1,0,0:0:0:0:
192,192,355330,128,2,355636:0:0:0:0:
320,192,355330,128,0,355636:0:0:0:0:
64,192,355738,1,8,0:0:0:0:
192,192,355738,1,2,0:0:0:0:
320,192,355738,1,0,0:0:0:0:
448,192,355738,1,0,0:0:0:0:
192,192,355942,1,0,0:0:0:0:
320,192,356044,1,0,0:0:0:0:
64,192,356147,1,2,0:0:0:0:
448,192,356147,1,0,0:0:0:0:
192,192,356249,1,0,0:0:0:0:
320,192,356351,1,2,0:0:0:0:
448,192,356351,1,0,0:0:0:0:
320,192,356453,1,0,0:0:0:0:
64,192,356555,1,8,0:0:0:0:
192,192,356555,1,2,0:0:0:0:
448,192,356555,1,0,0:0:0:0:
192,192,356759,1,0,0:0:0:0:
320,192,356861,1,0,0:0:0:0:
64,192,356963,128,2,357269:0:0:0:0:
192,192,356963,128,4,357269:0:0:0:0:
448,192,356963,1,0,0:0:0:0:
64,192,357371,1,8,0:0:0:0:
192,192,357371,1,2,0:0:0:0:
320,192,357371,1,0,0:0:0:0:
448,192,357371,1,0,0:0:0:0:
64,192,357575,1,2,0:0:0:0:
320,192,357575,1,0,0:0:0:0:
448,192,357575,1,0,0:0:0:0:
64,192,357779,1,2,0:0:0:0:
192,192,357779,1,0,0:0:0:0:
320,192,357881,1,0,0:0:0:0:
192,192,357983,1,0,0:0:0:0:
320,192,358085,1,0,0:0:0:0:
64,192,358187,1,8,0:0:0:0:
192,192,358187,128,2,358596:0:0:0:0:
448,192,358187,1,0,0:0:0:0:
64,192,358391,1,0,0:0:0:0:
320,192,358493,1,2,0:0:0:0:
448,192,358493,1,0,0:0:0:0:
64,192,358596,128,2,358902:0:0:0:0:
448,192,358596,128,0,358902:0:0:0:0:
64,192,359004,1,8,0:0:0:0:
192,192,359004,1,2,0:0:0:0:
320,192,359004,1,0,0:0:0:0:
448,192,359004,1,0,0:0:0:0:
192,192,359208,1,0,0:0:0:0:
320,192,359310,1,0,0:0:0:0:
64,192,359412,1,2,0:0:0:0:
448,192,359412,1,0,0:0:0:0:
192,192,359514,1,0,0:0:0:0:
320,192,359616,1,2,0:0:0:0:
448,192,359616,1,0,0:0:0:0:
320,192,359718,1,0,0:0:0:0:
64,192,359820,1,8,0:0:0:0:
192,192,359820,1,2,0:0:0:0:
448,192,359820,1,0,0:0:0:0:
64,192,360024,1,0,0:0:0:0:
192,192,360126,1,0,0:0:0:0:
320,192,360228,128,2,360534:0:0:0:0:
448,192,360228,128,0,360534:0:0:0:0:
64,192,360636,1,8,0:0:0:0:
192,192,360636,1,2,0:0:0:0:
320,192,360636,1,0,0:0:0:0:
448,192,360636,1,0,0:0:0:0:
64,192,360840,1,2,0:0:0:0:
192,192,360840,1,0,0:0:0:0:
448,192,360840,1,0,0:0:0:0:
320,192,361044,1,2,0:0:0:0:
448,192,361044,1,0,0:0:0:0:
192,192,361147,1,0,0:0:0:0:
320,192,361249,1,0,0:0:0:0:
192,192,361351,1,0,0:0:0:0:
64,192,361453,1,8,0:0:0:0:
320,192,361453,1,2,0:0:0:0:
448,192,361453,128,0,361861:0:0:0:0:
320,192,361657,1,0,0:0:0:0:
64,192,361759,1,2,0:0:0:0:
192,192,361759,1,0,0:0:0:0:
192,192,361861,128,2,362167:0:0:0:0:
320,192,361861,128,0,362167:0:0:0:0:
64,192,362269,1,8,0:0:0:0:
192,192,362269,1,2,0:0:0:0:
320,192,362269,1,0,0:0:0:0:
448,192,362269,1,0,0:0:0:0:
320,192,362473,1,0,0:0:0:0:
192,192,362575,1,0,0:0:0:0:
64,192,362677,1,2,0:0:0:0:
448,192,362677,1,0,0:0:0:0:
320,192,362779,1,0,0:0:0:0:
64,192,362881,1,2,0:0:0:0:
192,192,362881,1,0,0:0:0:0:
192,192,362983,1,0,0:0:0:0:
64,192,363085,1,8,0:0:0:0:
320,192,363085,1,2,0:0:0:0:
448,192,363085,1,0,0:0:0:0:
320,192,363289,1,0,0:0:0:0:
192,192,363391,1,0,0:0:0:0:
64,192,363493,1,4,0:0:0:0:
320,192,363493,128,2,363800:0:0:0:0:
448,192,363493,128,0,363800:0:0:0:0:
64,192,363902,1,8,0:0:0:0:
192,192,363902,1,2,0:0:0:0:
320,192,363902,1,0,0:0:0:0:
448,192,363902,1,0,0:0:0:0:
64,192,364106,1,2,0:0:0:0:
192,192,364106,1,0,0:0:0:0:
448,192,364106,1,0,0:0:0:0:
320,192,364310,1,2,0:0:0:0:
448,192,364310,1,0,0:0:0:0:
192,192,364412,1,0,0:0:0:0:
320,192,364514,1,0,0:0:0:0:
192,192,364616,1,0,0:0:0:0:
64,192,364718,1,8,0:0:0:0:
320,192,364718,128,2,365126:0:0:0:0:
448,192,364718,1,0,0:0:0:0:
64,192,364922,1,0,0:0:0:0:
192,192,365024,1,2,0:0:0:0:
64,192,365126,128,2,365432:0:0:0:0:
448,192,365126,128,0,365432:0:0:0:0:
64,192,365534,1,2,0:0:0:0:
192,192,365534,1,8,0:0:0:0:
320,192,365534,1,0,0:0:0:0:
448,192,365534,1,0,0:0:0:0:
320,192,365738,1,0,0:0:0:0:
192,192,365840,1,0,0:0:0:0:
64,192,365942,1,2,0:0:0:0:
448,192,365942,1,0,0:0:0:0:
320,192,366044,1,0,0:0:0:0:
64,192,366147,1,2,0:0:0:0:
192,192,366147,1,0,0:0:0:0:
192,192,366249,1,0,0:0:0:0:
64,192,366351,1,2,0:0:0:0:
320,192,366351,1,8,0:0:0:0:
448,192,366351,1,0,0:0:0:0:
448,192,366555,1,0,0:0:0:0:
320,192,366657,1,0,0:0:0:0:
64,192,366759,128,2,367065:0:0:0:0:
192,192,366759,128,0,367065:0:0:0:0:
64,192,367167,1,8,0:0:0:0:
192,192,367167,1,2,0:0:0:0:
320,192,367167,1,0,0:0:0:0:
448,192,367167,1,0,0:0:0:0:
64,192,367371,1,2,0:0:0:0:
320,192,367371,1,0,0:0:0:0:
448,192,367371,1,0,0:0:0:0:
64,192,367575,1,2,0:0:0:0:
192,192,367575,1,0,0:0:0:0:
320,192,367677,1,0,0:0:0:0:
192,192,367779,1,0,0:0:0:0:
320,192,367881,1,0,0:0:0:0:
64,192,367983,128,8,368391:0:0:0:0:
192,192,367983,1,2,0:0:0:0:
448,192,367983,1,0,0:0:0:0:
320,192,368187,1,0,0:0:0:0:
448,192,368289,1,2,0:0:0:0:
192,192,368391,128,2,368698:0:0:0:0:
320,192,368391,128,0,368698:0:0:0:0:
64,192,368800,1,8,0:0:0:0:
192,192,368800,1,2,0:0:0:0:
320,192,368800,1,0,0:0:0:0:
448,192,368800,1,0,0:0:0:0:
192,192,369004,1,0,0:0:0:0:
320,192,369106,1,0,0:0:0:0:
64,192,369208,1,2,0:0:0:0:
448,192,369208,1,0,0:0:0:0:
192,192,369310,1,0,0:0:0:0:
320,192,369412,1,2,0:0:0:0:
448,192,369412,1,0,0:0:0:0:
320,192,369514,1,0,0:0:0:0:
64,192,369616,1,8,0:0:0:0:
192,192,369616,1,2,0:0:0:0:
448,192,369616,1,0,0:0:0:0:
192,192,369820,1,0,0:0:0:0:
320,192,369922,1,0,0:0:0:0:
64,192,370024,128,2,370330:0:0:0:0:
192,192,370024,128,4,370330:0:0:0:0:
448,192,370024,1,0,0:0:0:0:
64,192,370432,1,8,0:0:0:0:
192,192,370432,1,2,0:0:0:0:
320,192,370432,1,0,0:0:0:0:
448,192,370432,1,0,0:0:0:0:
64,192,370636,1,2,0:0:0:0:
320,192,370636,1,0,0:0:0:0:
448,192,370636,1,0,0:0:0:0:
64,192,370840,1,2,0:0:0:0:
192,192,370840,1,0,0:0:0:0:
320,192,370942,1,0,0:0:0:0:
192,192,371044,1,0,0:0:0:0:
320,192,371147,1,0,0:0:0:0:
64,192,371249,1,8,0:0:0:0:
192,192,371249,128,2,371657:0:0:0:0:
448,192,371249,1,0,0:0:0:0:
64,192,371453,1,0,0:0:0:0:
320,192,371555,1,2,0:0:0:0:
64,192,371657,128,2,371963:0:0:0:0:
448,192,371657,128,0,371963:0:0:0:0:
64,192,372065,1,8,0:0:0:0:
192,192,372065,1,2,0:0:0:0:
320,192,372065,1,0,0:0:0:0:
448,192,372065,1,0,0:0:0:0:
192,192,372269,1,0,0:0:0:0:
320,192,372371,1,0,0:0:0:0:
64,192,372473,1,2,0:0:0:0:
448,192,372473,1,0,0:0:0:0:
192,192,372575,1,0,0:0:0:0:
320,192,372677,1,2,0:0:0:0:
448,192,372677,1,0,0:0:0:0:
320,192,372779,1,0,0:0:0:0:
64,192,372881,1,8,0:0:0:0:
192,192,372881,1,2,0:0:0:0:
448,192,372881,1,0,0:0:0:0:
64,192,373085,1,0,0:0:0:0:
192,192,373187,1,0,0:0:0:0:
320,192,373289,128,2,373596:0:0:0:0:
448,192,373289,128,0,373596:0:0:0:0:
64,192,373698,1,8,0:0:0:0:
192,192,373698,1,2,0:0:0:0:
320,192,373698,1,0,0:0:0:0:
448,192,373698,1,0,0:0:0:0:
64,192,373902,1,2,0:0:0:0:
192,192,373902,1,0,0:0:0:0:
448,192,373902,1,0,0:0:0:0:
320,192,374106,1,2,0:0:0:0:
448,192,374106,1,0,0:0:0:0:
192,192,374208,1,0,0:0:0:0:
320,192,374310,1,0,0:0:0:0:
192,192,374412,1,0,0:0:0:0:
64,192,374514,1,8,0:0:0:0:
320,192,374514,1,2,0:0:0:0:
448,192,374514,128,0,374922:0:0:0:0:
192,192,374718,1,0,0:0:0:0:
64,192,374820,1,2,0:0:0:0:
192,192,374922,128,2,375228:0:0:0:0:
320,192,374922,128,0,375228:0:0:0:0:
64,192,375330,1,8,0:0:0:0:
192,192,375330,1,2,0:0:0:0:
320,192,375330,1,0,0:0:0:0:
448,192,375330,1,0,0:0:0:0:
320,192,375534,1,0,0:0:0:0:
192,192,375636,1,0,0:0:0:0:
64,192,375738,1,2,0:0:0:0:
448,192,375738,1,0,0:0:0:0:
320,192,375840,1,0,0:0:0:0:
64,192,375942,1,2,0:0:0:0:
192,192,375942,1,0,0:0:0:0:
192,192,376044,1,0,0:0:0:0:
64,192,376147,1,8,0:0:0:0:
320,192,376147,1,2,0:0:0:0:
448,192,376147,1,0,0:0:0:0:
320,192,376351,1,0,0:0:0:0:
192,192,376453,1,0,0:0:0:0:
64,192,376555,1,2,0:0:0:0:
448,192,376555,1,0,0:0:0:0:
192,192,376657,1,0,0:0:0:0:
320,192,376759,1,0,0:0:0:0:
448,192,376861,1,0,0:0:0:0:
64,192,376963,1,2,0:0:0:0:
192,192,376963,1,0,0:0:0:0:
320,192,377167,1,0,0:0:0:0:
448,192,377269,1,0,0:0:0:0:
64,192,377371,1,2,0:0:0:0:
192,192,377371,1,0,0:0:0:0:
320,192,377473,1,0,0:0:0:0:
64,192,377575,1,0,0:0:0:0:
448,192,377677,1,0,0:0:0:0:
64,192,377779,1,2,0:0:0:0:
192,192,377779,1,0,0:0:0:0:
320,192,377881,1,0,0:0:0:0:
192,192,377983,128,0,378187:0:0:0:0:
64,192,378187,1,2,0:0:0:0:
448,192,378187,1,0,0:0:0:0:
320,192,378289,1,0,0:0:0:0:
192,192,378391,1,0,0:0:0:0:
64,192,378493,1,0,0:0:0:0:
320,192,378596,1,2,0:0:0:0:
448,192,378596,1,0,0:0:0:0:
192,192,378800,1,0,0:0:0:0:
64,192,378902,1,0,0:0:0:0:
320,192,379004,1,2,0:0:0:0:
448,192,379004,1,0,0:0:0:0:
64,192,379106,1,0,0:0:0:0:
448,192,379208,1,0,0:0:0:0:
64,192,379310,1,0,0:0:0:0:
320,192,379412,1,2,0:0:0:0:
448,192,379412,1,0,0:0:0:0:
192,192,379514,1,0,0:0:0:0:
320,192,379616,128,0,379820:0:0:0:0:
64,192,379820,1,2,0:0:0:0:
448,192,379820,1,0,0:0:0:0:
192,192,379922,1,0,0:0:0:0:
320,192,380024,1,0,0:0:0:0:
448,192,380126,1,0,0:0:0:0:
64,192,380228,1,2,0:0:0:0:
192,192,380228,1,0,0:0:0:0:
320,192,380432,1,0,0:0:0:0:
448,192,380534,1,0,0:0:0:0:
64,192,380636,1,2,0:0:0:0:
192,192,380636,1,0,0:0:0:0:
320,192,380738,1,0,0:0:0:0:
64,192,380840,1,0,0:0:0:0:
448,192,380942,1,0,0:0:0:0:
64,192,381044,1,2,0:0:0:0:
192,192,381044,1,0,0:0:0:0:
320,192,381147,1,0,0:0:0:0:
192,192,381249,1,0,0:0:0:0:
320,192,381351,1,0,0:0:0:0:
64,192,381453,1,2,0:0:0:0:
448,192,381453,1,0,0:0:0:0:
320,192,381555,1,0,0:0:0:0:
192,192,381657,1,0,0:0:0:0:
64,192,381759,1,0,0:0:0:0:
320,192,381861,1,2,0:0:0:0:
192,192,382065,1,0,0:0:0:0:
64,192,382167,1,0,0:0:0:0:
320,192,382269,1,2,0:0:0:0:
448,192,382269,1,0,0:0:0:0:
64,192,382371,1,0,0:0:0:0:
448,192,382473,1,0,0:0:0:0:
64,192,382575,1,0,0:0:0:0:
320,192,382677,1,2,0:0:0:0:
192,192,382779,1,0,0:0:0:0:
320,192,382881,1,0,0:0:0:0:
192,192,382983,1,0,0:0:0:0:
64,192,383085,1,2,0:0:0:0:
448,192,383085,1,0,0:0:0:0:
192,192,383187,1,0,0:0:0:0:
320,192,383289,1,0,0:0:0:0:
448,192,383391,1,0,0:0:0:0:
192,192,383493,1,2,0:0:0:0:
320,192,383698,1,0,0:0:0:0:
448,192,383800,1,0,0:0:0:0:
64,192,383902,1,2,0:0:0:0:
192,192,383902,1,0,0:0:0:0:
320,192,384004,1,0,0:0:0:0:
64,192,384106,1,0,0:0:0:0:
448,192,384208,1,0,0:0:0:0:
192,192,384310,1,2,0:0:0:0:
320,192,384412,1,0,0:0:0:0:
192,192,384514,1,0,0:0:0:0:
320,192,384616,1,0,0:0:0:0:
64,192,384718,1,2,0:0:0:0:
448,192,384718,1,0,0:0:0:0:
320,192,384820,1,0,0:0:0:0:
192,192,384922,1,0,0:0:0:0:
64,192,385024,1,0,0:0:0:0:
320,192,385126,1,2,0:0:0:0:
192,192,385330,1,0,0:0:0:0:
64,192,385432,1,0,0:0:0:0:
320,192,385534,1,2,0:0:0:0:
448,192,385534,1,0,0:0:0:0:
64,192,385636,1,0,0:0:0:0:
448,192,385738,1,0,0:0:0:0:
64,192,385840,1,0,0:0:0:0:
320,192,385942,1,2,0:0:0:0:
192,192,386044,1,0,0:0:0:0:
320,192,386147,1,0,0:0:0:0:
192,192,386249,1,0,0:0:0:0:
64,192,386351,1,2,0:0:0:0:
448,192,386351,1,0,0:0:0:0:
192,192,386453,1,0,0:0:0:0:
320,192,386555,1,0,0:0:0:0:
448,192,386657,1,0,0:0:0:0:
192,192,386759,1,2,0:0:0:0:
320,192,386963,1,0,0:0:0:0:
448,192,387065,1,0,0:0:0:0:
64,192,387167,1,2,0:0:0:0:
192,192,387167,1,0,0:0:0:0:
320,192,387269,1,0,0:0:0:0:
64,192,387371,1,0,0:0:0:0:
448,192,387473,1,0,0:0:0:0:
192,192,387575,1,2,0:0:0:0:
320,192,387677,1,0,0:0:0:0:
192,192,387779,1,0,0:0:0:0:
320,192,387881,1,0,0:0:0:0:
64,192,387983,1,2,0:0:0:0:
448,192,387983,1,0,0:0:0:0:
320,192,388085,1,0,0:0:0:0:
192,192,388187,1,0,0:0:0:0:
64,192,388289,1,0,0:0:0:0:
320,192,388391,1,2,0:0:0:0:
192,192,388596,1,0,0:0:0:0:
64,192,388698,1,0,0:0:0:0:
320,192,388800,1,2,0:0:0:0:
448,192,388800,1,0,0:0:0:0:
192,192,388902,1,0,0:0:0:0:
448,192,389004,1,0,0:0:0:0:
64,192,389106,1,0,0:0:0:0:
320,192,389208,1,2,0:0:0:0:
192,192,389310,1,0,0:0:0:0:
320,192,389412,1,0,0:0:0:0:
192,192,389514,1,0,0:0:0:0:
64,192,389616,1,2,0:0:0:0:
448,192,389616,1,0,0:0:0:0:
192,192,389718,1,0,0:0:0:0:
320,192,389820,1,0,0:0:0:0:
448,192,389922,1,0,0:0:0:0:
192,192,390024,1,2,0:0:0:0:
320,192,390228,1,0,0:0:0:0:
448,192,390330,1,0,0:0:0:0:
192,192,390432,1,2,0:0:0:0:
320,192,390534,1,0,0:0:0:0:
64,192,390636,1,0,0:0:0:0:
448,192,390738,1,0,0:0:0:0:
192,192,390840,1,2,0:0:0:0:
320,192,390942,1,0,0:0:0:0:
192,192,391044,1,0,0:0:0:0:
448,192,391249,1,2,0:0:0:0:
320,192,391351,1,0,0:0:0:0:
192,192,391453,1,0,0:0:0:0:
64,192,391555,1,0,0:0:0:0:
320,192,391657,1,0,0:0:0:0:
192,192,391861,1,0,0:0:0:0:
64,192,391963,1,0,0:0:0:0:
320,192,392065,1,0,0:0:0:0:
192,192,392167,1,0,0:0:0:0:
448,192,392269,1,0,0:0:0:0:
64,192,392371,1,0,0:0:0:0:
320,192,392473,1,0,0:0:0:0:
192,192,392575,1,0,0:0:0:0:
320,192,392677,1,0,0:0:0:0:
64,192,392881,1,0,0:0:0:0:
192,192,392983,1,0,0:0:0:0:
320,192,393085,1,0,0:0:0:0:
448,192,393187,1,0,0:0:0:0:
192,192,393289,1,0,0:0:0:0:
320,192,393493,1,0,0:0:0:0:
448,192,393596,1,0,0:0:0:0:
192,192,393698,1,0,0:0:0:0:
320,192,393800,1,0,0:0:0:0:
64,192,393902,1,0,0:0:0:0:
448,192,394004,1,0,0:0:0:0:
192,192,394106,1,0,0:0:0:0:
320,192,394208,1,0,0:0:0:0:
192,192,394310,1,0,0:0:0:0:
448,192,394514,1,0,0:0:0:0:
320,192,394616,1,0,0:0:0:0:
192,192,394718,1,0,0:0:0:0:
64,192,394820,1,0,0:0:0:0:
320,192,394922,1,0,0:0:0:0:
192,192,395126,1,0,0:0:0:0:
64,192,395228,1,0,0:0:0:0:
320,192,395330,1,0,0:0:0:0:
192,192,395432,1,0,0:0:0:0:
448,192,395534,1,0,0:0:0:0:
64,192,395636,1,0,0:0:0:0:
320,192,395738,1,0,0:0:0:0:
192,192,395840,1,0,0:0:0:0:
320,192,395942,1,0,0:0:0:0:
448,192,396147,1,0,0:0:0:0:
320,192,396351,1,0,0:0:0:0:
64,192,396555,1,0,0:0:0:0:
192,192,396759,1,0,0:0:0:0:
448,192,396963,1,0,0:0:0:0:
448,192,397269,1,0,0:0:0:0:
192,192,397575,1,0,0:0:0:0:
192,192,397779,1,0,0:0:0:0:
320,192,397983,1,0,0:0:0:0:
320,192,398187,1,0,0:0:0:0:
448,192,398391,1,0,0:0:0:0:
64,192,398596,1,0,0:0:0:0:
320,192,398698,1,0,0:0:0:0:
64,192,398902,1,0,0:0:0:0:
192,192,399106,1,0,0:0:0:0:
320,192,399208,1,0,0:0:0:0:
448,192,399310,1,0,0:0:0:0:
64,192,399412,1,0,0:0:0:0:
192,192,399616,1,0,0:0:0:0:
448,192,399820,1,0,0:0:0:0:
320,192,400024,1,0,0:0:0:0:
64,192,400228,1,0,0:0:0:0:
64,192,400534,1,0,0:0:0:0:
320,192,400840,1,0,0:0:0:0:
320,192,401044,1,0,0:0:0:0:
192,192,401249,1,0,0:0:0:0:
192,192,401453,1,0,0:0:0:0:
64,192,401657,1,0,0:0:0:0:
448,192,401861,1,0,0:0:0:0:
192,192,401963,1,0,0:0:0:0:
448,192,402167,1,0,0:0:0:0:
320,192,402371,1,0,0:0:0:0:
192,192,402473,1,0,0:0:0:0:
64,192,402575,1,0,0:0:0:0:
448,192,402677,1,0,0:0:0:0:
