osu file format v14

[General]
AudioFilename: audio.mp3
AudioLeadIn: 0
PreviewTime: -1
Countdown: 1
SampleSet: None
StackLeniency: 0.3
Mode: 0
LetterboxInBreaks: 0
WidescreenStoryboard: 0

[Editor]
Bookmarks: 13546,38644,51193,76291,88840,95114
DistanceSpacing: 0.4
BeatDivisor: 4
GridSize: 4
TimelineZoom: 1.7

[Metadata]
Title:ACCELERATE
TitleUnicode:ACCELERATE
Artist:Sota Fujimori
ArtistUnicode:Sota Fujimori
Creator:nika mika
Version:Extra
Source:
Tags:pdc pdc2018 Pending Cup 2018
BeatmapID:1782036
BeatmapSetID:852590

[Difficulty]
HPDrainRate:5
CircleSize:5
OverallDifficulty:8
ApproachRate:9.3
SliderMultiplier:2
SliderTickRate:1

[Events]
//Background and Video events
0,0,"70700286_p0_master1200.jpg",0,0
//Break Periods
//Storyboard Layer 0 (Background)
//Storyboard Layer 1 (Fail)
//Storyboard Layer 2 (Pass)
//Storyboard Layer 3 (Foreground)
//Storyboard Sound Samples

[TimingPoints]
997,392.156862745098,4,1,0,100,1,0
997,-125,4,2,1,100,0,0
1585,-166.666666666667,4,2,1,100,0,0
2761,-125,4,2,1,100,0,0
3349,-83.3333333333333,4,2,1,100,0,0
5506,-166.666666666667,4,2,1,100,0,0
6095,-100,4,2,1,100,0,0
6487,-71.4285714285715,4,2,1,100,0,0
7271,-125,4,2,1,100,0,0
8644,-166.666666666667,4,2,1,100,0,0
9036,-125,4,2,1,100,0,0
9624,-100,4,2,1,100,0,0
10016,-400,4,2,1,100,0,0
10408,-83.3333333333333,4,2,1,100,0,0
11389,-125,4,2,1,100,0,0
11977,-71.4285714285714,4,2,2,100,0,0
12761,-50,4,2,2,100,0,0
13153,-100,4,2,1,100,0,0
13546,-83.3333333333333,4,2,1,100,0,0
15604,-125,4,2,1,100,0,0
16291,-62.5,4,2,1,100,0,0
16683,-83.3333333333333,4,2,1,100,0,0
17859,-62.5,4,2,1,100,0,0
18251,-125,4,2,1,100,0,0
18644,-166.666666666667,4,2,1,100,0,0
19036,-83.3333333333333,4,2,1,100,0,0
20604,-62.5,4,2,1,100,0,0
21389,-83.3333333333333,4,2,1,100,0,0
21879,-166.666666666667,4,2,1,100,0,0
22173,-83.3333333333333,4,2,1,100,0,0
22957,-125,4,2,1,100,0,0
24918,-166.666666666667,4,2,1,100,0,0
25310,-83.3333333333333,4,2,1,100,0,0
28251,-62.5,4,2,1,100,0,0
28447,-83.3333333333333,4,2,1,100,0,0
28840,-50,4,2,1,100,0,0
29036,-125,4,2,1,100,0,0
31193,-62.5,4,2,1,100,0,0
31977,-125,4,2,1,100,0,0
32369,-250,4,2,1,100,0,0
32761,-83.3333333333333,4,2,1,100,0,0
33546,-125,4,2,1,100,0,0
34330,-100,4,2,1,100,0,0
35506,-83.3333333333333,4,2,1,100,0,0
36291,-125,4,2,1,100,0,0
37075,-62.5,4,2,1,100,0,0
37467,-125,4,2,1,100,0,0
38055,-83.3333333333333,4,2,1,100,0,0
40016,-166.666666666667,4,2,1,100,0,0
40310,-83.3333333333333,4,2,1,100,0,0
42565,-166.666666666667,4,2,1,100,0,0
43742,-83.3333333333333,4,2,1,100,0,0
44428,-166.666666666667,4,2,1,100,0,0
44918,-83.3333333333333,4,2,1,100,0,0
47663,-125,4,2,1,100,0,0
48055,-83.3333333333333,4,2,1,100,0,0
49918,-125,4,2,1,100,0,0
50408,-62.5,4,2,1,100,0,0
50800,-250,4,2,1,100,0,0
51193,-83.3333333333333,4,2,1,100,0,0
54330,-166.666666666667,4,2,1,100,0,0
55114,-83.3333333333334,4,2,1,100,0,0
55506,-125,4,2,1,100,0,0
55898,-83.3333333333333,4,2,1,100,0,0
56683,-166.666666666667,4,2,1,100,0,0
57075,-83.3333333333333,4,2,1,100,0,0
57467,-125,4,2,1,100,0,0
58055,-62.5,4,2,1,100,0,0
58251,-100,4,2,1,100,0,0
60212,-125,4,2,1,100,0,0
60604,-83.3333333333333,4,2,1,100,0,0
61193,-166.666666666667,4,2,1,100,0,0
62173,-83.3333333333333,4,2,1,100,0,0
62957,-125,4,2,1,100,0,0
63349,-62.5,4,2,1,100,0,0
66193,-83.3333333333333,4,2,1,100,0,0
66879,-125,4,2,1,100,0,0
67663,-83.3333333333333,4,2,1,100,0,0
70016,-125,4,2,1,100,0,0
70604,-62.5,4,2,1,100,0,0
70800,-83.3333333333333,4,2,1,100,0,0
72761,-125,4,2,1,100,0,0
73153,-83.3333333333333,4,2,1,100,0,0
73742,-166.666666666667,4,2,1,100,0,0
74722,-83.3333333333334,4,2,1,100,0,0
75506,-125,4,2,1,100,0,0
77369,-83.3333333333333,4,2,1,100,0,0
78644,-125,4,2,1,100,0,0
78938,-83.3333333333333,4,2,1,100,0,0
80212,-125,4,2,1,100,0,0
80506,-83.3333333333333,4,2,1,100,0,0
81781,-125,4,2,1,100,0,0
83644,-83.3333333333333,4,2,1,100,0,0
84918,-125,4,2,1,100,0,0
85212,-83.3333333333333,4,2,1,100,0,0
87271,-83.3333333333333,4,2,1,60,0,0
88055,-41.6666666666667,4,2,1,80,0,0
88447,-41.6666666666667,4,2,1,100,0,0
88840,-250,4,2,1,100,0,0
89624,-166.666666666667,4,2,1,100,0,0
90408,-125,4,2,1,100,0,0
91193,-100,4,2,1,100,0,0
91977,-83.3333333333333,4,2,1,100,0,0
92761,-71.4285714285714,4,2,1,100,0,0
93153,-62.5,4,2,1,100,0,0
93546,-55.5555555555556,4,2,1,100,0,0
94134,-50,4,2,1,100,0,0
94526,-25,4,2,1,100,0,0
94722,-100,4,2,1,100,0,0
95114,-83.3333333333333,4,2,1,100,0,0
96879,-125,4,2,1,100,0,0
97173,-83.3333333333333,4,2,1,100,0,0
97467,-62.5,4,2,1,100,0,0
97859,-83.3333333333333,4,2,1,100,0,0
99428,-125,4,2,1,100,0,0
100016,-83.3333333333333,4,2,1,100,0,0
102565,-125,4,2,1,100,0,0
103742,-83.3333333333333,4,2,1,100,0,0
105702,-125,4,2,1,100,0,0
106585,-83.3333333333333,4,2,1,100,0,0
107663,-62.5,4,2,1,100,0,0
108055,-83.3333333333333,4,2,1,100,0,0
109428,-125,4,2,1,100,0,0
109722,-83.3333333333333,4,2,1,100,0,0
110016,-62.5,4,2,1,100,0,0
110408,-250,4,2,1,100,0,0
110800,-83.3333333333333,4,2,1,100,0,0
111977,-125,4,2,1,100,0,0
112565,-83.3333333333333,4,2,1,100,0,0
115114,-166.666666666667,4,2,1,100,0,0
115506,-83.3333333333333,4,2,1,100,0,0
116291,-125,4,2,1,100,0,0
116683,-62.5,4,2,1,100,0,0
117075,-250,4,2,1,100,0,0
117369,-166.666666666667,4,2,1,100,0,0
117663,-125,4,2,1,100,0,0
117957,-100,4,2,1,100,0,0
118251,-83.3333333333333,4,2,1,100,0,0
118644,-71.4285714285714,4,2,1,100,0,0
119134,-100,4,2,1,100,0,0
119428,-166.666666666667,4,2,1,100,0,0
120800,-62.5,4,2,1,100,0,0

[Colours]
Combo1 : 255,255,102
Combo2 : 228,129,131
Combo3 : 138,43,189
Combo4 : 130,164,253

[HitObjects]
129,75,997,6,0,L|208:61,1,80,2|0,0:3|0:0,0:0:0:0:
342,136,1291,2,0,L|263:122,1,80,2|0,0:3|0:0,0:0:0:0:
287,45,1585,1,2,0:3:0:0:
287,45,1977,5,0,0:0:0:0:
263,122,2173,1,0,0:0:0:0:
233,196,2369,2,0,P|228:243|250:282,1,89.9999972534181
381,247,2761,6,0,P|347:226|307:226,1,80
191,332,3055,2,0,P|151:332|117:311,1,80
63,157,3349,2,0,L|60:123,8,29.9999990844727,2|0|0|0|0|0|0|0|2,0:1|0:0|0:0|0:0|0:0|0:0|0:0|0:0|0:1,0:0:0:0:
39,254,3938,5,2,0:0:0:0:
28,268,4036,1,2,0:0:0:0:
133,226,4134,2,0,P|190:212|228:254,1,119.999996337891,2|0,0:3|0:0,0:0:0:0:
330,365,4428,2,0,L|324:305,1,59.9999981689454,2|0,0:3|0:0,0:0:0:0:
321,193,4624,1,0,0:0:0:0:
332,178,4722,5,2,0:3:0:0:
332,178,5114,1,0,0:0:0:0:
424,76,5310,1,2,0:0:0:0:
470,213,5506,2,0,B|423:210|423:210|383:177|383:177|331:176,1,149.999995422363,2|0,0:3|0:0,0:0:0:0:
332,177,6095,6,0,P|406:171|460:115,1,150,8|0,0:3|0:0,0:0:0:0:
424,76,6487,6,0,B|393:138|393:138|409:206|409:206|469:243,2,209.999993591309,2|2|2,0:1|0:1|0:1,0:0:0:0:
304,98,7271,6,0,P|265:98|231:78,1,80,2|0,0:3|0:0,0:0:0:0:
97,154,7565,2,0,P|136:154|171:135,1,80,2|0,0:3|0:0,0:0:0:0:
152,57,7859,1,2,0:3:0:0:
152,57,8251,5,0,0:0:0:0:
171,135,8447,1,0,0:0:0:0:
190,212,8644,2,0,P|228:188|273:187,1,89.9999972534181
315,318,9036,6,0,P|275:298|253:263,1,80
396,284,9330,2,0,L|384:371,1,80
352,213,9624,2,0,L|384:197,1,25,2|0,0:0|0:0,0:0:0:0:
349,189,9722,2,0,L|381:173,1,25
344,165,9820,1,0,0:0:0:0:
344,165,10016,6,0,L|373:152,1,25,2|2,0:0|0:0,0:0:0:0:
481,88,10310,1,2,0:0:0:0:
326,81,10408,6,0,P|361:33|421:34,1,119.999996337891,2|0,0:3|0:0,0:0:0:0:
258,136,10702,2,0,L|198:126,1,59.9999981689454,2|0,0:3|0:0,0:0:0:0:
129,50,10898,1,0,0:0:0:0:
136,66,10997,1,2,0:3:0:0:
41,171,11389,5,0,0:0:0:0:
136,66,11585,2,0,L|116:147,1,80,2|0,0:0|0:0,0:0:0:0:
69,249,11879,5,0,0:0:0:0:
144,221,11977,2,0,L|213:238,1,69.9999978637696,8|0,0:1|0:0,0:0:0:0:
287,294,12173,5,0,0:0:0:0:
304,290,12271,1,0,0:0:0:0:
364,220,12369,6,0,P|334:201|300:198,1,69.9999978637696,8|0,0:1|0:0,0:0:0:0:
239,365,12565,6,0,P|275:378|308:375,2,69.9999978637696,8|0|0,0:1|0:0|0:0,0:0:0:0:
239,365,12957,6,0,P|198:337|152:350,1,100,8|0,0:1|0:0,0:0:0:0:
27,314,13153,6,0,P|78:362|152:349,1,150,8|0,0:0|0:0,0:0:0:0:
226,238,13546,6,0,B|259:146|174:153|216:64,1,179.999994506836,4|0,3:2|0:0,0:0:0:0:
291,104,13938,6,0,L|350:95,1,59.9999981689454,8|0,3:2|0:0,0:0:0:0:
149,200,14134,2,0,L|90:193,1,59.9999981689454
27,121,14330,5,2,3:1:0:0:
291,104,14526,1,0,0:0:0:0:
291,104,14722,1,10,3:1:0:0:
149,200,14918,1,0,0:0:0:0:
304,277,15114,6,0,L|321:211,1,59.9999981689454,0|0,3:0|0:0,0:0:0:0:
336,300,15310,2,0,L|353:234,1,59.9999981689454
365,318,15506,1,8,3:1:0:0:
495,284,15604,2,0,P|461:264|419:268,1,80,2|0,0:0|0:0,0:0:0:0:
453,363,15898,5,2,3:2:0:0:
451,354,15997,1,2,0:3:0:0:
448,343,16095,1,2,0:0:0:0:
446,334,16193,1,2,0:3:0:0:
404,195,16291,6,0,B|422:114|422:114|479:179,1,160,8|0,0:0|0:0,0:0:0:0:
316,128,16683,5,0,3:0:0:0:
510,72,16879,1,2,0:3:0:0:
404,195,17075,2,0,L|371:191,4,29.9999990844727,8|0|0|0|0,3:1|0:0|0:0|0:0|0:0,0:0:0:0:
470,244,17369,1,2,0:0:0:0:
488,220,17467,6,0,P|492:161|453:118,1,119.999996337891,2|0,3:1|0:0,0:0:0:0:
351,344,17859,2,0,B|297:309|297:309|390:277,1,160,10|0,3:1|0:0,0:0:0:0:
496,355,18251,6,0,L|456:346,1,40,8|0,3:0|0:0,0:0:0:0:
320,221,18447,1,0,0:3:0:0:
320,221,18644,6,0,P|316:178|356:150,1,89.9999972534181,8|0,0:0|0:0,0:0:0:0:
448,123,19036,6,0,L|510:113,1,59.9999981689454,0|0,3:0|0:0,0:0:0:0:
370,56,19232,2,0,L|306:46,1,59.9999981689454,2|0,0:3|0:0,0:0:0:0:
464,24,19428,1,8,3:1:0:0:
349,150,19624,1,0,3:0:0:0:
204,105,19820,6,0,L|81:95,1,119.999996337891,0|0,3:0|0:0,0:0:0:0:
319,0,20212,1,10,0:0:0:0:
324,13,20310,1,2,0:3:0:0:
329,25,20408,1,0,0:0:0:0:
267,172,20604,6,0,P|252:245|303:306,1,160,2|0,3:1|0:0,0:0:0:0:
152,180,20997,1,10,3:1:0:0:
361,217,21193,1,0,3:0:0:0:
197,324,21389,6,0,P|165:320|142:337,1,59.9999981689454,2|0,0:3|0:0,0:0:0:0:
7,360,21585,2,0,P|31:375|60:371,1,59.9999981689454,2|0,0:3|0:0,0:0:0:0:
68,201,21781,1,8,3:2:0:0:
89,224,21879,2,0,L|80:284,1,59.9999981689454,8|0,0:3|0:0,0:0:0:0:
60,141,22173,6,0,L|67:200,1,59.9999981689454,8|0,0:3|0:0,0:0:0:0:
80,283,22369,2,0,L|89:223,1,59.9999981689454,8|0,0:3|0:0,0:0:0:0:
220,286,22565,1,10,0:1:0:0:
0,205,22761,1,8,0:3:0:0:
159,119,22957,6,0,P|194:102|234:104,1,80,0|0,3:0|3:0,0:0:0:0:
350,201,23349,2,0,L|346:233,6,20,2|0|0|0|0|0|0,0:3|0:0|0:0|0:0|0:0|0:0|0:0,0:0:0:0:
498,151,23742,5,2,0:1:0:0:
214,192,24036,1,2,0:1:0:0:
388,47,24330,1,2,0:1:0:0:
378,208,24526,6,0,L|371:251,2,40,2|0|0,3:0|0:0|0:0,0:0:0:0:
305,305,24918,6,0,B|262:288|262:288|219:294,1,89.9999972534181,8|0,0:0|0:0,0:0:0:0:
372,248,25310,6,0,L|435:245,1,59.9999981689454,0|0,3:0|0:0,0:0:0:0:
163,358,25506,2,0,L|104:363,1,59.9999981689454,0|0,3:0|0:0,0:0:0:0:
296,222,25702,1,4,3:2:0:0:
247,372,25898,1,2,0:3:0:0:
180,130,26095,6,0,B|202:3|202:3|227:47,1,179.999994506836,0|0,3:0|0:0,0:0:0:0:
352,168,26487,2,0,P|327:151|297:146,1,59.9999981689454,10|0,0:0|0:0,0:0:0:0:
181,204,26683,2,0,P|210:199|235:182,1,59.9999981689454,0|2,0:0|0:0,0:0:0:0:
349,89,26879,5,0,3:0:0:0:
238,263,27075,1,2,0:1:0:0:
238,263,27271,1,8,3:1:0:0:
113,173,27467,1,2,0:1:0:0:
160,282,27663,6,0,L|149:345,1,59.9999981689454,2|0,0:2|0:0,0:0:0:0:
25,329,27859,2,0,P|49:311|78:310,1,59.9999981689454,2|0,0:3|0:0,0:0:0:0:
224,356,28055,5,2,0:0:0:0:
247,352,28153,1,2,0:3:0:0:
333,338,28251,2,0,P|354:302|344:268,1,80,2|0,0:3|0:0,0:0:0:0:
256,198,28447,6,0,B|221:170|221:170|296:157,1,119.999996337891,2|0,3:0|0:0,0:0:0:0:
473,188,28742,1,2,0:3:0:0:
494,201,28840,6,0,B|504:252|504:252|481:302,1,100,8|0,3:1|0:0,0:0:0:0:
386,209,29036,6,0,L|400:130,1,80,0|0,3:0|0:0,0:0:0:0:
495,71,29428,1,0,3:0:0:0:
295,157,29624,1,8,0:0:0:0:
325,53,29820,1,0,0:0:0:0:
342,63,29918,1,2,0:0:0:0:
361,74,30016,5,2,3:1:0:0:
202,120,30212,1,0,0:0:0:0:
325,53,30408,1,10,3:1:0:0:
98,15,30604,1,0,0:0:0:0:
219,212,30800,6,0,L|208:298,1,80,8|8,0:3|0:3,0:0:0:0:
99,351,31193,2,2,P|196:347|136:270,1,240,0|0,0:0|0:0,0:1:0:0:
50,286,31585,5,8,0:3:0:0:
288,341,31781,1,8,0:3:0:0:
361,290,31977,2,0,P|363:251|345:216,1,80,2|0,0:0|0:0,0:0:0:0:
250,169,32271,1,2,0:0:0:0:
328,68,32369,6,0,L|331:113,1,40,0|0,3:0|0:0,0:0:0:0:
257,271,32761,1,8,3:1:0:0:
257,271,32957,2,0,P|229:259|199:258,1,59.9999981689454,2|0,0:3|0:0,0:0:0:0:
85,363,33153,1,0,3:0:0:0:
102,369,33251,1,2,0:0:0:0:
208,337,33349,1,2,0:3:0:0:
208,337,33546,6,0,P|159:331|99:376,1,120,8|0,3:1|0:0,0:0:0:0:
40,288,33938,5,0,0:0:0:0:
48,248,34036,1,0,0:0:0:0:
57,209,34134,1,0,0:0:0:0:
66,170,34232,1,0,0:0:0:0:
133,228,34330,5,8,0:3:0:0:
66,170,34526,6,0,L|79:114,1,50,8|0,0:3|0:0,0:0:0:0:
255,187,34722,2,0,P|213:235|130:226,1,150,2|0,3:3|0:0,0:0:0:0:
94,41,35114,5,8,0:0:0:0:
204,112,35506,6,0,B|264:99|264:99|319:123|319:123|377:107,1,179.999994506836,2|0,3:1|0:0,0:0:0:0:
327,31,35898,1,8,3:1:0:0:
255,187,36095,2,0,L|262:246,1,59.9999981689454,0|2,0:0|0:0,0:0:0:0:
338,301,36291,5,10,0:3:0:0:
338,301,36487,1,10,0:3:0:0:
400,137,36683,1,10,3:1:0:0:
490,183,36879,1,10,0:3:0:0:
421,341,37075,6,0,P|418:302|439:269,1,80,2|0,0:3|0:0,0:0:0:0:
505,327,37271,1,0,0:0:0:0:
295,373,37467,2,0,P|244:342|185:348,1,120,8|0,3:1|0:0,0:0:0:0:
100,361,37859,5,8,0:3:0:0:
100,361,38055,2,0,L|111:302,1,59.9999981689454,8|0,0:3|0:0,0:0:0:0:
62,166,38251,2,0,B|24:218|24:218|30:275,1,119.999996337891,8|0,0:0|0:0,0:0:0:0:
152,204,38546,1,2,0:0:0:0:
141,104,38644,5,2,0:0:0:0:
167,37,38840,1,2,0:0:0:0:
244,168,39036,1,2,0:3:0:0:
270,101,39134,1,2,0:3:0:0:
390,65,39330,1,2,0:3:0:0:
390,65,39624,6,0,L|454:49,1,59.9999981689454
420,200,39820,1,0,0:0:0:0:
420,200,40016,2,0,L|360:186,1,59.9999981689454,2|2,0:3|0:0,0:0:0:0:
282,234,40310,5,0,0:0:0:0:
274,269,40408,1,0,0:0:0:0:
309,261,40506,1,0,0:0:0:0:
205,313,40604,5,2,0:0:0:0:
135,295,40702,1,0,0:0:0:0:
117,364,40800,1,0,0:0:0:0:
187,382,40898,1,2,0:0:0:0:
282,348,40997,6,0,L|316:352,4,29.9999990844727,2|0|0|0|2,0:0|0:0|0:0|0:0|0:0,0:0:0:0:
481,310,41389,1,8,0:0:0:0:
484,327,41487,1,0,0:0:0:0:
488,344,41585,1,0,0:0:0:0:
492,361,41683,1,0,0:0:0:0:
411,283,41781,5,2,0:0:0:0:
469,238,41977,1,2,0:0:0:0:
278,235,42173,1,2,0:3:0:0:
336,190,42271,1,2,0:3:0:0:
310,60,42467,1,2,0:3:0:0:
442,103,42761,5,8,0:3:0:0:
278,235,42957,2,0,L|219:221,2,59.9999981689454,2|2|2,0:1|0:1|0:0,0:0:0:0:
158,285,43447,5,0,0:3:0:0:
164,320,43546,1,8,0:3:0:0:
170,355,43644,1,0,0:3:0:0:
67,331,43742,5,2,0:0:0:0:
89,262,43840,1,0,0:0:0:0:
158,285,43938,1,0,0:3:0:0:
137,355,44036,1,0,0:0:0:0:
15,275,44134,6,0,P|12:243|24:216,1,59.9999981689454,2|0,0:0|0:0,0:0:0:0:
171,146,44330,1,8,0:3:0:0:
185,167,44428,2,0,B|95:180,1,89.9999972534181,2|8,0:0|0:3,0:0:0:0:
39,34,44918,5,2,0:0:0:0:
109,19,45114,1,2,0:0:0:0:
227,97,45310,1,2,0:3:0:0:
296,80,45408,1,2,0:3:0:0:
428,153,45604,1,2,0:3:0:0:
428,153,45898,5,2,0:1:0:0:
494,90,45997,1,2,0:1:0:0:
511,178,46095,1,2,0:1:0:0:
323,186,46193,6,0,P|368:150|433:155,1,119.999996337891,2|0,0:1|0:0,0:0:0:0:
499,283,46487,6,0,L|489:349,1,59.9999981689454,0|0,3:0|0:0,0:0:0:0:
323,186,46683,5,0,3:0:0:0:
316,163,47075,6,0,B|339:112|339:112|362:236,1,179.999994506836,0|0,3:0|0:0,0:0:0:0:
293,280,47467,2,0,L|287:314,3,29.9999990844727
334,352,47663,2,0,P|278:320|225:327,1,120,8|0,0:0|0:0,0:0:0:0:
104,346,48055,5,2,0:0:0:0:
34,327,48251,1,2,0:0:0:0:
220,257,48447,1,2,0:3:0:0:
150,238,48546,1,2,0:3:0:0:
95,105,48742,1,2,0:3:0:0:
70,122,48840,6,0,L|65:152,6,29.9999990844727,2|0|0|0|0|0|0,0:3|0:0|0:0|0:0|0:0|0:0|0:0,0:0:0:0:
183,57,49232,1,8,0:3:0:0:
188,80,49330,1,0,0:0:0:0:
192,103,49428,1,2,0:3:0:0:
197,126,49526,1,0,0:0:0:0:
265,173,49624,5,4,0:0:0:0:
335,157,49722,1,2,0:3:0:0:
387,206,49820,1,2,0:3:0:0:
305,298,49918,6,0,P|301:263|318:220,1,80,2|0,0:1|0:0,0:0:0:0:
432,320,50212,2,0,L|384:326,1,40,8|0,0:3|0:0,0:0:0:0:
186,382,50408,6,0,B|241:367|241:367|296:388|296:388|339:379,1,160,2|0,0:3|0:0,0:0:0:0:
305,298,50702,1,2,0:0:0:0:
167,210,50800,6,0,L|173:274,1,60,12|0,0:0|0:0,0:0:0:0:
313,142,51193,5,2,0:0:0:0:
118,92,51389,1,2,0:1:0:0:
327,139,51585,5,2,0:0:0:0:
167,210,51781,1,0,0:1:0:0:
340,137,51977,5,2,0:0:0:0:
167,210,52173,1,2,0:3:0:0:
350,135,52271,1,2,0:3:0:0:
363,133,52565,5,2,0:3:0:0:
440,302,52762,5,2,0:0:0:0:
363,133,52957,1,2,0:1:0:0:
436,315,53154,5,2,0:0:0:0:
503,177,53349,1,0,0:0:0:0:
432,328,53546,5,2,0:0:0:0:
503,177,53644,2,0,L|513:243,1,59.9999981689454,2|2,0:0|0:3,0:0:0:0:
430,338,53840,5,2,0:3:0:0:
426,350,54134,5,2,0:3:0:0:
280,275,54330,6,0,P|318:248|364:247,1,89.9999972534181,2|0,0:0|0:0,0:0:0:0:
341,326,54722,1,8,3:1:0:0:
193,279,54918,5,2,0:0:0:0:
198,289,55016,1,2,0:0:0:0:
192,358,55114,2,0,L|204:295,1,59.9999981689454,8|0,0:3|0:0,0:0:0:0:
126,184,55310,1,2,0:1:0:0:
49,347,55506,2,0,P|83:322|121:320,1,80,10|0,0:0|0:0,0:0:0:0:
425,291,55898,6,0,L|362:281,1,59.9999981689454,0|0,3:0|0:0,0:0:0:0:
414,258,56095,2,0,L|351:248,1,59.9999981689454,0|0,3:0|0:0,0:0:0:0:
242,198,56291,1,10,0:0:0:0:
404,224,56487,2,0,L|341:214,1,59.9999981689454,2|2,0:3|0:3,0:0:0:0:
242,198,56683,6,0,L|179:188,1,59.9999981689454,2|0,0:0|0:0,0:0:0:0:
82,171,56977,1,0,0:0:0:0:
15,119,57075,2,0,P|61:86|128:97,1,119.999996337891,10|0,0:0|0:0,0:0:0:0:
197,263,57467,6,0,L|184:345,1,80,0|0,3:0|0:0,0:0:0:0:
7,200,57859,1,10,0:0:0:0:
7,200,58055,2,0,B|44:217|44:217|83:213,1,80
189,114,58251,6,0,L|139:105,1,50,2|0,0:0|0:0,0:0:0:0:
194,124,58447,2,0,L|144:115,1,50,2|0,0:0|0:0,0:0:0:0:
67,52,58644,1,8,3:1:0:0:
199,134,58840,2,0,L|149:125,1,50,2|0,0:0|0:0,0:0:0:0:
283,61,59036,5,2,0:0:0:0:
300,171,59232,1,2,0:0:0:0:
283,61,59330,1,2,0:0:0:0:
283,61,59624,1,2,0:0:0:0:
283,61,59820,1,2,0:0:0:0:
283,61,60016,1,2,0:0:0:0:
211,236,60212,2,0,P|265:236|244:290,1,120,8|0,0:0|0:0,0:0:0:0:
138,343,60604,6,0,L|200:335,1,59.9999981689454,0|0,3:0|0:0,0:0:0:0:
328,350,60800,2,0,L|269:358,1,59.9999981689454,0|0,3:0|0:0,0:0:0:0:
126,333,61193,2,0,L|188:325,1,59.9999981689454,0|0,3:0|0:0,0:0:0:0:
344,363,61585,2,0,L|284:370,1,59.9999981689454,0|2,3:0|0:1,0:0:0:0:
172,187,61977,1,0,3:0:0:0:
383,247,62173,6,0,B|430:257|430:257|406:186,1,119.999996337891,8|0,0:0|0:0,0:0:0:0:
321,95,62467,1,2,0:0:0:0:
279,214,62565,1,2,0:0:0:0:
279,214,62761,1,2,0:0:0:0:
276,230,62859,1,0,0:0:0:0:
383,247,62957,6,0,B|430:257|430:257|406:186,1,119.999996337891,8|0,0:0|0:0,0:0:0:0:
321,95,63349,2,0,B|303:51|303:51|367:79|445:86|445:86|403:113,1,240,8|0,0:0|0:0,0:0:0:0:
250,153,63742,5,2,0:0:0:0:
47,74,63938,1,2,0:3:0:0:
248,167,64134,5,2,0:0:0:0:
163,56,64330,1,0,0:0:0:0:
245,180,64526,5,2,0:0:0:0:
163,56,64722,1,2,0:3:0:0:
244,190,64820,1,2,0:1:0:0:
242,203,65114,5,2,0:3:0:0:
142,348,65310,5,2,0:0:0:0:
242,203,65506,1,2,0:1:0:0:
128,351,65702,5,2,0:0:0:0:
317,291,65898,1,0,0:0:0:0:
115,353,66094,5,2,0:0:0:0:
317,291,66193,2,0,L|309:353,1,59.9999981689454,2|2,0:0|0:3,0:0:0:0:
105,355,66389,5,2,0:1:0:0:
92,357,66682,5,2,0:3:0:0:
397,323,66879,2,0,P|432:306|472:307,1,80,2|0,0:0|0:0,0:0:0:0:
317,291,67271,2,0,L|329:212,1,80,2|0,0:0|0:0,0:0:0:0:
421,95,67565,1,2,0:0:0:0:
469,148,67663,6,0,P|443:164|412:167,1,59.9999981689454,2|0,0:0|0:0,0:0:0:0:
304,74,67859,2,0,P|329:57|358:54,1,59.9999981689454,2|0,0:0|0:0,0:0:0:0:
244,162,68055,1,8,0:0:0:0:
177,73,68251,1,2,0:3:0:0:
353,126,68447,5,0,3:0:0:0:
353,126,68644,1,0,3:0:0:0:
353,126,68840,1,2,0:1:0:0:
244,162,68938,1,2,0:1:0:0:
177,73,69036,1,2,0:1:0:0:
177,73,69232,5,0,3:0:0:0:
180,96,69330,1,0,0:0:0:0:
183,119,69428,1,0,0:0:0:0:
186,142,69526,1,0,3:0:0:0:
244,162,69624,5,0,3:0:0:0:
241,185,69722,1,0,0:0:0:0:
238,208,69820,1,0,3:0:0:0:
235,231,69918,1,0,0:0:0:0:
205,296,70016,6,0,P|244:301|279:284,1,80,8|0,3:0|0:0,0:0:0:0:
439,180,70408,1,8,0:0:0:0:
439,180,70604,2,0,L|446:262,1,80
353,126,70800,6,0,L|360:67,1,59.9999981689454,2|0,0:0|0:0,0:0:0:0:
333,134,70996,2,0,L|340:75,1,59.9999981689454,2|0,0:0|0:0,0:0:0:0:
438,26,71193,1,10,0:0:0:0:
313,142,71389,2,0,L|320:83,1,59.9999981689454,2|0,0:0|0:0,0:0:0:0:
364,236,71585,5,2,0:0:0:0:
512,185,71781,1,2,0:0:0:0:
364,236,71879,1,2,0:0:0:0:
364,236,72173,1,2,0:0:0:0:
364,236,72369,1,2,0:0:0:0:
364,236,72565,1,2,0:0:0:0:
235,329,72761,2,0,B|199:310|199:310|279:294,1,120,10|0,0:0|0:0,0:0:0:0:
367,344,73153,6,0,L|438:350,1,59.9999981689454,0|0,3:0|0:0,0:0:0:0:
268,198,73349,2,0,L|208:203,1,59.9999981689454,0|0,3:0|0:0,0:0:0:0:
378,357,73742,2,0,L|449:363,1,59.9999981689454,0|0,3:0|0:0,0:0:0:0:
254,181,74134,2,0,L|194:186,1,59.9999981689454,0|2,3:0|0:1,0:0:0:0:
12,281,74526,1,0,3:0:0:0:
132,106,74722,6,0,B|134:46|134:46|103:98,1,119.999996337891,8|0,3:1|0:0,0:0:0:0:
45,30,75016,1,2,0:0:0:0:
222,78,75114,1,2,0:0:0:0:
88,198,75310,1,2,0:0:0:0:
91,211,75408,1,0,0:0:0:0:
103,98,75506,6,0,B|134:46|134:46|132:106,1,119.999996337891,8|0,3:1|0:0,0:0:0:0:
155,320,75898,1,2,0:0:0:0:
155,320,76291,5,2,0:0:0:0:
178,317,76389,1,0,0:0:0:0:
201,314,76487,1,2,0:0:0:0:
224,311,76585,1,2,0:0:0:0:
266,326,76683,5,8,0:0:0:0:
194,316,76781,1,0,0:0:0:0:
122,304,76879,1,0,0:0:0:0:
183,147,77075,6,0,L|199:230,1,80,2|0,0:0|0:0,0:0:0:0:
184,248,77369,2,0,L|201:119,1,119.999996337891,2|0,0:0|0:0,0:0:0:0:
212,33,77663,1,8,0:3:0:0:
407,122,77859,5,2,0:0:0:0:
403,98,77957,1,0,0:0:0:0:
399,74,78055,1,2,0:0:0:0:
395,50,78153,1,2,0:0:0:0:
412,16,78251,5,8,0:0:0:0:
402,87,78349,1,0,0:0:0:0:
391,158,78447,1,0,0:0:0:0:
339,298,78644,6,0,L|423:282,1,80,2|0,0:0|0:0,0:0:0:0:
440,298,78938,2,0,L|311:285,1,119.999996337891,2|0,0:0|0:0,0:0:0:0:
225,273,79232,1,8,0:3:0:0:
225,273,79330,1,8,0:3:0:0:
147,286,79428,5,2,0:0:0:0:
153,262,79526,1,0,0:0:0:0:
160,239,79624,1,2,0:0:0:0:
166,216,79722,1,2,0:0:0:0:
146,181,79820,5,8,0:0:0:0:
157,251,79918,1,0,0:0:0:0:
168,321,80016,1,0,0:0:0:0:
347,187,80212,6,0,L|264:176,1,80,2|0,0:0|0:0,0:0:0:0:
246,193,80506,2,0,L|382:175,1,119.999996337891,2|0,0:0|0:0,0:0:0:0:
460,165,80800,1,8,0:3:0:0:
325,59,80996,5,2,0:0:0:0:
349,61,81095,1,0,0:0:0:0:
372,64,81193,1,2,0:0:0:0:
395,67,81291,1,2,0:0:0:0:
431,49,81389,5,8,0:0:0:0:
360,63,81487,1,0,0:0:0:0:
289,79,81585,1,0,0:0:0:0:
100,42,81781,6,0,L|116:128,1,80,2|0,0:0|0:0,0:0:0:0:
193,143,82075,1,2,0:0:0:0:
174,65,82173,5,8,0:0:0:0:
43,252,82369,1,2,0:0:0:0:
183,333,82565,5,2,0:0:0:0:
202,318,82663,1,0,0:0:0:0:
212,296,82761,1,2,0:0:0:0:
209,272,82859,1,2,0:0:0:0:
113,345,82957,5,8,0:0:0:0:
183,333,83055,1,0,0:0:0:0:
254,324,83153,1,2,0:0:0:0:
435,244,83349,6,0,P|389:243|356:227,1,80,2|0,0:0|0:0,0:3:0:0:
457,179,83644,6,0,L|473:304,1,119.999996337891,2|0,0:0|0:0,0:0:0:0:
365,96,83938,1,2,0:3:0:0:
365,96,84036,1,2,0:3:0:0:
316,149,84134,5,2,0:0:0:0:
297,130,84232,1,0,0:0:0:0:
289,107,84330,1,2,0:0:0:0:
289,83,84428,1,2,0:0:0:0:
387,165,84526,5,8,0:0:0:0:
316,149,84624,1,0,0:0:0:0:
244,137,84722,1,2,0:0:0:0:
85,218,84918,6,0,P|125:220|160:201,1,80,2|0,0:0|0:0,0:0:0:0:
42,164,85212,6,0,L|61:284,1,119.999996337891,2|0,0:0|0:0,0:0:0:0:
132,80,85506,1,2,0:3:0:0:
132,80,85604,1,2,0:3:0:0:
205,123,85702,5,4,3:2:0:0:
256,192,85800,12,0,86879,0:0:0:0:
184,190,87271,6,0,L|121:202,7,59.9999981689454,0|0|0|0|0|0|0|0,3:0|3:0|3:0|3:0|3:0|3:0|3:0|3:0,3:0:0:0:
303,239,88055,6,0,L|237:250,6,59.9999981689454,0|0|0|0|0|0|0,3:0|3:0|3:0|3:0|3:0|3:0|3:0,3:0:0:0:
277,110,88447,5,8,3:1:0:0:
423,350,88840,5,8,3:0:0:0:
412,272,89036,1,0,0:0:0:0:
488,303,89232,2,2,L|492:317,6,10
379,105,89624,5,8,3:1:0:0:
465,144,89820,1,0,0:0:0:0:
509,60,90016,2,2,L|510:81,2,14.9999995422363
423,21,90212,2,2,L|424:42,2,14.9999995422363
180,94,90408,5,8,3:0:0:0:
50,130,90604,1,0,0:0:0:0:
82,0,90800,2,0,B|99:41|99:41|75:119,1,120,10|0,0:0|0:0,0:0:0:0:
24,290,91193,6,0,L|56:284,1,25,2|0,0:0|0:0,0:0:0:0:
110,320,91291,2,0,L|140:313,1,25,2|0,0:0|0:0,0:0:0:0:
185,263,91389,1,2,0:0:0:0:
9,198,91585,1,8,3:1:0:0:
41,373,91781,1,0,0:0:0:0:
301,293,91977,5,8,3:0:0:0:
402,66,92173,1,0,0:0:0:0:
233,134,92369,2,0,L|292:120,1,59.9999981689454,2|0,0:1|0:0,0:0:0:0:
469,224,92565,2,0,L|407:209,1,59.9999981689454,2|0,0:1|0:0,0:0:0:0:
177,42,92761,6,0,L|167:82,6,34.9999989318848,2|2|2|2|2|2|2,0:1|0:0|0:0|0:0|0:0|0:0|0:0,0:0:0:0:
121,195,93153,6,0,P|117:151|88:120,1,80,2|0,0:1|0:0,0:0:0:0:
0,276,93349,2,0,L|80:263,1,80,2|0,0:1|0:0,0:0:0:0:
270,211,93546,6,0,B|332:221|332:221|298:231,1,89.9999972534181,2|0,0:1|0:0,0:0:0:0:
73,21,93742,1,8,3:0:0:0:
416,61,93938,1,8,3:0:0:0:
416,61,94134,6,0,B|446:48|446:48|381:33,1,100,2|0,0:1|0:0,0:0:0:0:
193,104,94330,5,10,3:1:0:0:
314,136,94428,1,2,0:1:0:0:
416,61,94526,2,0,B|407:150|407:150|416:151|416:151|407:150|407:150|398:244,1,200,2|0,3:1|0:0,0:0:0:0:
269,350,94722,6,0,P|278:291|334:334,1,150,8|0,0:0|0:0,0:0:0:0:
101,332,95114,6,0,B|81:319|81:319|41:324,1,59.9999981689454,8|0,3:0|0:0,0:0:0:0:
137,260,95310,2,0,B|157:273|157:273|197:268,1,59.9999981689454,0|2,0:0|0:0,0:0:0:0:
67,215,95506,5,8,3:1:0:0:
43,219,95604,1,0,0:0:0:0:
24,234,95702,1,2,0:0:0:0:
15,256,95800,1,0,0:0:0:0:
15,256,96095,5,2,0:0:0:0:
78,221,96193,1,0,0:0:0:0:
108,155,96291,1,8,3:1:0:0:
95,84,96389,1,0,0:0:0:0:
45,31,96487,2,0,B|24:42|24:42|13:85,1,59.9999981689454,2|0,0:0|0:0,0:0:0:0:
167,111,96683,6,0,P|198:108|226:92,1,59.9999981689454,0|0,3:0|0:0,0:0:0:0:
318,26,96879,6,0,L|325:108,1,80,2|0,0:3|3:0,0:0:0:0:
461,142,97173,2,0,P|455:89|407:113,1,119.999996337891,2|0,0:3|0:0,0:0:0:0:
322,227,97467,2,0,B|291:187|291:187|403:201,2,160,2|2|8,0:3|0:0|3:1,0:0:0:0:
445,280,97957,5,0,0:0:0:0:
436,302,98055,1,0,0:0:0:0:
430,325,98153,1,0,0:0:0:0:
311,347,98251,6,0,B|293:355|293:355|250:349,1,59.9999981689454,10|0,3:0|0:0,0:0:0:0:
102,292,98447,1,2,0:0:0:0:
81,304,98546,1,2,0:0:0:0:
175,318,98644,6,0,L|167:255,1,59.9999981689454,8|0,3:1|0:0,0:0:0:0:
246,140,98840,2,0,L|238:208,1,59.9999981689454,2|0,0:0|0:0,0:0:0:0:
155,169,99036,5,8,3:0:0:0:
173,79,99134,1,0,0:3:0:0:
246,140,99232,1,2,0:0:0:0:
33,109,99428,6,0,P|28:69|43:34,1,80,8|0,3:1|0:0,0:0:0:0:
294,62,99820,1,2,3:2:0:0:
395,80,100016,6,0,B|381:146|381:146|401:194|401:194|390:257,2,179.999994506836,2|2|8,0:1|0:1|3:0,0:0:0:0:
512,135,100702,1,0,0:0:0:0:
488,138,100800,1,0,0:0:0:0:
464,141,100898,1,0,0:0:0:0:
319,202,100996,6,0,L|257:192,1,59.9999981689454,8|0,3:0|0:0,0:0:0:0:
144,143,101193,2,0,L|203:128,1,59.9999981689454,8|0,3:0|0:0,0:0:0:0:
295,281,101389,5,8,3:3:0:0:
289,304,101487,1,0,0:0:0:0:
284,327,101585,1,0,0:0:0:0:
279,350,101683,1,2,0:0:0:0:
355,334,101781,5,8,3:1:0:0:
289,304,101879,1,0,0:0:0:0:
217,310,101977,1,2,0:0:0:0:
158,352,102075,1,0,0:0:0:0:
65,335,102173,6,0,P|66:301|77:276,1,59.9999981689454,8|0,3:0|0:0,0:0:0:0:
125,162,102369,2,0,P|137:192|133:227,1,59.9999981689454,2|0,0:0|0:0,0:0:0:0:
62,204,102565,6,0,L|23:195,1,40,8|0,3:1|0:0,0:0:0:0:
185,115,102761,2,0,L|224:106,1,40
331,156,102957,5,8,3:0:0:0:
362,148,103055,1,0,0:0:0:0:
426,166,103153,1,2,0:0:0:0:
457,160,103251,1,2,0:0:0:0:
490,86,103349,5,8,3:1:0:0:
431,27,103447,6,0,B|406:59|406:59|409:98,1,80,2|0,0:0|0:0,0:0:0:0:
459,279,103742,2,0,B|428:237|428:237|413:370,1,179.999994506836,10|0,3:0|0:0,0:0:0:0:
334,347,104134,2,0,B|416:281|421:387|500:336,1,179.999994506836,10|0,0:0|0:0,0:0:0:0:
352,233,104526,6,0,B|336:228|336:228|291:239,1,59.9999981689454,8|0,3:0|0:0,0:0:0:0:
192,274,104722,1,0,0:0:0:0:
168,271,104820,1,2,0:0:0:0:
118,218,104918,6,0,P|146:203|176:201,1,59.9999981689454,8|0,3:1|0:0,0:0:0:0:
290,165,105114,2,0,P|260:162|234:147,1,59.9999981689454,2|0,0:0|0:0,0:0:0:0:
118,63,105310,5,8,3:0:0:0:
200,81,105408,1,0,0:0:0:0:
269,30,105506,1,2,0:0:0:0:
38,45,105702,6,0,P|39:93|55:119,1,80,8|8,3:1|3:0,0:0:0:0:
235,252,106095,2,2,L|239:277,2,20,2|2|2,3:0|0:0|0:0,0:0:0:0:
105,334,106291,6,0,L|185:328,1,80,0|0,3:0|0:0,0:0:0:0:
335,294,106585,2,0,P|288:251|225:255,1,119.999996337891,0|0,3:0|0:0,0:0:0:0:
266,368,106879,5,2,3:1:0:0:
394,232,107173,1,2,3:1:0:0:
149,52,107467,1,2,3:1:0:0:
236,67,107663,6,0,B|292:70|335:51|335:51|307:59|290:76|288:99|295:128|326:147|359:129,1,240,2|0,0:1|0:0,0:0:0:0:
419,80,108055,5,8,3:1:0:0:
440,69,108153,1,0,0:0:0:0:
464,66,108251,1,2,0:0:0:0:
487,69,108349,1,0,0:0:0:0:
487,69,108644,5,2,0:0:0:0:
423,35,108742,1,0,0:0:0:0:
352,48,108840,1,8,3:1:0:0:
302,100,108938,1,0,0:0:0:0:
302,171,109036,2,0,B|329:174|329:174|367:160,1,59.9999981689454,2|0,0:0|0:0,0:0:0:0:
281,32,109232,6,0,P|254:17|223:15,1,59.9999981689454,0|0,3:0|0:0,0:0:0:0:
150,106,109428,6,0,L|234:95,1,80,2|0,0:0|0:0,0:0:0:0:
122,89,109722,2,0,P|68:76|71:132,1,119.999996337891,2|0,0:0|0:0,0:0:0:0:
183,201,110016,2,0,B|200:244|200:244|180:317|180:317|143:342,1,160,10|0,3:3|0:0,0:0:0:0:
18,270,110408,6,0,L|78:261,1,60,8|0,1:0|0:0,0:0:0:0:
148,338,110800,6,0,L|212:347,1,59.9999981689454,8|0,3:0|0:0,0:0:0:0:
369,288,110996,1,2,0:0:0:0:
364,311,111095,1,2,0:0:0:0:
307,355,111193,6,0,P|292:326|293:300,1,59.9999981689454,8|0,3:1|0:0,0:0:0:0:
340,172,111389,2,0,P|340:201|326:227,1,59.9999981689454,2|0,0:0|0:0,0:0:0:0:
234,233,111585,5,0,3:0:0:0:
326,227,111683,1,0,0:0:0:0:
416,222,111781,1,2,0:0:0:0:
160,200,111977,6,0,P|155:239|171:282,2,80,8|2|0,3:1|0:0|0:0,0:0:0:0:
240,81,112565,6,0,B|275:109|275:109|374:95|374:95|397:66,2,179.999994506836,2|2|2,3:0|3:0|3:0,0:0:0:0:
154,39,113251,2,8,L|151:10,4,29.9999990844727,8|8|8|8|8,0:3|0:3|0:3|0:3|0:3,0:3:0:0:
80,91,113546,5,2,0:3:0:0:
75,114,113644,1,2,0:3:0:0:
70,137,113742,1,2,0:3:0:0:
65,160,113840,1,2,0:3:0:0:
39,234,113938,5,0,3:0:0:0:
74,239,114036,1,0,0:0:0:0:
105,221,114134,1,0,0:0:0:0:
157,166,114232,5,2,3:2:0:0:
186,185,114330,1,0,0:0:0:0:
222,182,114428,1,0,0:0:0:0:
276,139,114526,5,0,3:0:0:0:
294,168,114624,1,0,0:0:0:0:
328,180,114722,1,0,0:0:0:0:
394,151,114820,5,0,3:0:0:0:
463,132,114918,1,0,3:0:0:0:
444,62,115016,1,0,0:0:0:0:
371,82,115114,6,0,L|340:90,3,29.9999990844727,0|0|2|0,3:0|0:0|0:0|0:0,0:0:0:0:
463,132,115506,6,0,L|458:193,1,59.9999981689454,2|0,3:1|0:0,0:0:0:0:
389,311,115702,1,0,0:0:0:0:
389,311,115800,2,0,B|379:247|379:247|354:304,1,119.999996337891,2|0,3:1|0:0,0:0:0:0:
277,359,116095,1,2,3:1:0:0:
254,355,116193,1,0,0:0:0:0:
202,304,116291,6,0,P|239:284|278:286,1,80,10|0,0:0|0:0,0:0:0:0:
143,358,116683,2,0,B|109:318|109:318|49:335|49:335|42:379,1,160,12|0,0:0|0:0,0:0:0:0:
134,183,117075,6,0,L|151:225,1,40,4|0,3:2|0:0,0:0:0:0:
140,160,117369,6,0,L|148:222,1,59.9999981689454,4|0,3:2|0:0,0:0:0:0:
158,140,117663,6,0,L|147:220,1,80,4|0,3:2|0:0,0:0:0:0:
189,128,117957,6,0,L|139:233,1,100,4|0,3:2|0:0,0:0:0:0:
231,135,118251,6,0,L|140:223,1,119.999996337891,4|4,3:2|2:0,0:0:0:0:
275,167,118546,1,4,3:2:0:0:
144,218,118840,6,0,L|274:166,1,139.999995727539,4|0,3:2|0:0,0:0:0:0:
231,257,119134,6,0,L|275:166,1,100,4|0,3:2|0:0,0:0:0:0:
296,223,119428,5,8,0:3:0:0:
288,204,119526,1,8,0:3:0:0:
281,185,119624,1,8,0:3:0:0:
274,166,119722,1,8,0:3:0:0:
340,89,119820,6,8,L|335:112,6,14.9999995422363,8|8|8|8|8|8|8,0:3|0:3|0:3|0:3|0:3|0:3|0:3,0:3:0:0:
368,181,120212,6,0,B|401:198|401:198|388:139,1,89.9999972534181,8|2,3:0|0:3,0:0:0:0:
463,22,120702,1,2,0:3:0:0:
494,46,120800,6,8,L|487:86,3,40,8|8|8|8,0:3|0:3|0:3|0:3,0:3:0:0:
415,78,120996,6,0,P|373:74|339:91,1,80,0|0,3:0|0:0,0:0:0:0:
179,135,121193,2,0,P|214:151|254:145,1,80,2|0,3:1|0:0,0:0:0:0:
281,21,121389,1,10,3:1:0:0:
220,302,121585,1,6,3:2:0:0:
