osu file format v14

[General]
AudioFilename: audio.mp3
AudioLeadIn: 0
PreviewTime: 95065
Countdown: 0
SampleSet: Soft
StackLeniency: 0.6
Mode: 0
LetterboxInBreaks: 0
WidescreenStoryboard: 1

[Editor]
Bookmarks: 7271,13546,17908,23546,26095,36095,37663,38644,51193,57467,63742,70016,76291,82565,88840,95114,101389,107663,113938,120506,121585
DistanceSpacing: 0.6
BeatDivisor: 6
GridSize: 32
TimelineZoom: 1.7

[Metadata]
Title:ACCELERATE
TitleUnicode:ACCELERATE
Artist:Sota Fujimori
ArtistUnicode:Sota Fujimori
Creator:Chaoslitz
Version:Pho's Insane
Source:beatmania IIDX 25 CANNON BALLERS
Tags:pdc pdc2018 Pending Cup 2018 gary00737 Pho Koiyuki Minakami Yuki yf_bmp xLolicore- Elsa Valentine Skystar Amamiya Yuko nika mika my angel yayoi Ametrin
BeatmapID:2035004
BeatmapSetID:852406

[Difficulty]
HPDrainRate:5
CircleSize:4
OverallDifficulty:7
ApproachRate:8.5
SliderMultiplier:1.9
SliderTickRate:1

[Events]
//Background and Video events
0,0,"accel.jpg",0,0
//Break Periods
//Storyboard Layer 0 (Background)
//Storyboard Layer 1 (Fail)
//Storyboard Layer 2 (Pass)
//Storyboard Layer 3 (Foreground)
//Storyboard Sound Samples

[TimingPoints]
1071,392.156862745098,4,2,2,60,1,0
1953,-100,4,2,2,5,0,0
2051,-100,4,2,2,60,0,0
2247,-100,4,2,2,60,0,0
2443,-100,4,2,2,60,0,0
2835,-90.9090909090909,4,2,2,60,0,0
3129,-83.3333333333333,4,2,2,60,0,0
3423,-100,4,2,2,60,0,0
3816,-100,4,2,2,60,0,0
4208,-83.3333333333333,4,2,2,60,0,0
4796,-133.333333333333,4,2,2,60,0,0
5188,-100,4,2,2,60,0,0
5384,-100,4,2,2,60,0,0
5580,-100,4,2,2,60,0,0
5776,-100,4,2,2,60,0,0
6365,-100,4,2,2,60,0,0
6953,-100,4,2,2,60,0,0
7345,-100,4,2,2,60,0,0
8521,-100,4,2,2,60,0,0
8717,-100,4,2,2,60,0,0
8718,-100,4,2,2,60,0,0
9110,-100,4,2,2,60,0,0
9403,-90.9090909090909,4,2,2,60,0,0
9404,-83.3333333333333,4,2,2,60,0,0
9697,-100,4,2,2,60,0,0
9698,-100,4,2,2,60,0,0
9796,-100,4,2,2,60,0,0
9894,-100,4,2,2,60,0,0
10090,-100,4,2,2,60,0,0
10482,-100,4,2,2,60,0,0
11658,-100,4,2,2,60,0,0
11854,-100,4,2,2,60,0,0
11855,-100,4,2,2,60,0,0
12051,-100,4,2,3,60,0,0
13031,-100,4,2,3,60,0,0
13227,-55.5555555555556,4,2,3,70,0,0
13521,-55.5555555555556,4,2,3,5,0,0
13620,-66.6666666666667,4,2,10,80,0,0
13718,-66.6666666666667,4,2,1,80,0,0
14208,-100,4,2,2,80,0,0
14404,-100,4,2,1,80,0,0
14551,-100,4,2,1,10,0,0
14600,-66.6666666666667,4,2,1,80,0,0
15188,-83.3333333333333,4,2,1,80,0,0
15384,-100,4,2,2,80,0,0
15580,-100,4,2,1,80,0,0
15678,-100,4,2,1,80,0,0
16071,-100,4,2,2,80,0,0
16169,-100,4,2,1,80,0,0
16267,-100,4,2,2,80,0,0
16365,-100,4,2,5,80,0,0
16757,-83.3333333333333,4,2,1,80,0,0
16904,-100,4,2,1,10,0,0
16953,-100,4,2,1,80,0,0
17345,-100,4,2,2,80,0,0
17443,-100,4,2,1,80,0,0
17737,-83.3333333333333,4,2,1,80,0,0
17884,-83.3333333333333,4,2,1,10,0,0
17933,-83.3333333333333,4,2,1,80,0,0
18080,-83.3333333333333,4,2,1,10,0,0
18129,-83.3333333333333,4,2,1,80,0,0
18276,-83.3333333333333,4,2,1,10,0,0
18325,-83.3333333333333,4,2,4,80,0,0
18374,-83.3333333333333,4,2,4,10,0,0
18521,-100,4,2,4,80,0,0
18571,-100,4,2,4,10,0,0
18718,-66.6666666666667,4,2,6,80,0,0
18865,-100,4,2,1,10,0,0
18914,-100,4,2,1,80,0,0
19061,-100,4,2,1,10,0,0
19110,-100,4,2,1,80,0,0
19208,-100,4,2,2,80,0,0
19306,-100,4,2,1,80,0,0
19502,-100,4,2,1,80,0,0
19796,-100,4,2,2,80,0,0
19894,-100,4,2,1,80,0,0
20482,-100,4,2,2,80,0,0
20580,-100,4,2,1,80,0,0
20776,-100,4,2,2,80,0,0
20874,-58.8235294117647,4,2,1,80,0,0
21071,-100,4,2,1,80,0,0
21463,-100,4,2,4,80,0,0
21561,-100,4,2,2,80,0,0
21659,-100,4,2,4,80,0,0
21708,-100,4,2,1,10,0,0
21855,-100,4,2,3,80,0,0
22345,-100,4,2,2,80,0,0
22443,-100,4,2,1,80,0,0
22639,-76.9230769230769,4,2,1,80,0,0
22786,-76.9230769230769,4,2,1,10,0,0
22835,-76.9230769230769,4,2,1,80,0,0
22982,-100,4,2,1,10,0,0
23031,-100,4,2,1,80,0,0
23423,-100,4,2,1,80,0,0
23620,-100,4,2,2,80,0,0
23718,-83.3333333333333,4,2,1,80,0,0
24110,-100,4,2,1,80,0,0
24404,-100,4,2,1,80,0,0
24600,-100,4,2,1,80,0,0
24698,-100,4,2,2,80,0,0
24796,-100,4,2,4,80,0,0
24845,-100,4,2,1,10,0,0
24992,-66.6666666666667,4,2,6,80,0,0
25139,-66.6666666666667,4,2,1,10,0,0
25188,-66.6666666666667,4,2,1,80,0,0
25335,-100,4,2,1,10,0,0
25384,-100,4,2,1,80,0,0
25482,-100,4,2,2,80,0,0
25580,-100,4,2,1,80,0,0
25923,-100,4,2,1,10,0,0
25972,-100,4,2,1,80,0,0
26169,-100,4,2,10,80,0,0
26267,-100,4,2,1,80,0,0
26659,-100,4,2,2,80,0,0
26757,-100,4,2,1,80,0,0
27149,-76.9230769230769,4,2,1,80,0,0
27737,-100,4,2,1,80,0,0
28227,-100,4,2,2,80,0,0
28325,-66.6666666666667,4,2,1,80,0,0
28521,-100,4,2,1,80,0,0
28816,-100,4,2,1,80,0,0
29110,-66.6666666666667,4,2,1,80,0,0
29306,-100,4,2,1,80,0,0
29453,-100,4,2,1,10,0,0
29502,-100,4,2,1,80,0,0
29894,-100,4,2,2,80,0,0
29992,-100,4,2,1,80,0,0
30286,-71.4285714285714,4,2,1,80,0,0
30433,-100,4,2,1,10,0,0
30482,-100,4,2,1,80,0,0
30678,-100,4,2,1,80,0,0
30874,-100,4,2,4,80,0,0
30923,-100,4,2,1,10,0,0
31070,-100,4,2,4,80,0,0
31120,-100,4,2,1,10,0,0
31267,-100,4,2,6,80,0,0
31414,-100,4,2,1,10,0,0
31463,-100,4,2,1,80,0,0
31610,-100,4,2,1,10,0,0
31659,-100,4,2,1,80,0,0
31757,-100,4,2,2,80,0,0
31855,-100,4,2,1,80,0,0
32051,-100,4,2,1,80,0,0
32345,-100,4,2,2,80,0,0
32443,-100,4,2,1,80,0,0
33423,-100,4,2,1,80,0,0
33620,-66.6666666666667,4,2,1,80,0,0
33816,-100,4,2,1,80,0,0
34012,-100,4,2,1,80,0,0
34404,-100,4,2,1,80,0,0
34600,-100,4,2,2,80,0,0
34796,-100,4,2,3,80,0,0
35188,-50,4,2,1,80,0,0
35580,-100,4,2,1,80,0,0
35776,-100,4,2,2,80,0,0
35972,-100,4,2,1,80,0,0
36169,-100,4,2,2,80,0,0
36267,-100,4,2,1,80,0,0
36659,-100,4,2,2,80,0,0
36757,-100,4,2,1,80,0,0
36953,-100,4,2,1,80,0,0
37149,-100,4,2,4,80,0,0
37198,-100,4,2,4,10,0,0
37345,-100,4,2,4,80,0,0
37541,-83.3333333333333,4,2,6,80,0,0
37688,-83.3333333333333,4,2,1,10,0,0
37737,-100,4,2,1,80,0,0
37884,-100,4,2,1,10,0,0
37933,-100,4,2,1,80,0,0
38325,-100,4,2,1,80,0,0
38718,-100,4,2,1,80,0,0
38914,-100,4,2,2,80,0,0
39110,-100,4,2,1,80,0,0
39404,-100,4,2,1,80,0,0
39698,-66.6666666666667,4,2,4,80,0,0
39894,-133.333333333333,4,2,1,80,0,0
39992,-100,4,2,1,10,0,0
40090,-100,4,2,2,80,0,0
40286,-100,4,2,1,80,0,0
40972,-100,4,2,2,80,0,0
41071,-100,4,2,1,80,0,0
41267,-100,4,2,6,80,0,0
41463,-100,4,2,1,80,0,0
41855,-100,4,2,1,80,0,0
42345,-100,4,2,1,80,0,0
42541,-100,4,2,1,80,0,0
42835,-100,4,2,1,80,0,0
43227,-100,4,2,2,80,0,0
43423,-100,4,2,3,80,0,0
43521,-100,4,2,1,80,0,0
43620,-100,4,2,3,80,0,0
43718,-100,4,2,1,80,0,0
43816,-100,4,2,3,80,0,0
43914,-100,4,2,1,80,0,0
44306,-100,4,2,1,80,0,0
44502,-100,4,2,1,80,0,0
44992,-100,4,2,1,80,0,0
45188,-100,4,2,2,80,0,0
45384,-100,4,2,1,80,0,0
45678,-100,4,2,1,80,0,0
45972,-100,4,2,1,80,0,0
46267,-100,4,2,1,80,0,0
46561,-76.9230769230769,4,2,1,80,0,0
47149,-83.3333333333333,4,2,1,80,0,0
47541,-100,4,2,1,80,0,0
47737,-76.9230769230769,4,2,6,80,0,0
48129,-100,4,2,1,80,0,0
48325,-100,4,2,2,80,0,0
48423,-100,4,2,1,80,0,0
48521,-100,4,2,1,80,0,0
48816,-100,4,2,2,80,0,0
49012,-100,4,2,1,80,0,0
49110,-100,4,2,1,80,0,0
49404,-100,4,2,1,80,0,0
49698,-100,4,2,1,80,0,0
50090,-100,4,2,1,80,0,0
50286,-100,4,2,2,80,0,0
50384,-100,4,2,1,80,0,0
50482,-100,4,2,1,80,0,0
50874,-66.6666666666667,4,2,3,80,0,0
51169,-66.6666666666667,4,2,3,5,0,0
51267,-100,4,2,10,70,0,0
51463,-100,4,2,1,70,0,0
51757,-100,4,2,2,70,0,0
51855,-100,4,2,1,70,0,0
52051,-100,4,2,1,70,0,0
52639,-100,4,2,1,70,0,0
52835,-100,4,2,1,70,0,0
53031,-100,4,2,1,70,0,0
53423,-100,4,2,1,70,0,0
53718,-100,4,2,2,70,0,0
53816,-100,4,2,1,70,0,0
54012,-100,4,2,1,70,0,0
54208,-100,4,2,2,70,0,0
54404,-100,4,2,1,70,0,0
54894,-100,4,2,2,70,0,0
54992,-100,4,2,1,70,0,0
55090,-100,4,2,3,70,0,0
55188,-100,4,2,1,70,0,0
55286,-100,4,2,2,70,0,0
55384,-100,4,2,1,70,0,0
55580,-100,4,2,1,70,0,0
55776,-100,4,2,1,70,0,0
55972,-100,4,2,3,70,0,0
56169,-100,4,2,1,70,0,0
56365,-100,4,2,1,70,0,0
56757,-100,4,2,3,70,0,0
56953,-100,4,2,2,70,0,0
57149,-100,4,2,1,70,0,0
57541,-100,4,2,1,70,0,0
57933,-100,4,2,6,70,0,0
58129,-100,4,2,1,70,0,0
59110,-100,4,2,3,70,0,0
59796,-100,4,2,1,70,0,0
59894,-100,4,2,3,70,0,0
60286,-100,4,2,4,70,0,0
60580,-100,4,2,4,5,0,0
60678,-100,4,2,3,70,0,0
61070,-100,4,2,1,70,0,0
61267,-100,4,2,3,70,0,0
61463,-100,4,2,1,70,0,0
61659,-100,4,2,3,70,0,0
61855,-100,4,2,1,70,0,0
62051,-100,4,2,1,70,0,0
62247,-100,4,2,1,70,0,0
62443,-100,4,2,2,70,0,0
62541,-100,4,2,1,70,0,0
62835,-100,4,2,1,70,0,0
62933,-100,4,2,2,70,0,0
63031,-100,4,2,1,70,0,0
63423,-100,4,2,1,70,0,0
63816,-83.3333333333333,4,2,10,75,0,0
64012,-100,4,2,1,75,0,0
64306,-100,4,2,2,75,0,0
64404,-100,4,2,1,75,0,0
64600,-83.3333333333333,4,2,1,75,0,0
64894,-100,4,2,1,75,0,0
65188,-100,4,2,1,75,0,0
65580,-100,4,2,1,75,0,0
65972,-100,4,2,1,75,0,0
66267,-100,4,2,2,75,0,0
66365,-100,4,2,1,75,0,0
66561,-100,4,2,1,75,0,0
66757,-100,4,2,2,75,0,0
66953,-100,4,2,1,75,0,0
67443,-100,4,2,2,75,0,0
67541,-100,4,2,1,75,0,0
67639,-100,4,2,3,75,0,0
67737,-100,4,2,1,75,0,0
67835,-100,4,2,2,75,0,0
67933,-100,4,2,1,75,0,0
68129,-100,4,2,1,75,0,0
68325,-100,4,2,1,75,0,0
68521,-100,4,2,3,75,0,0
68718,-100,4,2,1,75,0,0
68914,-100,4,2,1,75,0,0
69306,-100,4,2,3,75,0,0
69404,-100,4,2,2,75,0,0
69502,-100,4,2,2,75,0,0
69600,-100,4,2,1,75,0,0
69698,-100,4,2,1,75,0,0
70090,-100,4,2,1,75,0,0
70482,-100,4,2,6,75,0,0
70678,-100,4,2,1,75,0,0
71659,-100,4,2,3,75,0,0
72345,-100,4,2,1,75,0,0
72443,-100,4,2,3,75,0,0
72835,-100,4,2,4,75,0,0
73129,-100,4,2,1,5,0,0
73227,-100,4,2,3,75,0,0
73619,-100,4,2,1,75,0,0
73816,-100,4,2,3,75,0,0
74012,-100,4,2,1,75,0,0
74208,-100,4,2,3,75,0,0
74404,-100,4,2,1,75,0,0
74600,-100,4,2,1,75,0,0
74796,-100,4,2,1,75,0,0
74992,-100,4,2,2,75,0,0
75090,-100,4,2,1,75,0,0
75384,-100,4,2,1,75,0,0
75482,-100,4,2,2,75,0,0
75580,-76.9230769230769,4,2,1,75,0,0
75972,-133.333333333333,4,2,10,75,0,0
76267,-133.333333333333,4,2,10,5,0,0
76365,-100,4,2,1,75,0,0
77345,-100,4,2,1,65,0,0
77639,-100,4,2,2,65,0,0
77737,-100,4,2,1,65,0,0
77933,-100,4,2,1,65,0,0
78914,-100,4,2,1,65,0,0
79208,-100,4,2,2,65,0,0
79306,-100,4,2,1,65,0,0
79502,-100,4,2,1,65,0,0
80286,-100,4,2,1,65,0,0
80580,-100,4,2,1,65,0,0
80776,-100,4,2,2,65,0,0
80874,-100,4,2,1,65,0,0
81070,-100,4,2,1,65,0,0
81855,-100,4,2,1,65,0,0
82149,-100,4,2,1,65,0,0
82345,-100,4,2,2,65,0,0
82443,-100,4,2,1,65,0,0
82639,-100,4,2,1,70,0,0
83423,-100,4,2,1,70,0,0
83816,-100,4,2,1,70,0,0
83914,-100,4,2,2,70,0,0
84012,-100,4,2,1,70,0,0
84208,-100,4,2,1,70,0,0
84992,-100,4,2,1,70,0,0
85384,-100,4,2,1,70,0,0
85482,-100,4,2,2,70,0,0
85580,-100,4,2,1,70,0,0
85776,-100,4,2,10,60,0,0
85874,-100,4,2,1,60,0,0
86561,-100,4,2,1,60,0,0
86953,-100,4,2,4,60,0,0
87051,-100,4,2,2,60,0,0
87149,-100,4,2,1,60,0,0
87345,-100,4,2,1,75,0,0
87443,-100,4,2,2,75,0,0
87737,-100,4,2,1,75,0,0
87835,-100,4,2,2,75,0,0
88129,-100,4,2,1,75,0,0
88178,-100,4,2,2,75,0,0
88521,-50,4,2,1,75,0,0
88914,-66.6666666666667,4,2,10,100,0,1
89012,-100,4,2,10,100,0,0
89110,-100,4,2,7,100,0,0
89306,-100,4,2,7,100,0,0
89698,-66.6666666666667,4,2,10,100,0,0
89845,-90.9090909090909,4,2,1,10,0,0
89894,-90.9090909090909,4,2,7,100,0,0
90041,-90.9090909090909,4,2,7,10,0,0
90090,-90.9090909090909,4,2,7,100,0,0
90237,-90.9090909090909,4,2,7,10,0,0
90286,-90.9090909090909,4,2,7,100,0,0
90433,-90.9090909090909,4,2,7,10,0,0
90482,-83.3333333333333,4,2,11,100,0,0
90678,-83.3333333333333,4,2,7,100,0,0
90874,-83.3333333333333,4,2,7,100,0,0
91021,-83.3333333333333,4,2,7,10,0,0
91070,-83.3333333333333,4,2,11,100,0,0
91218,-83.3333333333333,4,2,7,10,0,0
91267,-83.3333333333333,4,2,7,100,0,0
91316,-76.9230769230769,4,2,7,10,0,0
91365,-76.9230769230769,4,2,7,100,0,0
91414,-76.9230769230769,4,2,7,10,0,0
91463,-76.9230769230769,4,2,7,100,0,0
91659,-76.9230769230769,4,2,7,100,0,0
91806,-76.9230769230769,4,2,7,10,0,0
91855,-76.9230769230769,4,2,7,100,0,0
92002,-76.9230769230769,4,2,7,10,0,0
92051,-71.4285714285714,4,2,7,100,0,0
92198,-71.4285714285714,4,2,7,10,0,0
92247,-71.4285714285714,4,2,7,100,0,0
92394,-71.4285714285714,4,2,7,10,0,0
92443,-71.4285714285714,4,2,1,100,0,0
92835,-66.6666666666667,4,2,1,100,0,0
93031,-66.6666666666667,4,2,1,100,0,0
93227,-66.6666666666667,4,2,1,100,0,0
93374,-66.6666666666667,4,2,1,10,0,0
93423,-66.6666666666667,4,2,1,100,0,0
93570,-66.6666666666667,4,2,1,10,0,0
93620,-58.8235294117647,4,2,1,100,0,0
93816,-58.8235294117647,4,2,11,100,0,0
94012,-58.8235294117647,4,2,11,100,0,0
94208,-58.8235294117647,4,2,1,100,0,0
94404,-58.8235294117647,4,2,1,100,0,0
94600,-58.8235294117647,4,2,1,100,0,0
94796,-55.5555555555556,4,2,12,100,0,0
95090,-55.5555555555556,4,2,12,5,0,0
95188,-100,4,2,10,95,0,1
95286,-100,4,2,1,95,0,1
95580,-100,4,2,1,95,0,1
95776,-83.3333333333333,4,2,1,95,0,1
96365,-83.3333333333333,4,2,1,95,0,1
96757,-83.3333333333333,4,2,1,95,0,1
97149,-83.3333333333333,4,2,1,95,0,1
97345,-83.3333333333333,4,2,1,95,0,1
97737,-83.3333333333333,4,2,1,95,0,1
97933,-100,4,2,10,95,0,1
98129,-100,4,2,1,95,0,1
98325,-90.9090909090909,4,2,1,95,0,1
98620,-90.9090909090909,4,2,2,95,0,1
98718,-83.3333333333333,4,2,1,95,0,1
99110,-76.9230769230769,4,2,1,95,0,1
99502,-76.9230769230769,4,2,1,95,0,1
99698,-76.9230769230769,4,2,1,95,0,1
99894,-100,4,2,1,95,0,1
100090,-83.3333333333333,4,2,1,95,0,1
100384,-83.3333333333333,4,2,1,95,0,1
100678,-100,4,2,1,95,0,1
101070,-100,4,2,1,95,0,1
101463,-100,4,2,1,95,0,1
101855,-100,4,2,1,95,0,1
102247,-100,4,2,1,95,0,1
102639,-100,4,2,1,95,0,1
103031,-83.3333333333333,4,2,1,95,0,1
103423,-83.3333333333333,4,2,1,95,0,1
103620,-83.3333333333333,4,2,1,95,0,1
104012,-83.3333333333333,4,2,1,95,0,1
104208,-111.111111111111,4,2,1,95,0,1
104502,-111.111111111111,4,2,1,5,0,1
104600,-83.3333333333333,4,2,1,95,0,1
104894,-83.3333333333333,4,2,2,95,0,1
104992,-83.3333333333333,4,2,1,95,0,1
105580,-83.3333333333333,4,2,1,95,0,1
105776,-83.3333333333333,4,2,1,95,0,1
105972,-83.3333333333333,4,2,1,95,0,1
106169,-100,4,2,1,95,0,1
106365,-76.9230769230769,4,2,1,95,0,1
106659,-76.9230769230769,4,2,1,95,0,1
106953,-76.9230769230769,4,2,1,95,0,1
107541,-76.9230769230769,4,2,1,95,0,1
107737,-66.6666666666667,4,2,1,95,0,0
108129,-66.6666666666667,4,2,11,95,0,1
108227,-100,4,2,1,95,0,1
108914,-100,4,2,1,95,0,1
109306,-83.3333333333333,4,2,1,95,0,1
109698,-83.3333333333333,4,2,1,95,0,1
109894,-83.3333333333333,4,2,1,95,0,1
110090,-133.333333333333,4,2,1,95,0,1
110286,-133.333333333333,4,2,1,5,0,1
110482,-66.6666666666667,4,2,1,95,0,1
110874,-90.9090909090909,4,2,1,95,0,1
111169,-90.9090909090909,4,2,2,95,0,1
111267,-83.3333333333333,4,2,1,95,0,1
111365,-83.3333333333333,4,2,1,95,0,1
111659,-76.9230769230769,4,2,1,95,0,1
112051,-76.9230769230769,4,2,1,95,0,1
112247,-76.9230769230769,4,2,1,95,0,1
112443,-83.3333333333333,4,2,1,95,0,1
112639,-83.3333333333333,4,2,1,95,0,1
112835,-83.3333333333333,4,2,11,95,0,1
112933,-83.3333333333333,4,2,1,95,0,1
113227,-83.3333333333333,4,2,1,95,0,1
113472,-83.3333333333333,4,2,2,95,0,1
113620,-83.3333333333333,4,2,1,95,0,1
114012,-83.3333333333333,4,2,1,95,0,1
114796,-83.3333333333333,4,2,1,95,0,1
114894,-83.3333333333333,4,2,2,95,0,1
114992,-100,4,2,1,95,0,1
115580,-83.3333333333333,4,2,1,95,0,1
115972,-83.3333333333333,4,2,1,95,0,1
116169,-83.3333333333333,4,2,1,95,0,1
116757,-55.5555555555556,4,2,10,95,0,1
117149,-76.9230769230769,4,2,1,95,0,1
117443,-76.9230769230769,4,2,1,95,0,1
117737,-76.9230769230769,4,2,1,95,0,1
118031,-76.9230769230769,4,2,1,95,0,1
118521,-76.9230769230769,4,2,1,95,0,1
118914,-76.9230769230769,4,2,1,95,0,1
119208,-76.9230769230769,4,2,1,95,0,1
119502,-76.9230769230769,4,2,1,95,0,1
119600,-76.9230769230769,4,2,2,95,0,1
119894,-76.9230769230769,4,2,1,95,0,1
119992,-100,4,2,2,95,0,1
120188,-100,4,2,1,95,0,1
120286,-90.9090909090909,4,2,1,95,0,1
120580,-100,4,2,1,95,0,1
120874,-66.6666666666667,4,2,2,95,0,1
121070,-66.6666666666667,4,2,1,95,0,1
121218,-66.6666666666667,4,2,1,95,0,1
121267,-66.6666666666667,4,2,1,95,0,1
121659,-66.6666666666667,4,2,11,95,0,1
121757,-66.6666666666667,4,2,1,10,0,0

[Colours]
Combo1 : 196,63,246
Combo2 : 0,105,255
Combo3 : 33,244,28
Combo4 : 249,104,249
Combo5 : 243,100,56
Combo6 : 255,226,21

[HitObjects]
370,213,1071,6,0,P|318:228|298:282,1,95,2|0,3:2|0:0,0:0:0:0:
246,336,1365,1,10,3:2:0:0:
229,330,1463,2,0,L|153:300,1,47.5,0|0,3:0|3:0,0:0:0:0:
44,280,1659,2,0,B|16:316|16:316|111:278,1,142.5,2|0,3:2|0:0,0:0:0:0:
121,272,2051,2,0,P|109:328|128:367,1,95,2|8,3:2|3:1,0:0:0:0:
198,234,2443,2,0,P|216:174|194:127,1,95,8|0,3:2|0:0,0:0:0:0:
42,70,2835,6,0,B|76:116|76:116|140:121,1,104.500003189087,10|2,3:2|0:3,0:0:0:0:
280,8,3129,2,0,B|218:15|218:15|180:66,1,113.999996520996,2|0,3:0|0:0,0:0:0:0:
204,153,3423,1,10,3:1:0:0:
218,159,3521,1,0,3:0:0:0:
233,164,3620,2,0,L|243:225,2,47.5,0|0|4,1:3|1:3|1:3,1:3:0:0:
367,308,4012,5,8,3:2:0:0:
363,321,4110,1,8,3:2:0:0:
358,334,4208,2,0,P|312:282|350:195,1,170.999994781494,2|10,3:2|0:0,0:0:0:0:
360,205,4600,1,0,3:2:0:0:
214,293,4796,6,0,P|149:269|137:224,1,106.875004076958,10|0,3:1|0:0,0:0:0:0:
135,221,5188,2,0,B|156:252|156:252|140:323,1,95,2|8,3:2|0:1,0:0:0:0:
23,176,5580,2,0,L|81:186,1,47.5,10|0,3:2|0:0,0:0:0:0:
138,141,5776,2,0,L|142:117,5,23.75,8|0|0|0|8|0,3:1|0:0|0:0|0:0|0:1|0:0,0:0:0:0:
181,292,6169,5,8,3:2:0:0:
195,283,6267,1,8,3:2:0:0:
208,274,6365,2,0,L|262:290,1,47.5,8|0,3:1|0:0,0:0:0:0:
322,323,6561,2,0,B|349:248|290:257|320:177,1,142.5,2|0,3:2|3:0,0:0:0:0:
386,135,6953,1,4,0:3:0:0:
463,137,7084,1,8,0:3:0:0:
512,196,7214,1,4,0:3:0:0:
499,271,7345,6,0,B|468:289|468:289|398:259,1,95,2|0,3:2|0:0,0:0:0:0:
344,238,7639,1,10,3:2:0:0:
328,232,7737,2,0,L|315:171,1,47.5,0|0,3:0|3:0,0:0:0:0:
249,142,7933,2,0,P|224:102|235:42,1,95,2|0,3:2|0:0,0:0:0:0:
317,104,8325,1,2,3:2:0:0:
181,213,8521,1,8,3:1:0:0:
67,82,8718,2,0,B|94:53|94:53|154:62,1,95,8|0,3:2|0:0,0:0:0:0:
166,297,9110,6,0,P|130:309|69:280,1,95,10|2,3:2|0:3,0:0:0:0:
132,159,9404,2,0,P|175:174|203:244,1,113.999996520996,2|0,3:0|0:0,0:0:0:0:
54,205,9698,2,0,L|49:173,6,23.75,10|0|0|0|0|0|0,3:1|0:0|3:0|0:0|3:0|0:0|0:0,0:0:0:0:
83,312,10090,1,4,1:3:0:0:
256,312,10286,5,8,3:2:0:0:
269,324,10384,1,8,3:2:0:0:
280,335,10482,2,0,B|310:318|310:318|380:338,1,95,2|0,3:2|0:0,0:0:0:0:
484,289,10776,1,10,3:2:0:0:
484,289,10874,2,0,L|435:276,1,47.5,0|2,3:0|0:0,0:0:0:0:
370,226,11071,2,0,P|351:193|392:101,1,142.5,10|0,3:1|0:0,0:0:0:0:
447,40,11463,2,0,B|483:75|483:75|468:135,1,95,2|8,3:2|0:1,0:0:0:0:
266,39,11855,6,0,L|208:31,1,47.5,10|0,3:2|0:0,0:0:0:0:
90,95,12051,2,0,L|152:88,1,47.5,12|0,0:0|0:0,0:0:0:0:
205,154,12247,5,0,0:0:0:0:
205,154,12443,2,0,L|217:221,1,47.5,12|0,0:0|0:0,0:0:0:0:
301,248,12639,2,0,L|288:306,1,47.5,12|0,0:0|0:0,0:0:0:0:
202,354,12835,5,0,0:0:0:0:
202,354,13031,2,0,L|146:345,1,47.5,12|2,0:0|0:0,0:0:0:0:
63,316,13227,6,0,P|13:227|116:250,1,256.499992172241,12|0,0:1|0:0,0:0:0:0:
107,253,13620,6,0,B|73:210|73:210|105:125,1,142.500005435944,12|2,0:1|0:0,0:0:0:0:
257,43,14012,5,12,0:0:0:0:
276,63,14110,1,2,3:2:0:0:
266,84,14208,1,8,0:1:0:0:
242,87,14306,1,0,0:0:0:0:
235,64,14404,1,4,0:0:0:0:
255,225,14600,2,0,B|220:284|285:306|250:362,2,142.500005435944,2|14|2,0:0|0:0|0:0,0:0:0:0:
400,89,15188,6,0,P|367:152|315:160,1,113.999996520996,4|8,0:0|0:1,0:0:0:0:
156,135,15580,1,12,0:0:0:0:
176,144,15678,2,0,B|187:197|187:197|166:250|166:250,1,95,8|0,0:3|0:0,0:0:0:0:
123,325,15972,1,4,0:0:0:0:
91,337,16071,1,8,0:1:0:0:
58,331,16169,1,0,3:0:0:0:
26,319,16267,1,8,0:1:0:0:
6,292,16365,2,0,L|11:254,6,23.75,14|0|0|0|0|0|0,0:0|0:0|0:0|0:0|0:0|0:0|0:0,0:0:0:0:
0,148,16757,6,0,B|46:154|46:154|70:179|70:179|114:185,1,113.999996520996,4|2,0:0|0:0,0:0:0:0:
203,151,17149,1,12,0:0:0:0:
145,306,17345,1,8,0:1:0:0:
145,306,17443,1,4,0:3:0:0:
145,306,17541,1,4,0:0:0:0:
325,246,17737,6,0,P|291:258|260:295,1,85.4999973907472,2|0,0:1|0:0,0:0:0:0:
261,310,17933,2,0,P|287:332|336:341,1,85.4999973907472,12|0,0:0|0:0,0:0:0:0:
348,334,18129,2,0,P|353:299|336:252,1,85.4999973907472,2|0,0:1|0:0,0:0:0:0:
329,236,18325,5,6,0:0:0:0:
288,59,18521,1,2,0:0:0:0:
475,125,18718,2,0,L|460:82,6,35.625001358986,14|0|0|0|2|0|0,0:0|0:0|0:0|0:0|0:1|0:0|0:0,0:0:0:0:
469,198,19110,6,0,P|427:193|375:170,1,95,4|2,0:0|3:2,0:0:0:0:
371,35,19502,2,0,P|332:62|286:73,1,95,12|6,0:0|0:0,0:0:0:0:
197,120,19796,1,10,0:1:0:0:
180,124,19894,6,0,P|145:76|143:41,1,95,4|2,0:0|0:0,0:0:0:0:
280,163,20286,1,12,0:0:0:0:
280,163,20384,1,2,3:2:0:0:
280,163,20482,1,8,0:1:0:0:
160,247,20678,5,4,0:0:0:0:
321,287,20874,2,0,B|342:294|363:290|363:290|399:320|399:320|428:305|475:323,2,161.500003080368,2|14|6,0:1|0:0|0:0,0:0:0:0:
127,142,21463,6,0,L|117:109,1,23.75,6|0,0:0|0:0,0:0:0:0:
23,224,21659,2,0,L|30:253,1,23.75,2|0,0:0|0:0,0:0:0:0:
118,325,21855,2,0,L|110:290,6,23.75,14|0|0|0|0|0|0,0:3|0:0|0:0|0:0|0:0|0:0|0:0,0:0:0:0:
188,356,22247,2,0,P|198:306|169:255,1,95,6|2,0:3|0:1,0:0:0:0:
69,57,22639,6,0,P|93:41|137:35,1,61.7499971733095,12|0,0:0|0:0,0:0:0:0:
196,67,22835,2,0,P|209:92|207:138,1,61.7499971733095,2|0,0:3|0:0,0:0:0:0:
148,181,23031,2,0,B|101:187|101:187|56:141,1,95,4|6,0:0|0:0,0:0:0:0:
314,256,23423,6,0,P|349:238|364:217,1,47.5,14|0,0:1|0:0,0:0:0:0:
408,103,23620,1,8,0:1:0:0:
388,119,23718,1,4,0:3:0:0:
378,144,23816,6,0,P|404:128|523:185,2,170.999994781494,6|6|6,0:0|0:0|0:0,0:0:0:0:
377,329,24600,1,4,0:0:0:0:
434,213,24796,1,2,0:0:0:0:
257,298,24992,2,0,B|210:272|210:272|164:301|164:301|111:285,1,142.500005435944,14|0,0:0|0:0,0:0:0:0:
250,155,25384,5,4,0:0:0:0:
219,4,25580,1,4,0:0:0:0:
69,32,25776,1,12,0:0:0:0:
97,182,25972,1,2,3:2:0:0:
206,91,26169,6,0,P|155:81|104:110,1,95,12|2,0:2|0:0,0:0:0:0:
39,235,26561,2,0,P|59:260|123:279,1,95,12|0,0:0|3:0,0:0:0:0:
196,182,26855,2,0,L|191:230,1,47.5,2|4,0:0|0:0,0:0:0:0:
212,319,27051,1,0,0:0:0:0:
223,334,27149,2,0,L|373:360,2,123.499994346619,2|14|2,0:0|0:0|0:0,0:0:0:0:
329,178,27737,6,0,P|359:215|404:225,1,95,4|0,0:0|0:0,0:0:0:0:
466,161,28031,2,0,P|436:124|391:114,1,95,0|8,0:0|0:1,0:0:0:0:
314,30,28325,2,0,P|298:62|295:104,1,71.2500027179719,2|0,3:2|0:0,0:0:0:0:
183,178,28521,6,0,P|153:215|108:225,1,95,4|0,0:0|0:0,0:0:0:0:
46,161,28815,2,0,P|76:124|121:114,1,95,2|0,3:0|0:0,0:0:0:0:
198,30,29110,2,0,P|214:62|217:104,1,71.2500027179719,4|0,0:0|0:0,0:0:0:0:
166,173,29306,6,0,B|150:198|150:198|169:282,1,95,4|2,0:0|0:0,0:0:0:0:
162,375,29600,1,0,0:0:0:0:
178,355,29698,2,0,L|292:335,1,95,12|8,0:0|0:1,0:0:0:0:
312,337,29992,1,4,0:3:0:0:
312,337,30090,1,4,0:0:0:0:
236,212,30286,6,0,B|249:174|249:174|226:116|226:116|241:71,2,132.999995941162,2|12|2,0:1|0:0|0:1,0:0:0:0:
374,280,30874,6,0,L|397:277,1,23.75,6|0,0:0|0:0,0:0:0:0:
438,180,31070,2,0,L|445:205,1,23.75,2|0,0:0|0:0,0:0:0:0:
466,327,31267,2,0,L|494:323,6,23.75,14|0|0|0|2|0|0,0:0|0:0|0:0|0:0|0:1|0:0|0:0,0:0:0:0:
302,325,31659,5,4,0:0:0:0:
204,186,31855,1,2,3:2:0:0:
324,208,32051,1,12,2:0:0:0:
181,305,32247,1,2,0:0:0:0:
43,229,32443,6,0,P|32:189|54:130,1,95,4|2,2:0|0:0,0:0:0:0:
125,27,32835,2,0,B|151:55|151:55|131:118,1,95,12|0,2:0|3:0,0:0:0:0:
141,128,33129,2,0,L|206:150,1,47.5,2|4,2:0|0:0,0:0:0:0:
322,204,33325,1,0,0:0:0:0:
313,214,33423,2,0,L|258:227,1,47.5,2|0,0:1|2:0,0:0:0:0:
189,220,33620,2,0,B|180:260|215:297|215:297|186:315|187:349,1,142.500005435944,12|0,2:0|3:0,0:0:0:0:
343,322,34012,5,6,0:0:0:0:
364,332,34110,1,0,0:0:0:0:
376,345,34208,1,0,0:0:0:0:
382,362,34306,1,2,3:2:0:0:
378,379,34404,2,0,L|429:365,1,47.5,12|0,3:2|0:0,0:0:0:0:
492,273,34600,2,0,L|442:283,1,47.5,8|0,3:1|0:0,0:0:0:0:
374,234,34796,2,0,P|349:179|379:102,1,142.5,6|0,0:3|0:0,0:0:0:0:
436,50,35188,6,0,B|486:22|486:22|506:160|506:160|456:128,1,237.5,14|0,0:1|0:0,0:0:0:0:
313,61,35580,6,0,B|266:65|266:65|241:101|241:101|182:109,1,142.5,4|0,0:0|0:0,0:0:0:0:
178,109,35972,1,12,0:0:0:0:
90,69,36169,1,8,0:1:0:0:
90,69,36267,1,4,0:3:0:0:
90,69,36365,1,4,0:1:0:0:
171,16,36561,5,6,0:0:0:0:
256,171,36757,1,14,0:0:0:0:
341,16,36953,1,4,0:0:0:0:
423,171,37149,6,0,L|414:221,1,47.5,6|0,0:0|0:0,0:0:0:0:
307,263,37345,2,0,L|355:274,1,47.5,2|0,0:0|3:0,0:0:0:0:
488,334,37541,2,0,B|393:293|412:376|324:348,1,170.999994781494,14|0,0:0|0:0,0:0:0:0:
221,323,37933,6,0,L|240:374,3,47.5,4|0|4|0,0:0|3:0|0:0|0:0,0:0:0:0:
182,250,38325,2,0,L|196:204,3,47.5,12|0|4|4,0:0|0:0|0:3|0:3,0:0:0:0:
112,296,38718,6,0,B|89:326|89:326|22:315,1,95,4|10,0:0|0:1,0:0:0:0:
31,181,39110,1,12,0:0:0:0:
45,168,39208,2,0,L|35:119,1,47.5,2|0,0:0|0:0,0:0:0:0:
96,29,39404,2,0,P|119:47|118:122,1,95,2|0,0:1|0:0,0:0:0:0:
121,125,39698,6,0,L|205:114,1,71.2500027179719,2|0,3:2|0:0,0:0:0:0:
302,63,39894,6,0,L|419:85,1,106.875004076958,12|0,0:0|0:0,0:0:0:0:
503,91,40286,6,0,L|494:44,3,47.5,4|2|0|0,0:0|0:0|3:0|0:0,0:0:0:0:
414,170,40678,2,0,L|352:177,3,47.5,14|2|2|8,0:0|0:1|3:2|0:1,0:0:0:0:
472,234,41071,2,0,P|442:281|375:301,1,95,4|0,0:2|0:0,0:0:0:0:
296,221,41463,1,14,0:1:0:0:
286,210,41561,1,0,0:1:0:0:
273,197,41659,2,0,L|282:140,1,47.5,2|0,0:0|0:0,0:0:0:0:
341,93,41855,6,0,P|307:68|239:78,1,95,6|0,0:1|3:0,0:0:0:0:
4,226,42247,1,12,0:0:0:0:
4,226,42345,2,0,L|68:207,1,47.5,2|0,0:0|0:0,0:0:0:0:
110,257,42541,2,0,B|140:202|140:202|96:124,1,142.5,2|0,0:1|0:0,0:0:0:0:
177,23,43031,2,0,B|156:71|156:71|192:129,1,95,14|8,0:0|0:1,0:0:0:0:
361,214,43423,6,0,P|372:238|372:263,3,47.5,6|2|2|0,0:3|0:0|0:3|3:0,0:0:0:0:
316,325,43816,2,0,P|297:339|284:359,3,47.5,14|0|0|2,0:3|0:0|3:0|0:3,0:0:0:0:
409,335,44208,1,6,0:1:0:0:
445,343,44306,1,2,0:0:0:0:
480,329,44404,1,0,0:0:0:0:
498,295,44502,2,0,B|520:243|520:243|475:156,1,142.5,2|4,0:3|0:0,0:0:0:0:
204,251,44992,6,0,P|241:242|272:175,1,95,4|10,0:0|0:1,0:0:0:0:
384,100,45384,1,14,0:0:0:0:
369,91,45482,2,0,L|319:107,1,47.5,0|0,0:0|0:0,0:0:0:0:
196,146,45678,2,0,B|170:127|170:127|190:49,1,95,2|0,0:0|0:0,0:0:0:0:
261,12,45972,1,2,3:1:0:0:
271,16,46071,1,2,0:1:0:0:
282,19,46169,1,12,0:0:0:0:
294,24,46267,2,0,L|276:136,1,95,2|0,0:1|0:0,0:0:0:0:
308,281,46561,6,0,P|347:278|381:242,1,61.7499971733095,4|0,0:0|0:0,0:0:0:0:
318,207,46757,2,0,P|275:205|225:287,1,123.499994346619,6|0,0:0|0:0,0:0:0:0:
57,357,47149,6,0,B|1:316|1:316|40:182,1,170.999994781494,6|0,0:0|0:0,0:0:0:0:
108,243,47541,2,0,L|131:238,3,23.75,0|0|0|0,3:0|0:0|2:0|0:0,0:0:0:0:
94,166,47737,6,0,B|173:130|192:221|275:148,1,185.249991519928,14|0,0:0|0:0,0:0:0:0:
281,56,48129,6,0,L|268:0,3,47.5,6|0|8|0,0:0|0:0|0:1|0:0,0:0:0:0:
354,132,48521,2,0,L|365:183,3,47.5,12|2|0|8,0:0|0:0|0:0|0:1,0:0:0:0:
399,52,48914,2,0,L|444:37,3,47.5,2|0|0|0,0:0|0:0|0:1|0:0,0:0:0:0:
327,117,49306,1,12,0:0:0:0:
291,131,49404,1,2,0:1:0:0:
253,127,49502,1,2,0:0:0:0:
221,105,49600,1,0,0:0:0:0:
199,79,49698,6,0,L|140:99,1,47.5,6|2,0:1|0:0,0:0:0:0:
55,183,49894,1,4,0:3:0:0:
55,183,49992,2,0,P|29:134|89:61,1,142.5,2|8,0:0|0:1,0:0:0:0:
149,171,50482,1,2,0:0:0:0:
158,179,50580,1,0,0:0:0:0:
167,187,50678,2,0,L|159:236,1,47.5,0|0,3:0|0:0,0:0:0:0:
101,342,50874,6,0,B|70:306|70:306|154:347|154:347|238:317,1,213.750008153916,4|0,0:1|0:0,0:0:0:0:
289,292,51267,6,0,P|313:328|382:332,1,95,12|2,0:0|0:0,0:0:0:0:
421,253,51659,2,0,P|397:217|328:213,1,95,12|0,0:0|3:0,0:0:0:0:
171,133,52051,2,0,B|147:110|147:110|166:40,1,95,6|0,0:0|3:0,0:0:0:0:
170,28,52345,2,0,P|230:55|238:134,1,142.5,2|2,0:0|1:2,0:0:0:0:
233,296,52835,5,4,3:2:0:0:
108,201,53031,2,0,B|75:206|75:206|11:171,2,95,2|14|0,0:0|0:0|3:0,0:0:0:0:
269,125,53620,2,0,L|256:63,1,47.5,6|10,0:0|0:1,0:0:0:0:
308,22,53816,1,0,3:0:0:0:
308,22,53914,2,0,P|347:18|421:83,1,142.5,2|8,0:0|0:1,0:0:0:0:
282,202,54404,6,0,L|167:219,1,95,6|8,0:0|0:3,0:0:0:0:
165,219,54992,1,0,3:0:0:0:
165,219,55090,2,0,L|175:281,1,47.5,2|4,0:3|0:0,0:0:0:0:
248,356,55286,1,8,0:1:0:0:
262,347,55384,1,2,0:0:0:0:
281,340,55482,2,0,P|293:294|386:292,1,142.5,0|2,0:0|1:2,0:0:0:0:
431,372,55972,5,6,0:3:0:0:
394,202,56169,1,2,0:0:0:0:
491,311,56365,1,14,0:1:0:0:
491,311,56463,1,2,0:0:0:0:
491,311,56561,1,0,3:0:0:0:
271,252,56757,6,0,P|240:267|203:263,3,47.5,6|0|10|0,0:3|0:0|0:1|0:0,0:0:0:0:
152,237,57149,1,12,0:0:0:0:
129,207,57247,1,2,0:0:0:0:
123,169,57345,1,0,0:0:0:0:
137,133,57443,1,0,0:0:0:0:
166,107,57541,5,4,0:0:0:0:
204,178,57737,1,2,0:0:0:0:
62,126,57933,1,14,0:0:0:0:
181,30,58129,1,0,0:0:0:0:
297,160,58325,6,0,L|346:148,1,47.5,4|0,0:0|0:0,0:0:0:0:
455,205,58521,2,0,L|408:216,1,47.5,0|0,3:0|0:0,0:0:0:0:
331,319,58718,1,12,0:0:0:0:
331,319,58914,2,0,L|380:301,1,47.5,4|0,0:0|0:0,0:0:0:0:
445,373,59110,6,0,P|462:335|438:274,1,95,6|0,0:3|3:0,0:0:0:0:
340,150,59404,2,0,P|322:179|340:242,1,95,2|0,0:3|0:0,0:0:0:0:
335,236,59698,2,0,P|368:229|393:216,1,47.5,2|2,0:3|0:0,0:0:0:0:
256,293,59894,2,0,L|255:352,1,47.5,6|2,0:3|0:0,0:0:0:0:
177,236,60090,2,0,P|152:231|119:216,1,47.5,2|0,0:3|0:0,0:0:0:0:
256,178,60286,6,0,B|288:116|218:95|262:32,1,142.5,10|0,0:0|0:0,0:0:0:0:
257,41,60678,6,0,P|287:49|315:41,1,47.5,6|2,0:3|0:0,0:0:0:0:
354,133,60874,2,0,P|385:122|404:97,1,47.5,2|2,0:3|0:0,0:0:0:0:
470,16,61070,1,12,0:0:0:0:
470,16,61267,2,0,P|443:35|432:64,1,47.5,2|2,0:3|0:0,0:0:0:0:
480,142,61463,1,4,0:0:0:0:
480,142,61659,2,0,P|453:170|448:196,1,47.5,2|2,0:3|0:0,0:0:0:0:
491,320,61855,2,0,P|509:294|492:224,1,95,14|2,0:0|3:2,0:0:0:0:
273,265,62247,6,0,B|193:286|193:286|222:301,1,95,6|8,1:2|3:1,0:0:0:0:
354,314,62541,1,2,1:2:0:0:
354,314,62639,2,0,L|407:336,1,47.5,8|0,0:0|0:0,0:0:0:0:
292,376,62835,1,0,3:0:0:0:
292,376,62933,1,8,0:1:0:0:
292,376,63031,6,0,B|321:330|321:330|291:239,1,142.5,6|0,0:1|0:0,0:0:0:0:
294,116,63423,2,0,B|265:162|265:162|295:253,1,142.5,14|0,0:1|0:0,0:0:0:0:
393,288,63816,6,0,P|407:239|359:174,1,113.999996520996,12|2,0:0|0:0,0:0:0:0:
231,171,64208,1,12,0:0:0:0:
331,33,64404,1,0,3:0:0:0:
175,90,64600,2,0,P|126:104|61:66,1,113.999996520996,6|0,0:0|3:0,0:0:0:0:
76,63,64894,2,0,B|104:39|104:39|80:153,1,142.5,2|2,0:0|1:2,0:0:0:0:
35,303,65384,5,4,3:2:0:0:
0,148,65580,1,2,0:0:0:0:
159,260,65776,1,14,0:0:0:0:
138,254,65874,1,0,0:0:0:0:
113,248,65972,1,0,3:0:0:0:
176,84,66169,1,6,0:0:0:0:
176,84,66267,2,0,L|188:21,1,47.5,10|0,0:1|3:0,0:0:0:0:
234,160,66463,1,2,0:0:0:0:
233,161,66561,2,0,P|284:171|309:216,1,95,12|8,0:0|0:1,0:0:0:0:
417,359,66953,6,0,P|459:330|530:361,2,95,6|8|12,0:0|0:3|0:0,0:0:0:0:
258,365,67541,1,0,3:0:0:0:
258,365,67639,2,0,B|281:341|281:341|260:257,1,95,2|8,0:3|0:1,0:0:0:0:
193,227,67933,1,2,0:0:0:0:
193,227,68031,2,0,P|190:171|270:130,1,142.5,0|2,0:0|1:2,0:0:0:0:
334,203,68521,5,6,0:3:0:0:
427,111,68718,1,2,0:0:0:0:
275,58,68914,1,14,0:1:0:0:
275,58,69012,1,2,0:0:0:0:
275,58,69110,1,0,3:0:0:0:
492,160,69306,6,0,P|507:129|503:91,3,47.5,6|0|10|0,0:3|0:0|0:1|0:0,0:0:0:0:
439,35,69698,1,12,0:0:0:0:
401,36,69796,1,0,0:0:0:0:
367,54,69894,1,6,0:0:0:0:
347,87,69992,1,0,0:0:0:0:
345,125,70090,5,4,0:0:0:0:
395,257,70286,1,2,0:0:0:0:
444,115,70482,1,14,0:0:0:0:
275,187,70678,1,0,0:0:0:0:
275,358,70874,6,0,P|272:319|255:287,1,47.5,4|0,0:0|0:0,0:0:0:0:
177,317,71070,2,0,P|174:278|157:246,1,47.5,0|0,3:0|0:0,0:0:0:0:
340,258,71267,1,12,0:0:0:0:
340,258,71463,2,0,P|343:219|360:187,1,47.5,4|0,0:0|0:0,0:0:0:0:
512,110,71659,6,0,P|462:152|402:136,1,95,6|0,0:3|3:0,0:0:0:0:
323,21,71953,2,0,P|375:47|388:102,1,95,2|0,0:3|0:0,0:0:0:0:
371,203,72247,2,0,P|339:213|311:212,1,47.5,2|2,0:3|0:0,0:0:0:0:
256,104,72443,2,0,L|256:158,1,47.5,6|2,0:3|0:0,0:0:0:0:
141,203,72639,2,0,P|173:213|201:212,1,47.5,2|0,0:3|0:0,0:0:0:0:
254,345,72835,6,0,B|282:296|256:239|256:239|255:283,1,142.5,10|0,0:0|0:0,0:0:0:0:
348,324,73227,6,0,P|378:312|399:296,1,47.5,6|2,0:3|0:0,0:0:0:0:
471,321,73423,2,0,P|491:283|483:245,1,47.5,2|2,0:3|0:0,0:0:0:0:
512,146,73620,1,12,0:0:0:0:
512,146,73816,2,0,P|471:179|460:206,1,47.5,2|2,0:3|0:0,0:0:0:0:
411,82,74012,1,4,0:0:0:0:
411,82,74208,2,0,P|392:122|393:154,1,47.5,2|2,0:3|0:0,0:0:0:0:
278,113,74404,2,0,P|289:163|334:212,1,95,14|2,0:0|3:2,0:0:0:0:
378,328,74796,6,0,P|319:285|274:291,1,95,6|0,1:2|3:0,0:0:0:0:
211,315,75090,1,2,1:2:0:0:
197,325,75188,2,0,P|151:315|117:266,1,95,6|0,1:2|3:0,0:0:0:0:
128,159,75482,1,8,0:1:0:0:
137,145,75580,2,0,B|165:101|165:101|221:171|190:232,1,185.249991519928,6|0,0:1|0:0,0:0:0:0:
293,270,75972,6,0,P|300:216|341:158,1,106.875004076958,12|0,0:3|0:0,0:0:0:0:
462,79,76365,5,4,0:0:0:0:
477,96,76463,1,0,3:0:0:0:
484,122,76561,2,0,P|461:138|417:136,1,47.5,0|2,3:0|3:2,0:0:0:0:
312,67,76757,1,12,0:0:0:0:
312,44,76855,1,0,3:0:0:0:
323,19,76953,2,0,P|351:21|384:51,1,47.5,0|2,3:0|3:2,0:0:0:0:
369,173,77149,5,4,0:0:0:0:
207,88,77345,1,2,3:2:0:0:
207,88,77443,2,0,B|254:127|254:127|216:235,1,142.5,0|0,3:0|0:1,0:0:0:0:
50,305,77933,5,4,0:0:0:0:
35,288,78031,1,0,3:0:0:0:
28,262,78129,2,0,P|51:246|95:248,1,47.5,0|2,3:0|3:2,0:0:0:0:
200,317,78325,1,12,0:0:0:0:
200,340,78423,1,0,3:0:0:0:
189,365,78521,2,0,P|161:363|128:333,1,47.5,0|2,3:0|3:2,0:0:0:0:
128,180,78718,5,4,0:0:0:0:
305,296,78914,1,2,3:2:0:0:
305,296,79012,2,0,B|258:257|258:257|296:149,1,142.5,0|2,3:0|0:2,0:0:0:0:
500,251,79502,6,0,L|483:302,3,47.5,4|0|0|0,0:0|3:2|0:0|0:0,0:0:0:0:
420,365,79894,1,12,0:0:0:0:
396,345,79992,1,0,3:0:0:0:
399,312,80090,1,0,3:0:0:0:
380,286,80188,1,2,3:2:0:0:
389,254,80286,5,4,3:2:0:0:
334,97,80482,1,2,3:2:0:0:
334,97,80580,2,0,P|310:168|235:200,1,142.5,0|2,3:0|0:0,0:0:0:0:
12,133,81070,6,0,L|29:82,3,47.5,4|0|0|0,0:0|3:2|0:0|0:0,0:0:0:0:
92,19,81462,1,12,0:0:0:0:
116,39,81560,1,0,3:0:0:0:
113,72,81658,1,0,3:0:0:0:
132,98,81756,1,2,3:2:0:0:
123,130,81854,5,4,3:2:0:0:
178,287,82050,1,2,3:2:0:0:
178,287,82148,2,0,P|202:216|277:184,1,142.5,0|2,3:0|0:0,0:0:0:0:
482,150,82639,6,0,L|495:104,1,47.5,4|0,0:0|0:0,0:0:0:0:
443,32,82835,2,0,L|398:18,1,47.5,2|0,0:0|0:0,0:0:0:0:
323,69,83031,2,0,L|311:114,1,47.5,12|0,0:0|3:0,0:0:0:0:
362,187,83227,2,0,L|408:200,1,47.5,0|2,3:0|3:2,0:0:0:0:
395,114,83423,6,0,P|324:125|285:203,1,142.5,4|2,3:2|0:0,0:0:0:0:
286,180,84012,2,0,L|203:202,1,47.5,0|2,3:0|0:0,0:0:0:0:
149,187,84208,6,0,L|104:200,1,47.5,4|0,0:0|3:0,0:0:0:0:
188,69,84404,2,0,L|201:114,1,47.5,0|2,3:0|3:2,0:0:0:0:
68,32,84600,2,0,L|114:18,1,47.5,12|0,0:0|0:0,0:0:0:0:
29,150,84796,2,0,L|17:104,1,47.5,2|0,0:0|0:0,0:0:0:0:
108,111,84992,6,0,P|110:182|40:234,1,142.5,4|0,3:2|0:0,0:0:0:0:
61,228,85580,2,0,P|63:264|81:291,1,47.5
127,332,85776,6,0,P|174:338|208:318,1,47.5,12|0,0:0|3:0,0:0:0:0:
250,305,85972,2,0,P|264:281|263:243,1,47.5,0|2,3:0|3:2,0:0:0:0:
289,176,86169,1,0,3:0:0:0:
321,188,86267,1,0,0:0:0:0:
345,213,86365,1,2,0:0:0:0:
354,245,86463,1,0,0:0:0:0:
354,277,86561,2,0,B|393:258|395:220|395:220|432:235|469:217,2,142.5,4|0|0,3:2|0:0|3:0,0:0:0:0:
283,325,87247,1,2,0:0:0:0:
244,306,87345,5,4,0:0:0:0:
217,272,87443,1,8,0:1:0:0:
209,229,87541,1,8,0:1:0:0:
213,186,87639,1,8,0:1:0:0:
172,199,87737,5,4,0:0:0:0:
124,196,87835,1,8,0:1:0:0:
86,167,87933,1,8,0:1:0:0:
75,121,88031,1,8,0:1:0:0:
91,76,88129,6,0,L|72:43,6,23.75,4|8|8|8|8|8|8,0:0|0:1|0:1|0:1|0:1|0:1|0:1,0:0:0:0:
162,116,88521,2,0,B|129:155|129:155|73:162|73:162|38:136|38:136|-9:141|-9:141|-62:178,1,190,14|0,0:0|0:0,0:0:0:0:
86,359,88914,6,0,B|61:325|61:325|188:298,1,142.500005435944,12|2,1:2|1:3,0:0:0:0:
255,349,89306,1,2,1:3:0:0:
277,182,89502,1,2,1:3:0:0:
378,267,89698,2,0,P|396:222|354:143,1,142.500005435944,6|0,1:3|0:0,0:0:0:0:
128,69,90090,6,0,P|142:47|163:32,1,52.2500015945435,8|0,1:0|0:0,0:0:0:0:
207,106,90286,2,0,L|189:236,1,104.500003189087,8|10,1:0|1:3,0:0:0:0:
346,342,90678,2,0,P|320:320|307:291,1,56.9999982604981,8|0,1:0|0:0,0:0:0:0:
352,222,90874,2,0,P|391:203|479:218,1,113.999996520996,8|10,1:0|1:3,0:0:0:0:
361,59,91267,5,2,1:3:0:0:
361,59,91365,1,2,1:3:0:0:
361,59,91463,2,0,P|335:91|329:126,1,61.7499971733095,8|0,1:0|0:0,0:0:0:0:
279,177,91659,2,0,P|226:187|150:131,1,123.499994346619,10|2,1:0|1:3,0:0:0:0:
40,40,92051,6,0,L|34:85,4,33.2499989852906,14|0|0|0|2,1:0|0:0|0:0|0:0|1:3,0:0:0:0:
32,189,92443,5,2,1:1:0:0:
32,189,92541,1,2,1:2:0:0:
32,189,92639,2,0,L|99:206,1,66.4999979705811,2|2,1:3|1:3,0:0:0:0:
166,156,92835,2,0,B|200:206|171:252|171:252|198:259|225:299,1,142.500005435944,2|0,1:1|0:0,0:0:0:0:
150,338,93227,5,2,1:1:0:0:
289,264,93423,1,2,1:3:0:0:
392,350,93620,1,2,1:1:0:0:
283,374,93816,1,10,1:3:0:0:
392,247,94012,1,10,1:3:0:0:
230,156,94208,6,0,L|211:104,4,40.375000770092,0|0|2|0|2,0:0|0:0|1:3|0:0|1:1,0:0:0:0:
95,286,94600,2,0,L|80:340,2,53.8333343601227,4|4|4,0:0|0:0|0:0,0:0:0:0:
39,238,94796,6,0,P|63:175|153:275,1,256.499992172241,6|0,0:3|0:0,0:0:0:0:
265,342,95188,5,14,3:1:0:0:
300,351,95286,1,0,0:0:0:0:
329,339,95384,2,0,L|336:282,1,47.5,0|0,0:0|3:0,0:0:0:0:
378,202,95580,1,12,0:0:0:0:
420,193,95678,1,0,0:0:0:0:
459,210,95776,1,2,3:2:0:0:
479,247,95874,2,0,B|436:296|436:296|329:267,1,170.999994781494
286,191,96267,1,2,0:0:0:0:
278,180,96365,2,0,L|299:109,2,56.9999982604981,14|0|0,0:0|0:0|0:0,0:0:0:0:
103,364,96757,5,4,0:1:0:0:
124,352,96855,1,2,0:0:0:0:
144,338,96953,2,0,L|83:319,1,56.9999982604981
9,291,97149,2,0,P|-5:255|21:182,1,113.999996520996,12|0,0:0|0:0,0:0:0:0:
84,152,97443,1,2,0:1:0:0:
153,120,97541,2,0,B|167:164|167:164|134:229,1,113.999996520996,4|0,0:0|0:0,0:0:0:0:
72,69,97933,6,0,P|119:85|201:41,1,142.5,12|0,0:3|0:0,0:0:0:0:
350,21,98325,5,6,3:1:0:0:
329,32,98423,1,0,0:0:0:0:
309,45,98521,2,0,L|339:107,1,52.2500015945435,0|8,3:0|3:1,0:0:0:0:
441,150,98718,5,14,0:0:0:0:
471,164,98816,1,2,0:1:0:0:
501,177,98914,2,0,L|479:248,1,56.9999982604981,0|0,3:0|0:0,0:0:0:0:
347,258,99110,5,6,0:0:0:0:
308,274,99208,1,2,0:0:0:0:
269,290,99306,2,0,B|289:343|289:343|357:381,2,123.499994346619,2|14|2,0:1|0:0|0:0,0:0:0:0:
218,104,99894,5,4,0:0:0:0:
116,276,100090,2,0,B|84:295|84:295|-2:271,1,113.999996520996,2|6,0:1|0:0,0:0:0:0:
139,195,100384,2,0,B|171:176|171:176|255:201,1,113.999996520996,2|0,0:0|0:0,0:0:0:0:
220,303,100678,5,6,0:1:0:0:
208,308,100776,1,0,0:0:0:0:
213,293,100874,2,0,L|266:274,1,47.5
378,285,101070,5,14,0:0:0:0:
379,318,101169,1,0,0:0:0:0:
366,348,101267,1,4,0:0:0:0:
342,371,101365,1,0,0:0:0:0:
314,376,101463,6,0,L|267:365,1,47.5,6|0,3:2|0:0,0:0:0:0:
175,379,101659,2,0,L|124:366,1,47.5,0|0,0:0|3:0,0:0:0:0:
19,265,101855,1,12,0:0:0:0:
46,257,101953,1,2,0:0:0:0:
74,260,102051,1,2,3:2:0:0:
97,276,102149,2,0,B|128:249|128:249|113:180,1,95
99,123,102443,1,0,0:0:0:0:
274,43,102639,2,0,L|334:36,3,47.5,14|0|0|2,0:0|0:0|0:0|0:0,0:0:0:0:
395,147,103031,6,0,P|372:140|345:107,1,56.9999982604981,4|2,0:0|0:0,0:0:0:0:
415,64,103227,2,0,P|435:38|470:29,1,56.9999982604981,0|2,0:0|0:0,0:0:0:0:
477,121,103423,2,0,P|486:167|465:241,1,113.999996520996,12|0,0:0|0:0,0:0:0:0:
423,287,103718,1,2,0:1:0:0:
365,239,103816,2,0,B|315:228|315:228|254:263,1,113.999996520996,4|0,0:0|0:0,0:0:0:0:
93,330,104208,6,0,P|62:288|101:303,1,128.249996086121,14|0,0:1|0:0,0:0:0:0:
93,330,104600,6,0,P|72:265|91:210,1,113.999996520996,6|0,3:1|3:0,0:0:0:0:
216,93,104992,1,14,0:0:0:0:
227,103,105090,1,2,0:1:0:0:
240,113,105188,2,0,L|220:173,1,56.9999982604981,0|0,3:0|0:0,0:0:0:0:
71,93,105384,1,6,0:0:0:0:
52,78,105482,1,2,0:0:0:0:
33,66,105580,2,0,P|64:30|149:31,2,113.999996520996,2|14|2,0:1|0:0|0:0,0:0:0:0:
30,263,106169,2,0,L|95:275,1,47.5,4|0,3:2|0:0,0:0:0:0:
159,340,106365,6,0,B|187:296|187:296|170:224,1,123.499994346619,6|0,0:1|3:0,0:0:0:0:
272,120,106659,2,0,B|244:164|244:164|261:236,1,123.499994346619,6|0,0:0|0:0,0:0:0:0:
397,191,106953,6,0,B|417:159|417:159|327:185,1,123.499994346619,6|0,0:1|0:0,0:0:0:0:
116,113,107247,2,0,B|96:145|96:145|186:119,1,123.499994346619,6|0,0:0|0:0,0:0:0:0:
316,20,107541,2,0,L|250:35,1,61.7499971733095,6|0,0:0|0:0,0:0:0:0:
238,23,107737,6,0,L|263:177,1,142.500005435944,2|0,0:1|0:0,0:0:0:0:
260,163,108129,6,0,P|229:173|202:231,1,71.2500027179719,12|2,0:2|0:0,0:0:0:0:
247,339,108325,1,2,0:0:0:0:
316,290,108423,2,0,B|362:319|362:319|455:292,1,142.5,0|0,0:0|0:0,0:0:0:0:
501,224,108816,1,2,0:0:0:0:
511,208,108914,2,0,L|490:143,2,47.5,14|0|0,0:0|0:0|0:0,0:0:0:0:
364,21,109306,6,0,L|350:95,1,56.9999982604981,6|0,0:0|0:0,0:0:0:0:
342,160,109502,1,0,0:0:0:0:
320,185,109600,1,0,0:0:0:0:
291,202,109698,1,12,0:0:0:0:
258,207,109796,1,2,0:0:0:0:
225,199,109894,2,0,L|168:155,1,56.9999982604981,0|2,0:0|0:1,0:0:0:0:
63,117,110090,6,0,P|34:147|36:216,1,106.875004076958,4|2,0:0|0:0,0:0:0:0:
95,309,110482,6,0,B|128:262|128:262|98:155,1,142.500005435944,14|0,0:1|0:0,0:0:0:0:
187,358,110874,5,6,0:1:0:0:
210,354,110972,1,0,0:0:0:0:
233,350,111070,2,0,L|298:338,1,52.2500015945435,0|8,3:0|3:1,0:0:0:0:
424,284,111267,5,14,0:0:0:0:
396,276,111365,1,2,0:1:0:0:
368,267,111463,2,0,L|312:246,1,56.9999982604981,0|0,3:0|0:0,0:0:0:0:
219,196,111659,5,6,0:0:0:0:
226,154,111757,1,2,0:0:0:0:
233,112,111855,1,2,0:1:0:0:
414,97,112051,1,14,0:0:0:0:
306,170,112247,1,6,0:0:0:0:
360,35,112443,1,0,0:0:0:0:
335,246,112639,6,0,P|299:250|235:208,1,113.999996520996,6|12,0:1|0:3,0:0:0:0:
174,18,112933,2,0,P|205:36|222:115,1,113.999996520996,6|0,0:0|0:0,0:0:0:0:
142,178,113227,5,6,0:1:0:0:
111,194,113325,1,4,0:0:0:0:
80,207,113423,2,0,P|53:185|40:132,1,56.9999982604981,4|8,0:1|0:3,0:0:0:0:
85,81,113620,5,14,0:0:0:0:
103,87,113718,1,0,0:0:0:0:
118,99,113816,1,0,3:0:0:0:
124,117,113914,1,0,0:0:0:0:
119,137,114012,6,0,L|109:203,2,56.9999982604981,4|0|2,3:2|0:0|0:0,0:0:0:0:
197,226,114306,2,0,L|213:283,2,56.9999982604981,0|12|2,3:2|0:0|0:0,0:0:0:0:
296,289,114600,2,0,L|354:318,2,56.9999982604981,4|0|2,3:2|0:0|0:0,0:0:0:0:
308,188,114894,1,8,0:1:0:0:
330,178,114992,2,0,L|337:124,1,47.5,4|2,0:0|0:1,0:0:0:0:
417,67,115188,2,0,B|441:104|441:104|423:163,1,95,12|6,0:0|0:0,0:0:0:0:
319,347,115580,6,0,B|312:374|312:374|395:348,1,113.999996520996,2|4,0:1|0:0,0:0:0:0:
481,333,115874,1,2,0:0:0:0:
481,333,115972,2,0,P|500:295|497:265,1,56.9999982604981,0|4,0:0|0:0,0:0:0:0:
432,231,116169,2,0,P|429:203|400:171,1,56.9999982604981,2|0,0:1|0:0,0:0:0:0:
265,210,116365,6,0,P|274:232|268:271,1,56.9999982604981,4|2,0:0|0:0,0:0:0:0:
187,314,116561,2,0,P|175:347|156:370,1,56.9999982604981
22,333,116757,6,0,B|-3:291|-3:291|34:224|34:224|81:294,1,170.999994781494,6|0,0:2|0:0,0:0:0:0:
149,33,117149,6,0,B|140:5|140:5|66:98,1,123.499994346619,4|0,0:0|0:0,0:0:0:0:
160,193,117443,2,0,B|188:201|188:201|144:90,1,123.499994346619,6|0,0:0|0:0,0:0:0:0:
11,122,117737,2,0,B|-10:144|-10:144|108:162,1,123.499994346619,6|0,0:0|3:0,0:0:0:0:
165,110,118031,6,0,P|205:79|294:105,1,123.499994346619,4|0,0:0|0:0,0:0:0:0:
341,204,118325,2,0,P|333:174|339:144,1,61.7499971733095,6|0,0:0|0:0,0:0:0:0:
393,72,118521,2,0,L|460:51,1,61.7499971733095,6|0,0:0|0:0,0:0:0:0:
279,356,118914,6,0,B|296:292|296:292|265:243|265:243,1,123.499994346619,6|0,0:1|0:0,0:0:0:0:
109,268,119208,2,0,B|91:331|91:331|122:380|122:380,1,123.499994346619,6|0,0:0|0:0,0:0:0:0:
196,314,119502,1,6,0:1:0:0:
202,277,119600,1,8,0:1:0:0:
181,246,119698,1,8,0:1:0:0:
192,210,119796,1,8,0:1:0:0:
169,180,119894,2,0,L|156:136,6,30.8749985866547,6|0|8|0|8|0|2,0:0|0:0|0:1|0:0|0:1|0:0|0:1,0:0:0:0:
86,101,120286,6,0,B|46:66|46:66|135:64|135:64|210:37|210:37|192:82,1,261.250007972718,4|0,0:0|0:0,0:0:0:0:
264,179,120874,5,8,0:1:0:0:
263,178,121070,2,0,P|288:202|320:216,1,71.2500027179719,4|0,0:0|0:0,0:0:0:0:
402,93,121267,2,0,P|367:98|336:114,1,71.2500027179719,6|0,0:0|0:0,0:0:0:0:
395,249,121463,2,0,P|402:214|396:179,1,71.2500027179719,6|0,0:0|0:0,0:0:0:0:
293,46,121659,1,6,0:1:0:0:
